  0
SECTION
  2
HEADER
  9
$ACADVER
  1
AC1009
  9
$INSBASE
 10
0.0
 20
0.0
 30
0.0
  9
$EXTMIN
 10
54.451564839427419
 20
-128.3202505842772
 30
-0.0015258207003583
  9
$EXTMAX
 10
407.47277899352639
 20
243.1157921347677
 30
0.0000000349246037
  9
$LIMMIN
 10
0.0
 20
0.0
  9
$LIMMAX
 10
12.0
 20
9.0
  9
$ORTHOMODE
 70
     0
  9
$REGENMODE
 70
     1
  9
$FILLMODE
 70
     1
  9
$QTEXTMODE
 70
     0
  9
$MIRRTEXT
 70
     0
  9
$DRAGMODE
 70
     2
  9
$LTSCALE
 40
1.0
  9
$OSMODE
 70
     0
  9
$ATTMODE
 70
     1
  9
$TEXTSIZE
 40
1.5
  9
$TRACEWID
 40
0.05
  9
$TEXTSTYLE
  7
ARIAL
  9
$CLAYER
  8
0
  9
$CELTYPE
  6
CONTINUOUS
  9
$CECOLOR
 62
   256
  9
$DIMSCALE
 40
2.0
  9
$DIMASZ
 40
3.0
  9
$DIMEXO
 40
2.0
  9
$DIMDLI
 40
6.0
  9
$DIMRND
 40
0.0
  9
$DIMDLE
 40
2.0
  9
$DIMEXE
 40
2.0
  9
$DIMTP
 40
0.0
  9
$DIMTM
 40
0.0
  9
$DIMTXT
 40
2.5
  9
$DIMCEN
 40
2.0
  9
$DIMTSZ
 40
0.0
  9
$DIMTOL
 70
     0
  9
$DIMLIM
 70
     0
  9
$DIMTIH
 70
     0
  9
$DIMTOH
 70
     0
  9
$DIMSE1
 70
     0
  9
$DIMSE2
 70
     0
  9
$DIMTAD
 70
     0
  9
$DIMZIN
 70
     0
  9
$DIMBLK
  1

  9
$DIMASO
 70
     1
  9
$DIMSHO
 70
     1
  9
$DIMPOST
  1
mm
  9
$DIMAPOST
  1

  9
$DIMALT
 70
     0
  9
$DIMALTD
 70
     2
  9
$DIMALTF
 40
0.0394
  9
$DIMLFAC
 40
1.0
  9
$DIMTOFL
 70
     0
  9
$DIMTVP
 40
0.0
  9
$DIMTIX
 70
     0
  9
$DIMSOXD
 70
     0
  9
$DIMSAH
 70
     0
  9
$DIMBLK1
  1

  9
$DIMBLK2
  1

  9
$DIMSTYLE
  2
1_TO_2
  9
$DIMCLRD
 70
   256
  9
$DIMCLRE
 70
   256
  9
$DIMCLRT
 70
   256
  9
$DIMTFAC
 40
1.0
  9
$DIMGAP
 40
1.0
  9
$LUNITS
 70
     2
  9
$LUPREC
 70
     1
  9
$SKETCHINC
 40
0.1
  9
$FILLETRAD
 40
3.0
  9
$AUNITS
 70
     1
  9
$AUPREC
 70
     4
  9
$MENU
  1
.
  9
$ELEVATION
 40
0.0
  9
$PELEVATION
 40
0.0
  9
$THICKNESS
 40
0.0
  9
$LIMCHECK
 70
     0
  9
$BLIPMODE
 70
     0
  9
$CHAMFERA
 40
0.0
  9
$CHAMFERB
 40
0.0
  9
$SKPOLY
 70
     0
  9
$TDCREATE
 40
2452152.65359294
  9
$TDUPDATE
 40
2455936.4870352782
  9
$TDINDWG
 40
10.153493252300001
  9
$TDUSRTIMER
 40
10.153493252300001
  9
$USRTIMER
 70
     1
  9
$ANGBASE
 50
0.0
  9
$ANGDIR
 70
     0
  9
$PDMODE
 70
     3
  9
$PDSIZE
 40
0.0
  9
$PLINEWID
 40
0.0
  9
$COORDS
 70
     1
  9
$SPLFRAME
 70
     0
  9
$SPLINETYPE
 70
     6
  9
$SPLINESEGS
 70
     8
  9
$ATTDIA
 70
     0
  9
$ATTREQ
 70
     1
  9
$HANDLING
 70
     1
  9
$HANDSEED
  5
14CF
  9
$SURFTAB1
 70
     6
  9
$SURFTAB2
 70
     6
  9
$SURFTYPE
 70
     6
  9
$SURFU
 70
     6
  9
$SURFV
 70
     6
  9
$UCSNAME
  2

  9
$UCSORG
 10
0.0
 20
0.0
 30
0.0
  9
$UCSXDIR
 10
1.0
 20
0.0
 30
0.0
  9
$UCSYDIR
 10
0.0
 20
1.0
 30
0.0
  9
$PUCSNAME
  2

  9
$PUCSORG
 10
0.0
 20
0.0
 30
0.0
  9
$PUCSXDIR
 10
1.0
 20
0.0
 30
0.0
  9
$PUCSYDIR
 10
0.0
 20
1.0
 30
0.0
  9
$USERI1
 70
     0
  9
$USERI2
 70
     0
  9
$USERI3
 70
     0
  9
$USERI4
 70
     0
  9
$USERI5
 70
     0
  9
$USERR1
 40
0.0
  9
$USERR2
 40
0.0
  9
$USERR3
 40
0.0
  9
$USERR4
 40
0.0
  9
$USERR5
 40
0.0
  9
$WORLDVIEW
 70
     1
  9
$SHADEDGE
 70
     3
  9
$SHADEDIF
 70
    70
  9
$TILEMODE
 70
     1
  9
$MAXACTVP
 70
    48
  9
$PLIMCHECK
 70
     0
  9
$PEXTMIN
 10
0.0
 20
0.0
 30
0.0
  9
$PEXTMAX
 10
0.0
 20
0.0
 30
0.0
  9
$PLIMMIN
 10
0.0
 20
0.0
  9
$PLIMMAX
 10
12.0
 20
9.0
  9
$UNITMODE
 70
     0
  9
$VISRETAIN
 70
     1
  9
$PLINEGEN
 70
     1
  9
$PSLTSCALE
 70
     1
  0
ENDSEC
  0
SECTION
  2
TABLES
  0
TABLE
  2
VPORT
 70
     1
  0
VPORT
  2
*ACTIVE
 70
     0
 10
0.0
 20
0.0
 11
1.0
 21
1.0
 12
230.9621719164769
 22
57.397770775245249
 13
0.0
 23
0.0
 14
1.0
 24
1.0
 15
0.5
 25
0.5
 16
0.0
 26
0.0
 36
1.0
 17
0.0
 27
0.0
 37
0.0
 40
373.66912514020157
 41
1.908726178535606
 42
50.0
 43
0.0
 44
0.0
 50
0.0
 51
0.0
 71
     0
 72
 20000
 73
     1
 74
     3
 75
     0
 76
     0
 77
     0
 78
     0
  0
ENDTAB
  0
TABLE
  2
LTYPE
 70
     2
  0
LTYPE
  2
CONTINUOUS
 70
     0
  3
Solid line
 72
    65
 73
     0
 40
0.0
  0
ENDTAB
  0
TABLE
  2
LAYER
 70
    59
  0
LAYER
  2
0
 70
     0
 62
     7
  6
CONTINUOUS
  0
LAYER
  2
DEFPOINTS
 70
     0
 62
   211
  6
CONTINUOUS
  0
ENDTAB
  0
TABLE
  2
STYLE
 70
     7
  0
STYLE
  2
STANDARD
 70
     0
 40
0.0
 41
1.0
 50
0.0
 71
     0
 42
1.5
  3
romans.shx
  4

  0
STYLE
  2
ARIAL
 70
     0
 40
0.0
 41
1.0
 50
0.0
 71
     0
 42
1.5
  3
txt
  4

  0
STYLE
  2
$0$ARIAL
 70
     0
 40
0.0
 41
1.0
 50
0.0
 71
     0
 42
1.5
  3
txt
  4

  0
STYLE
  2
$3$ARIAL
 70
     0
 40
0.0
 41
1.0
 50
0.0
 71
     0
 42
1.5
  3
txt
  4

  0
STYLE
  2
$4$ARIAL
 70
     0
 40
0.0
 41
1.0
 50
0.0
 71
     0
 42
1.5
  3
txt
  4

  0
STYLE
  2
COMM-34_JCTN_HZ_CLAD_WAL$0
 70
     0
 40
0.0
 41
1.0
 50
0.0
 71
     0
 42
1.5
  3
txt
  4

  0
ENDTAB
  0
TABLE
  2
VIEW
 70
     2
  0
VIEW
  2
COMM-04
 70
     1
 40
477.26027331217421
 10
194.21746115522001
 20
180.60494410563541
 41
755.81685306636155
 11
0.0
 21
0.0
 31
1.0
 12
0.0
 22
0.0
 32
0.0
 42
50.0
 43
0.0
 44
0.0
 50
0.0
 71
     0
  0
ENDTAB
  0
TABLE
  2
UCS
 70
     0
  0
ENDTAB
  0
TABLE
  2
APPID
 70
    26
  0
APPID
  2
ACAD
 70
     0
  0
APPID
  2
RAK
 70
     0
  0
APPID
  2
ACAD_EXEMPT_FROM_CAD_STANDARDS
 70
     0
  0
APPID
  2
ACAD_MLEADERVER
 70
     0
  0
APPID
  2
ACADANNOTATIVE
 70
     0
  0
APPID
  2
GENIUS_GENOREF_13
 70
     0
  0
APPID
  2
ACDBBLOCKREPETAG
 70
     0
  0
APPID
  2
ACDBDYNAMICBLOCKGUID
 70
     0
  0
APPID
  2
ACAD_PSEXT
 70
     0
  0
APPID
  2
ACAD_DSTYLE_DIMEXT_ENABLED
 70
     0
  0
APPID
  2
ACAD_DSTYLE_DIMEXT_LENGTH
 70
     0
  0
APPID
  2
GENIUS_GENODEF_13
 70
     0
  0
APPID
  2
GENIUS_GENSCREG_15
 70
     0
  0
APPID
  2
GENIUS_GENOBJ-N-SDF_13
 70
     0
  0
APPID
  2
GENIUS_GENCFG_13
 70
     0
  0
APPID
  2
GENIUS_GENCFG0_13
 70
     0
  0
APPID
  2
ACAECLAYERSTANDARD
 70
     0
  0
APPID
  2
ACCMTRANSPARENCY
 70
     0
  0
APPID
  2
ACADANNOPO
 70
     0
  0
APPID
  2
ADESKUNDERLAYLAYEROVERRIDEDATA
 70
     0
  0
APPID
  2
URBANX
 70
     0
  0
APPID
  2
GRADIENTCOLOR1ACI
 70
     0
  0
APPID
  2
GRADIENTCOLOR2ACI
 70
     0
  0
APPID
  2
ACAD_NAV_VCDISPLAY
 70
     0
  0
APPID
  2
ACAD_DSTYLE_DIMJOGGED_JOGA
 70
     0
  0
APPID
  2
PE_URL
 70
     0
  0
ENDTAB
  0
TABLE
  2
DIMSTYLE
 70
     7
  0
DIMSTYLE
  2
1_TO_2
 70
     0
  3
mm
  4

  5

  6

  7

 40
2.0
 41
3.0
 42
2.0
 43
6.0
 44
2.0
 45
0.0
 46
2.0
 47
0.0
 48
0.0
140
2.5
141
2.0
142
0.0
143
0.0394
144
1.0
145
0.0
146
1.0
147
1.0
 71
     0
 72
     0
 73
     0
 74
     0
 75
     0
 76
     0
 77
     0
 78
     0
170
     0
171
     2
172
     0
173
     0
174
     0
175
     0
176
   256
177
   256
178
   256
  0
DIMSTYLE
  2
$0$1_TO_2_LEADER
 70
     0
  3

  4

  5
$0$_ARCHTICK
  6

  7

 40
2.0
 41
2.0
 42
2.0
 43
6.0
 44
1.5
 45
0.0
 46
1.5
 47
0.0
 48
0.0
140
2.0
141
2.0
142
0.0
143
0.0394
144
1.0
145
0.0
146
1.0
147
1.0
 71
     0
 72
     0
 73
     0
 74
     0
 75
     0
 76
     0
 77
     0
 78
     0
170
     0
171
     2
172
     1
173
     0
174
     1
175
     0
176
     0
177
     0
178
     0
  0
DIMSTYLE
  2
$0$1_TO_2
 70
     0
  3

  4

  5
$3$_ARCHTICK
  6

  7

 40
2.0
 41
2.0
 42
2.0
 43
6.0
 44
2.0
 45
0.0
 46
2.0
 47
0.0
 48
0.0
140
2.0
141
2.0
142
0.0
143
0.0394
144
1.0
145
0.0
146
1.0
147
1.0
 71
     0
 72
     0
 73
     0
 74
     0
 75
     0
 76
     0
 77
     1
 78
     0
170
     0
171
     2
172
     0
173
     0
174
     0
175
     0
176
   256
177
   256
178
   256
  0
DIMSTYLE
  2
$1$1_TO_2_LEADER
 70
     0
  3

  4

  5
$4$_ARCHTICK
  6

  7

 40
2.0
 41
2.0
 42
2.0
 43
6.0
 44
1.5
 45
0.0
 46
1.5
 47
0.0
 48
0.0
140
2.0
141
2.0
142
0.0
143
0.0394
144
1.0
145
0.0
146
1.0
147
1.0
 71
     0
 72
     0
 73
     0
 74
     0
 75
     0
 76
     0
 77
     0
 78
     0
170
     0
171
     2
172
     1
173
     0
174
     1
175
     0
176
     0
177
     0
178
     0
  0
DIMSTYLE
  2
COMM-34_JCTN_HZ_CLAD_WAL$0
 70
     0
  3

  4

  5
COMM-34_JCTN_HZ_CLAD_WAL$0
  6

  7

 40
2.0
 41
2.0
 42
2.0
 43
6.0
 44
2.0
 45
0.0
 46
2.0
 47
0.0
 48
0.0
140
2.0
141
2.0
142
0.0
143
0.0394
144
1.0
145
0.0
146
1.0
147
1.0
 71
     0
 72
     0
 73
     0
 74
     0
 75
     0
 76
     0
 77
     1
 78
     0
170
     0
171
     2
172
     0
173
     0
174
     0
175
     0
176
   256
177
   256
178
   256
  0
DIMSTYLE
  2
COMM-34_JCTN_HZ_CLAD_WAL$1
 70
     0
  3

  4

  5
COMM-34_JCTN_HZ_CLAD_WAL$0
  6

  7

 40
2.0
 41
2.0
 42
2.0
 43
6.0
 44
1.5
 45
0.0
 46
1.5
 47
0.0
 48
0.0
140
2.0
141
2.0
142
0.0
143
0.0394
144
1.0
145
0.0
146
1.0
147
1.0
 71
     0
 72
     0
 73
     0
 74
     0
 75
     0
 76
     0
 77
     0
 78
     0
170
     0
171
     2
172
     1
173
     0
174
     1
175
     0
176
     0
177
     0
178
     0
  0
ENDTAB
  0
ENDSEC
  0
SECTION
  2
BLOCKS
  0
BLOCK
  8
0
  2
$MODEL_SPACE
 70
     0
 10
0.0
 20
0.0
 30
0.0
  3
$MODEL_SPACE
  1

  0
ENDBLK
  5
C
  8
0
  0
BLOCK
 67
     1
  8
0
  2
$PAPER_SPACE
 70
     0
 10
0.0
 20
0.0
 30
0.0
  3
$PAPER_SPACE
  1

  0
ENDBLK
  5
1199
 67
     1
  8
0
  0
BLOCK
  8
0
  2
$0$_ARCHTICK
 70
     0
 10
0.0
 20
0.0
 30
0.0
  3
$0$_ARCHTICK
  1

  0
POLYLINE
  5
AC5
  8
0
  6
BYBLOCK
 62
     0
 66
     1
 10
0.0
 20
0.0
 30
0.0
 40
0.15
 41
0.15
  0
VERTEX
  5
1370
  8
0
  6
BYBLOCK
 62
     0
 10
-0.5
 20
-0.5
 30
0.0
  0
VERTEX
  5
1371
  8
0
  6
BYBLOCK
 62
     0
 10
0.5
 20
0.5
 30
0.0
  0
SEQEND
  5
1372
  8
0
  6
BYBLOCK
 62
     0
  0
ENDBLK
  5
AC6
  8
0
  0
BLOCK
  8
0
  2
$3$_ARCHTICK
 70
     0
 10
0.0
 20
0.0
 30
0.0
  3
$3$_ARCHTICK
  1

  0
POLYLINE
  5
CE2
  8
0
  6
BYBLOCK
 62
     0
 66
     1
 10
0.0
 20
0.0
 30
0.0
 40
0.15
 41
0.15
  0
VERTEX
  5
1382
  8
0
  6
BYBLOCK
 62
     0
 10
-0.5
 20
-0.5
 30
0.0
  0
VERTEX
  5
1383
  8
0
  6
BYBLOCK
 62
     0
 10
0.5
 20
0.5
 30
0.0
  0
SEQEND
  5
1384
  8
0
  6
BYBLOCK
 62
     0
  0
ENDBLK
  5
CE3
  8
0
  0
BLOCK
  8
0
  2
*D3
 70
     1
 10
0.0
 20
0.0
 30
0.0
  3
*D3
  1

  0
LINE
  5
11A6
  8
0
 10
296.06557923795123
 20
119.8758083725706
 30
0.0
 11
310.06557923795123
 21
119.8758083725706
 31
0.0
  0
LINE
  5
11A7
  8
0
 10
296.06557923795123
 20
109.2820999482928
 30
0.0
 11
310.06557923795123
 21
109.2820999482928
 31
0.0
  0
LINE
  5
11A8
  8
0
 10
306.06557923795123
 20
123.8758083725706
 30
0.0
 11
306.06557923795123
 21
105.2820999482928
 31
0.0
  0
INSERT
  5
11A9
  8
0
  6
CONTINUOUS
  2
*U26
 10
0.0
 20
0.0
 30
0.0
  0
INSERT
  5
11AA
  8
0
  2
$3$_ARCHTICK
 10
306.06557923795123
 20
119.8758083725706
 30
0.0
 41
4.0
 42
4.0
 43
4.0
 50
90.0
  0
INSERT
  5
11AB
  8
0
  2
$3$_ARCHTICK
 10
306.06557923795123
 20
109.2820999482928
 30
0.0
 41
4.0
 42
4.0
 43
4.0
 50
270.0
  0
POINT
  5
11AC
  8
DEFPOINTS
 62
     0
 10
287.67478455174398
 20
119.8758083725707
 30
0.0
  0
POINT
  5
11AD
  8
DEFPOINTS
 62
     0
 10
287.67478455174398
 20
109.2820999482928
 30
0.0
  0
POINT
  5
11AE
  8
DEFPOINTS
 62
     0
 10
306.06557923795123
 20
109.2820999482928
 30
0.0
  0
ENDBLK
  5
D21
  8
0
  0
BLOCK
  8
0
  2
$4$_ARCHTICK
 70
     0
 10
0.0
 20
0.0
 30
0.0
  3
$4$_ARCHTICK
  1

  0
POLYLINE
  5
D73
  8
0
  6
BYBLOCK
 62
     0
 66
     1
 10
0.0
 20
0.0
 30
0.0
 40
0.15
 41
0.15
  0
VERTEX
  5
1385
  8
0
  6
BYBLOCK
 62
     0
 10
-0.5
 20
-0.5
 30
0.0
  0
VERTEX
  5
1386
  8
0
  6
BYBLOCK
 62
     0
 10
0.5
 20
0.5
 30
0.0
  0
SEQEND
  5
1387
  8
0
  6
BYBLOCK
 62
     0
  0
ENDBLK
  5
D74
  8
0
  0
BLOCK
  8
0
  2
COMM-34_JCTN_HZ_CLAD_WAL$0
 70
     0
 10
0.0
 20
0.0
 30
0.0
  3
COMM-34_JCTN_HZ_CLAD_WAL$0
  1

  0
POLYLINE
  5
112A
  8
0
  6
BYBLOCK
 62
     0
 66
     1
 10
0.0
 20
0.0
 30
0.0
 40
0.15
 41
0.15
  0
VERTEX
  5
13CF
  8
0
  6
BYBLOCK
 62
     0
 10
-0.5
 20
-0.5
 30
0.0
  0
VERTEX
  5
13D0
  8
0
  6
BYBLOCK
 62
     0
 10
0.5
 20
0.5
 30
0.0
  0
SEQEND
  5
13D1
  8
0
  6
BYBLOCK
 62
     0
  0
ENDBLK
  5
112B
  8
0
  0
BLOCK
  8
0
  2
*D12
 70
     1
 10
0.0
 20
0.0
 30
0.0
  3
*D12
  1

  0
LINE
  5
119B
  8
0
 10
257.9706470526873
 20
136.16357461059869
 30
0.0
 11
257.9706470526873
 21
150.16357461059869
 31
0.0
  0
LINE
  5
119C
  8
0
 10
248.24369558740909
 20
136.16357461059869
 30
0.0
 11
248.24369558740909
 21
150.16357461059869
 31
0.0
  0
LINE
  5
119D
  8
0
 10
261.9706470526873
 20
146.16357461059869
 30
0.0
 11
244.24369558740909
 21
146.16357461059869
 31
0.0
  0
LINE
  5
119E
  8
0
 10
253.1071713200482
 20
146.16357461059869
 30
0.0
 11
252.1160709109904
 21
155.71643954920719
 31
0.0
  0
LINE
  5
119F
  8
0
 10
252.1160709109904
 20
155.71643954920719
 30
0.0
 11
191.94417459448289
 21
155.71643954920719
 31
0.0
  0
INSERT
  5
11A0
  8
0
  6
CONTINUOUS
  2
*U25
 10
0.0
 20
0.0
 30
0.0
  0
INSERT
  5
11A1
  8
0
  2
COMM-34_JCTN_HZ_CLAD_WAL$0
 10
257.9706470526873
 20
146.16357461059869
 30
0.0
 41
4.0
 42
4.0
 43
4.0
  0
INSERT
  5
11A2
  8
0
  2
COMM-34_JCTN_HZ_CLAD_WAL$0
 10
248.24369558740909
 20
146.16357461059869
 30
0.0
 41
4.0
 42
4.0
 43
4.0
 50
180.0
  0
POINT
  5
11A3
  8
DEFPOINTS
 62
     0
 10
257.9706470526873
 20
95.208771578798689
 30
0.0
  0
POINT
  5
11A4
  8
DEFPOINTS
 62
     0
 10
248.24369558740909
 20
95.145664207763744
 30
0.0
  0
POINT
  5
11A5
  8
DEFPOINTS
 62
     0
 10
248.24369558740909
 20
146.16357461059869
 30
0.0
  0
ENDBLK
  5
117B
  8
0
  0
BLOCK
  8
0
  2
*U14
 70
     1
 10
0.0
 20
0.0
 30
0.0
  3
*U14
  1

  0
SOLID
  5
1364
  8
0
 10
155.4312409903782
 20
123.7275737659088
 30
0.0
 11
156.69944751895579
 21
119.8758083725706
 31
0.0
 12
154.25057148597551
 22
123.10806000564919
 32
0.0
 13
154.25057148597551
 23
123.10806000564919
 33
0.0
  0
POLYLINE
  5
1365
  8
0
 66
     1
 10
0.0
 20
0.0
 30
0.0
  0
VERTEX
  5
1366
  8
0
 10
154.8409062381769
 20
123.417816885779
 30
0.0
  0
VERTEX
  5
1367
  8
0
 10
142.704919308472
 20
146.5465843044849
 30
0.0
  0
VERTEX
  5
1368
  8
0
 10
138.70491930847189
 20
146.5465843044849
 30
0.0
  0
SEQEND
  5
1369
  8
0
  0
ENDBLK
  5
136B
  8
0
  0
BLOCK
  8
0
  2
*U15
 70
     1
 10
0.0
 20
0.0
 30
0.0
  3
*U15
  1

  0
TEXT
  5
136D
  8
0
  6
CONTINUOUS
 10
54.459353142032683
 20
145.22257339043301
 30
0.0
 40
4.0
  1
Steel & Tube Hi Rib wall cladding
  7
$0$ARIAL
  0
ENDBLK
  5
136F
  8
0
  0
BLOCK
  8
0
  2
*U16
 70
     1
 10
0.0
 20
0.0
 30
0.0
  3
*U16
  1

  0
SOLID
  5
1389
  8
0
 10
258.48799002054773
 20
115.8493467260687
 30
0.0
 11
254.86994185318619
 21
114.0179068818213
 31
0.0
 12
257.69843935931277
 22
116.92377100498339
 32
0.0
 13
257.69843935931277
 23
116.92377100498339
 33
0.0
  0
POLYLINE
  5
138A
  8
0
 66
     1
 10
0.0
 20
0.0
 30
0.0
  0
VERTEX
  5
138B
  8
0
 10
258.09321468993022
 20
116.386558865526
 30
0.0
  0
VERTEX
  5
138C
  8
0
 10
309.6330640524634
 20
154.2610959015305
 30
0.0
  0
VERTEX
  5
138D
  8
0
 10
313.6330640524634
 20
154.2610959015305
 30
0.0
  0
SEQEND
  5
138E
  8
0
  0
ENDBLK
  5
1390
  8
0
  0
BLOCK
  8
0
  2
*U17
 70
     1
 10
0.0
 20
0.0
 30
0.0
  3
*U17
  1

  0
TEXT
  5
1392
  8
0
  6
CONTINUOUS
 10
315.02460566228598
 20
158.99461113572789
 30
0.0
 40
4.0
  1
10mm deep x 10 0 25mm wide
  7
$4$ARIAL
  0
TEXT
  5
1393
  8
0
  6
CONTINUOUS
 10
315.6330640524634
 20
152.25368648816081
 30
0.0
 40
4.0
  1
Holdfast
  7
$4$ARIAL
  0
TEXT
  5
1394
  8
0
  6
CONTINUOUS
 10
336.12617646719741
 20
154.75908648816079
 30
0.0
 40
3.0323999999999991
  1
®
  7
$4$ARIAL
  0
TEXT
  5
1395
  8
0
  6
CONTINUOUS
 10
336.1323819242233
 20
153.7482864881608
 30
0.0
 40
3.0323999999999991
  1

  7
$4$ARIAL
  0
TEXT
  5
1396
  8
0
  6
CONTINUOUS
 10
339.4564384044416
 20
152.83755568816079
 30
0.0
 40
2.8322615999999998
  1
 
  7
$4$ARIAL
  0
TEXT
  5
1397
  8
0
  6
CONTINUOUS
 10
342.01896080444158
 20
152.25368648816081
 30
0.0
 40
4.0
  1
FIX ALL
  7
$4$ARIAL
  0
TEXT
  5
1398
  8
0
  6
CONTINUOUS
 10
362.20102274168568
 20
154.75908648816079
 30
0.0
 40
3.0323999999999991
  1
®
  7
$4$ARIAL
  0
TEXT
  5
1399
  8
0
  6
CONTINUOUS
 10
362.20722819871168
 20
153.7482864881608
 30
0.0
 40
3.0323999999999991
  1

  7
$4$ARIAL
  0
TEXT
  5
139A
  8
0
  6
CONTINUOUS
 10
365.53128467892998
 20
152.25368648816081
 30
0.0
 40
4.0
  1
  220LM MS joint
  7
$4$ARIAL
  0
TEXT
  5
139B
  8
0
  6
CONTINUOUS
 10
315.46116773595588
 20
145.58487943950229
 30
0.0
 40
4.0
  1
sealant
  7
$4$ARIAL
  0
ENDBLK
  5
139D
  8
0
  0
BLOCK
  8
0
  2
*U18
 70
     1
 10
0.0
 20
0.0
 30
0.0
  3
*U18
  1

  0
SOLID
  5
139F
  8
0
 10
255.48408304859041
 20
105.5241036598505
 30
0.0
 11
252.6539063177934
 21
108.4283323211131
 31
0.0
 12
256.27301252084868
 22
106.59898414882601
 32
0.0
 13
256.27301252084868
 23
106.59898414882601
 33
0.0
  0
POLYLINE
  5
13A0
  8
0
 66
     1
 10
0.0
 20
0.0
 30
0.0
  0
VERTEX
  5
13A1
  8
0
 10
255.87854778471959
 20
106.06154390433829
 30
0.0
  0
VERTEX
  5
13A2
  8
0
 10
309.6330640524634
 20
66.607369616519975
 30
0.0
  0
VERTEX
  5
13A3
  8
0
 10
313.6330640524634
 20
66.607369616519975
 30
0.0
  0
SEQEND
  5
13A4
  8
0
  0
ENDBLK
  5
13A6
  8
0
  0
BLOCK
  8
0
  2
*U19
 70
     1
 10
0.0
 20
0.0
 30
0.0
  3
*U19
  1

  0
TEXT
  5
13A8
  8
0
  6
CONTINUOUS
 10
315.18558792695183
 20
68.463989307288514
 30
0.0
 40
4.0
  1
Holdfast
  7
$4$ARIAL
  0
TEXT
  5
13A9
  8
0
  6
CONTINUOUS
 10
335.67870034168573
 20
70.969389307288523
 30
0.0
 40
3.0323999999999991
  1
®
  7
$4$ARIAL
  0
TEXT
  5
13AA
  8
0
  6
CONTINUOUS
 10
335.68490579871172
 20
69.95858930728852
 30
0.0
 40
3.0323999999999991
  1

  7
$4$ARIAL
  0
TEXT
  5
13AB
  8
0
  6
CONTINUOUS
 10
339.00896227893003
 20
68.463989307288514
 30
0.0
 40
4.0
  1
 Gator Yellow Bond
  7
$4$ARIAL
  0
TEXT
  5
13AC
  8
0
  6
CONTINUOUS
 10
315.22378710839791
 20
61.795182258630028
 30
0.0
 40
4.0
  1
Breaker tape
  7
$4$ARIAL
  0
ENDBLK
  5
13AE
  8
0
  0
BLOCK
  8
0
  2
*X20
 70
     1
 10
0.0
 20
0.0
 30
0.0
  3
*X20
  1

  0
LINE
  5
13E5
  8
0
  6
CONTINUOUS
 62
     0
 10
281.49808253712519
 20
-111.8191191716223
 30
0.0
 11
281.49808253712519
 21
-111.8191191716223
 31
0.0
  0
LINE
  5
13E6
  8
0
  6
CONTINUOUS
 62
     0
 10
262.097071785369
 20
-94.041368212340771
 30
0.0
 11
262.097071785369
 21
-94.041368212340771
 31
0.0
  0
LINE
  5
13E7
  8
0
  6
CONTINUOUS
 62
     0
 10
279.55045923183741
 20
-77.802075677939598
 30
0.0
 11
279.55045923183741
 21
-77.802075677939598
 31
0.0
  0
LINE
  5
13E8
  8
0
  6
CONTINUOUS
 62
     0
 10
281.64783430722463
 20
-47.491590299319483
 30
0.0
 11
281.64783430722463
 21
-47.491590299319483
 31
0.0
  0
LINE
  5
13E9
  8
0
  6
CONTINUOUS
 62
     0
 10
262.24682355546832
 20
-29.71383934003795
 30
0.0
 11
262.24682355546832
 21
-29.71383934003795
 31
0.0
  0
LINE
  5
13EA
  8
0
  6
CONTINUOUS
 62
     0
 10
279.70021100193679
 20
-13.474546805636789
 30
0.0
 11
279.70021100193679
 21
-13.474546805636789
 31
0.0
  0
LINE
  5
13EB
  8
0
  6
CONTINUOUS
 62
     0
 10
281.7975860773239
 20
16.83593857298337
 30
0.0
 11
281.7975860773239
 21
16.83593857298337
 31
0.0
  0
LINE
  5
13EC
  8
0
  6
CONTINUOUS
 62
     0
 10
262.39657532556771
 20
34.613689532264907
 30
0.0
 11
262.39657532556771
 21
34.613689532264907
 31
0.0
  0
LINE
  5
13ED
  8
0
  6
CONTINUOUS
 62
     0
 10
279.84996277203612
 20
50.852982066666087
 30
0.0
 11
279.84996277203612
 21
50.852982066666087
 31
0.0
  0
LINE
  5
13EE
  8
0
  6
CONTINUOUS
 62
     0
 10
281.94733784742328
 20
81.163467445286173
 30
0.0
 11
281.94733784742328
 21
81.163467445286173
 31
0.0
  0
LINE
  5
13EF
  8
0
  6
CONTINUOUS
 62
     0
 10
262.54632709566698
 20
98.941218404567707
 30
0.0
 11
262.54632709566698
 21
98.941218404567707
 31
0.0
  0
LINE
  5
13F0
  8
0
  6
CONTINUOUS
 62
     0
 10
279.99971454213539
 20
115.18051093896889
 30
0.0
 11
279.99971454213539
 21
115.18051093896889
 31
0.0
  0
LINE
  5
13F1
  8
0
  6
CONTINUOUS
 62
     0
 10
282.09708961752261
 20
145.49099631758901
 30
0.0
 11
282.09708961752261
 21
145.49099631758901
 31
0.0
  0
LINE
  5
13F2
  8
0
  6
CONTINUOUS
 62
     0
 10
262.69607886576631
 20
163.26874727687061
 30
0.0
 11
262.69607886576631
 21
163.26874727687061
 31
0.0
  0
LINE
  5
13F3
  8
0
  6
CONTINUOUS
 62
     0
 10
280.14946631223478
 20
179.50803981127169
 30
0.0
 11
280.14946631223478
 21
179.50803981127169
 31
0.0
  0
LINE
  5
13F4
  8
0
  6
CONTINUOUS
 62
     0
 10
282.246841387622
 20
209.81852518989189
 30
0.0
 11
282.246841387622
 21
209.81852518989189
 31
0.0
  0
LINE
  5
13F5
  8
0
  6
CONTINUOUS
 62
     0
 10
262.8458306358657
 20
227.59627614917341
 30
0.0
 11
262.8458306358657
 21
227.59627614917341
 31
0.0
  0
LINE
  5
13F6
  8
0
  6
CONTINUOUS
 62
     0
 10
284.80204639264741
 20
-124.1343072497405
 30
0.0
 11
284.80204639264741
 21
-124.1343072497405
 31
0.0
  0
LINE
  5
13F7
  8
0
  6
CONTINUOUS
 62
     0
 10
274.09097503082381
 20
-117.3106022237358
 30
0.0
 11
274.09097503082381
 21
-117.3106022237358
 31
0.0
  0
LINE
  5
13F8
  8
0
  6
CONTINUOUS
 62
     0
 10
283.98337765962248
 20
-91.351961013145896
 30
0.0
 11
283.98337765962248
 21
-91.351961013145896
 31
0.0
  0
LINE
  5
13F9
  8
0
  6
CONTINUOUS
 62
     0
 10
277.68295404410702
 20
-71.207750130546046
 30
0.0
 11
277.68295404410702
 21
-71.207750130546046
 31
0.0
  0
LINE
  5
13FA
  8
0
  6
CONTINUOUS
 62
     0
 10
266.97188268228331
 20
-64.384045104541372
 30
0.0
 11
266.97188268228331
 21
-64.384045104541372
 31
0.0
  0
LINE
  5
13FB
  8
0
  6
CONTINUOUS
 62
     0
 10
276.86428531108203
 20
-38.425403893951433
 30
0.0
 11
276.86428531108203
 21
-38.425403893951433
 31
0.0
  0
LINE
  5
13FC
  8
0
  6
CONTINUOUS
 62
     0
 10
270.56386169556652
 20
-18.28119301135153
 30
0.0
 11
270.56386169556652
 21
-18.28119301135153
 31
0.0
  0
LINE
  5
13FD
  8
0
  6
CONTINUOUS
 62
     0
 10
259.8527903337428
 20
-11.457487985346861
 30
0.0
 11
259.8527903337428
 21
-11.457487985346861
 31
0.0
  0
LINE
  5
13FE
  8
0
  6
CONTINUOUS
 62
     0
 10
286.97090936711709
 20
-12.603236783881551
 30
0.0
 11
286.97090936711709
 21
-12.603236783881551
 31
0.0
  0
LINE
  5
13FF
  8
0
  6
CONTINUOUS
 62
     0
 10
269.74519296254152
 20
14.50115322524309
 30
0.0
 11
269.74519296254152
 21
14.50115322524309
 31
0.0
  0
LINE
  5
1400
  8
0
  6
CONTINUOUS
 62
     0
 10
263.44476934702601
 20
34.645364107842973
 30
0.0
 11
263.44476934702601
 21
34.645364107842973
 31
0.0
  0
LINE
  5
1401
  8
0
  6
CONTINUOUS
 62
     0
 10
279.85181701857658
 20
40.323320335312921
 30
0.0
 11
279.85181701857658
 21
40.323320335312921
 31
0.0
  0
LINE
  5
1402
  8
0
  6
CONTINUOUS
 62
     0
 10
262.62610061400102
 20
67.427710344437571
 30
0.0
 11
262.62610061400102
 21
67.427710344437571
 31
0.0
  0
LINE
  5
1403
  8
0
  6
CONTINUOUS
 62
     0
 10
283.4437960318599
 20
86.426172428502738
 30
0.0
 11
283.4437960318599
 21
86.426172428502738
 31
0.0
  0
LINE
  5
1404
  8
0
  6
CONTINUOUS
 62
     0
 10
272.7327246700363
 20
93.249877454507413
 30
0.0
 11
272.7327246700363
 21
93.249877454507413
 31
0.0
  0
LINE
  5
1405
  8
0
  6
CONTINUOUS
 62
     0
 10
282.6251272988348
 20
119.2085186650973
 30
0.0
 11
282.6251272988348
 21
119.2085186650973
 31
0.0
  0
LINE
  5
1406
  8
0
  6
CONTINUOUS
 62
     0
 10
276.3247036833194
 20
139.35272954769721
 30
0.0
 11
276.3247036833194
 21
139.35272954769721
 31
0.0
  0
LINE
  5
1407
  8
0
  6
CONTINUOUS
 62
     0
 10
265.61363232149569
 20
146.1764345737019
 30
0.0
 11
265.61363232149569
 21
146.1764345737019
 31
0.0
  0
LINE
  5
1408
  8
0
  6
CONTINUOUS
 62
     0
 10
275.50603495029441
 20
172.1350757842919
 30
0.0
 11
275.50603495029441
 21
172.1350757842919
 31
0.0
  0
LINE
  5
1409
  8
0
  6
CONTINUOUS
 62
     0
 10
269.20561133477889
 20
192.27928666689169
 30
0.0
 11
269.20561133477889
 21
192.27928666689169
 31
0.0
  0
LINE
  5
140A
  8
0
  6
CONTINUOUS
 62
     0
 10
258.49453997295529
 20
199.10299169289641
 30
0.0
 11
258.49453997295529
 21
199.10299169289641
 31
0.0
  0
LINE
  5
140B
  8
0
  6
CONTINUOUS
 62
     0
 10
285.6126590063293
 20
197.9572428943618
 30
0.0
 11
285.6126590063293
 21
197.9572428943618
 31
0.0
  0
LINE
  5
140C
  8
0
  6
CONTINUOUS
 62
     0
 10
268.3869426017539
 20
225.06163290348641
 30
0.0
 11
268.3869426017539
 21
225.06163290348641
 31
0.0
  0
LINE
  5
140D
  8
0
  6
CONTINUOUS
 62
     0
 10
277.32616863248739
 20
-109.7030762302951
 30
0.0
 11
277.32616863248739
 21
-109.7030762302951
 31
0.0
  0
LINE
  5
140E
  8
0
  6
CONTINUOUS
 62
     0
 10
264.60890539564548
 20
-111.3773356979017
 30
0.0
 11
264.60890539564548
 21
-111.3773356979017
 31
0.0
  0
LINE
  5
140F
  8
0
  6
CONTINUOUS
 62
     0
 10
277.97283789770671
 20
-91.341220734277798
 30
0.0
 11
277.97283789770671
 21
-91.341220734277798
 31
0.0
  0
LINE
  5
1410
  8
0
  6
CONTINUOUS
 62
     0
 10
259.25401126365591
 20
-75.528881140417894
 30
0.0
 11
259.25401126365591
 21
-75.528881140417894
 31
0.0
  0
LINE
  5
1411
  8
0
  6
CONTINUOUS
 62
     0
 10
272.61794376571709
 20
-55.492766176793978
 30
0.0
 11
272.61794376571709
 21
-55.492766176793978
 31
0.0
  0
LINE
  5
1412
  8
0
  6
CONTINUOUS
 62
     0
 10
285.9818762677782
 20
-35.456651213170083
 30
0.0
 11
285.9818762677782
 21
-35.456651213170083
 31
0.0
  0
LINE
  5
1413
  8
0
  6
CONTINUOUS
 62
     0
 10
266.74229386590258
 20
-37.989590288915522
 30
0.0
 11
266.74229386590258
 21
-37.989590288915522
 31
0.0
  0
LINE
  5
1414
  8
0
  6
CONTINUOUS
 62
     0
 10
280.10622636796381
 20
-17.95347532529162
 30
0.0
 11
280.10622636796381
 21
-17.95347532529162
 31
0.0
  0
LINE
  5
1415
  8
0
  6
CONTINUOUS
 62
     0
 10
267.3889631311219
 20
-19.62773479289822
 30
0.0
 11
267.3889631311219
 21
-19.62773479289822
 31
0.0
  0
LINE
  5
1416
  8
0
  6
CONTINUOUS
 62
     0
 10
280.75289563318307
 20
0.4083801707256871
 30
0.0
 11
280.75289563318307
 21
0.4083801707256871
 31
0.0
  0
LINE
  5
1417
  8
0
  6
CONTINUOUS
 62
     0
 10
262.03406899913222
 20
16.220719764585599
 30
0.0
 11
262.03406899913222
 21
16.220719764585599
 31
0.0
  0
LINE
  5
1418
  8
0
  6
CONTINUOUS
 62
     0
 10
275.39800150119339
 20
36.256834728209512
 30
0.0
 11
275.39800150119339
 21
36.256834728209512
 31
0.0
  0
LINE
  5
1419
  8
0
  6
CONTINUOUS
 62
     0
 10
269.52235160137889
 20
53.760010616087953
 30
0.0
 11
269.52235160137889
 21
53.760010616087953
 31
0.0
  0
LINE
  5
141A
  8
0
  6
CONTINUOUS
 62
     0
 10
282.88628410344012
 20
73.79612557971187
 30
0.0
 11
282.88628410344012
 21
73.79612557971187
 31
0.0
  0
LINE
  5
141B
  8
0
  6
CONTINUOUS
 62
     0
 10
270.1690208665982
 20
72.121866112105266
 30
0.0
 11
270.1690208665982
 21
72.121866112105266
 31
0.0
  0
LINE
  5
141C
  8
0
  6
CONTINUOUS
 62
     0
 10
283.53295336865938
 20
92.157981075729154
 30
0.0
 11
283.53295336865938
 21
92.157981075729154
 31
0.0
  0
LINE
  5
141D
  8
0
  6
CONTINUOUS
 62
     0
 10
264.81412673460852
 20
107.9703206695891
 30
0.0
 11
264.81412673460852
 21
107.9703206695891
 31
0.0
  0
LINE
  5
141E
  8
0
  6
CONTINUOUS
 62
     0
 10
278.1780592366697
 20
128.00643563321299
 30
0.0
 11
278.1780592366697
 21
128.00643563321299
 31
0.0
  0
LINE
  5
141F
  8
0
  6
CONTINUOUS
 62
     0
 10
258.93847683479407
 20
125.4734965574675
 30
0.0
 11
258.93847683479407
 21
125.4734965574675
 31
0.0
  0
LINE
  5
1420
  8
0
  6
CONTINUOUS
 62
     0
 10
272.30240933685531
 20
145.50961152109139
 30
0.0
 11
272.30240933685531
 21
145.50961152109139
 31
0.0
  0
LINE
  5
1421
  8
0
  6
CONTINUOUS
 62
     0
 10
259.58514610001339
 20
143.8353520534848
 30
0.0
 11
259.58514610001339
 21
143.8353520534848
 31
0.0
  0
LINE
  5
1422
  8
0
  6
CONTINUOUS
 62
     0
 10
285.66634183891642
 20
165.54572648471529
 30
0.0
 11
285.66634183891642
 21
165.54572648471529
 31
0.0
  0
LINE
  5
1423
  8
0
  6
CONTINUOUS
 62
     0
 10
272.94907860207451
 20
163.8714670171087
 30
0.0
 11
272.94907860207451
 21
163.8714670171087
 31
0.0
  0
LINE
  5
1424
  8
0
  6
CONTINUOUS
 62
     0
 10
286.31301110413568
 20
183.9075819807326
 30
0.0
 11
286.31301110413568
 21
183.9075819807326
 31
0.0
  0
LINE
  5
1425
  8
0
  6
CONTINUOUS
 62
     0
 10
267.59418447008488
 20
199.71992157459249
 30
0.0
 11
267.59418447008488
 21
199.71992157459249
 31
0.0
  0
LINE
  5
1426
  8
0
  6
CONTINUOUS
 62
     0
 10
280.958116972146
 20
219.75603653821651
 30
0.0
 11
280.958116972146
 21
219.75603653821651
 31
0.0
  0
LINE
  5
1427
  8
0
  6
CONTINUOUS
 62
     0
 10
261.71853457027032
 20
217.223097462471
 30
0.0
 11
261.71853457027032
 21
217.223097462471
 31
0.0
  0
LINE
  5
1428
  8
0
  6
CONTINUOUS
 62
     0
 10
275.0824670723315
 20
237.2592124260949
 30
0.0
 11
275.0824670723315
 21
237.2592124260949
 31
0.0
  0
LINE
  5
1429
  8
0
  6
CONTINUOUS
 62
     0
 10
262.36520383548958
 20
235.58495295848829
 30
0.0
 11
262.36520383548958
 21
235.58495295848829
 31
0.0
  0
LINE
  5
142A
  8
0
  6
CONTINUOUS
 62
     0
 10
280.86533214390789
 20
-113.2247316335627
 30
0.0
 11
280.86533214390789
 21
-113.2247316335627
 31
0.0
  0
LINE
  5
142B
  8
0
  6
CONTINUOUS
 62
     0
 10
281.48305279402632
 20
-96.313723858932065
 30
0.0
 11
281.48305279402632
 21
-96.313723858932065
 31
0.0
  0
LINE
  5
142C
  8
0
  6
CONTINUOUS
 62
     0
 10
282.10077344414469
 20
-79.402716084301403
 30
0.0
 11
282.10077344414469
 21
-79.402716084301403
 31
0.0
  0
LINE
  5
142D
  8
0
  6
CONTINUOUS
 62
     0
 10
282.71849409426301
 20
-62.491708309670777
 30
0.0
 11
282.71849409426301
 21
-62.491708309670777
 31
0.0
  0
LINE
  5
142E
  8
0
  6
CONTINUOUS
 62
     0
 10
283.33621474438138
 20
-45.580700535040172
 30
0.0
 11
283.33621474438138
 21
-45.580700535040172
 31
0.0
  0
LINE
  5
142F
  8
0
  6
CONTINUOUS
 62
     0
 10
283.95393539449981
 20
-28.669692760409571
 30
0.0
 11
283.95393539449981
 21
-28.669692760409571
 31
0.0
  0
LINE
  5
1430
  8
0
  6
CONTINUOUS
 62
     0
 10
284.57165604461812
 20
-11.758684985778951
 30
0.0
 11
284.57165604461812
 21
-11.758684985778951
 31
0.0
  0
LINE
  5
1431
  8
0
  6
CONTINUOUS
 62
     0
 10
285.1893766947365
 20
5.1523227888516843
 30
0.0
 11
285.1893766947365
 21
5.1523227888516843
 31
0.0
  0
LINE
  5
1432
  8
0
  6
CONTINUOUS
 62
     0
 10
258.186802404584
 20
-15.567481208889131
 30
0.0
 11
258.186802404584
 21
-15.567481208889131
 31
0.0
  0
LINE
  5
1433
  8
0
  6
CONTINUOUS
 62
     0
 10
285.80709734485481
 20
22.063330563482289
 30
0.0
 11
285.80709734485481
 21
22.063330563482289
 31
0.0
  0
LINE
  5
1434
  8
0
  6
CONTINUOUS
 62
     0
 10
258.80452305470237
 20
1.343526565741477
 30
0.0
 11
258.80452305470237
 21
1.343526565741477
 31
0.0
  0
LINE
  5
1435
  8
0
  6
CONTINUOUS
 62
     0
 10
286.42481799497318
 20
38.974338338112901
 30
0.0
 11
286.42481799497318
 21
38.974338338112901
 31
0.0
  0
LINE
  5
1436
  8
0
  6
CONTINUOUS
 62
     0
 10
259.42224370482069
 20
18.254534340372089
 30
0.0
 11
259.42224370482069
 21
18.254534340372089
 31
0.0
  0
LINE
  5
1437
  8
0
  6
CONTINUOUS
 62
     0
 10
287.04253864509161
 20
55.885346112743527
 30
0.0
 11
287.04253864509161
 21
55.885346112743527
 31
0.0
  0
LINE
  5
1438
  8
0
  6
CONTINUOUS
 62
     0
 10
260.03996435493912
 20
35.165542115002722
 30
0.0
 11
260.03996435493912
 21
35.165542115002722
 31
0.0
  0
LINE
  5
1439
  8
0
  6
CONTINUOUS
 62
     0
 10
287.66025929520998
 20
72.796353887374153
 30
0.0
 11
287.66025929520998
 21
72.796353887374153
 31
0.0
  0
LINE
  5
143A
  8
0
  6
CONTINUOUS
 62
     0
 10
260.65768500505749
 20
52.076549889633341
 30
0.0
 11
260.65768500505749
 21
52.076549889633341
 31
0.0
  0
LINE
  5
143B
  8
0
  6
CONTINUOUS
 62
     0
 10
261.27540565517569
 20
68.987557664263974
 30
0.0
 11
261.27540565517569
 21
68.987557664263974
 31
0.0
  0
LINE
  5
143C
  8
0
  6
CONTINUOUS
 62
     0
 10
261.89312630529417
 20
85.898565438894593
 30
0.0
 11
261.89312630529417
 21
85.898565438894593
 31
0.0
  0
LINE
  5
143D
  8
0
  6
CONTINUOUS
 62
     0
 10
262.51084695541249
 20
102.8095732135252
 30
0.0
 11
262.51084695541249
 21
102.8095732135252
 31
0.0
  0
LINE
  5
143E
  8
0
  6
CONTINUOUS
 62
     0
 10
263.12856760553092
 20
119.7205809881558
 30
0.0
 11
263.12856760553092
 21
119.7205809881558
 31
0.0
  0
LINE
  5
143F
  8
0
  6
CONTINUOUS
 62
     0
 10
263.74628825564929
 20
136.63158876278641
 30
0.0
 11
263.74628825564929
 21
136.63158876278641
 31
0.0
  0
LINE
  5
1440
  8
0
  6
CONTINUOUS
 62
     0
 10
264.36400890576772
 20
153.54259653741701
 30
0.0
 11
264.36400890576772
 21
153.54259653741701
 31
0.0
  0
LINE
  5
1441
  8
0
  6
CONTINUOUS
 62
     0
 10
264.98172955588609
 20
170.4536043120477
 30
0.0
 11
264.98172955588609
 21
170.4536043120477
 31
0.0
  0
LINE
  5
1442
  8
0
  6
CONTINUOUS
 62
     0
 10
265.59945020600441
 20
187.36461208667831
 30
0.0
 11
265.59945020600441
 21
187.36461208667831
 31
0.0
  0
LINE
  5
1443
  8
0
  6
CONTINUOUS
 62
     0
 10
266.21717085612272
 20
204.27561986130891
 30
0.0
 11
266.21717085612272
 21
204.27561986130891
 31
0.0
  0
LINE
  5
1444
  8
0
  6
CONTINUOUS
 62
     0
 10
266.83489150624098
 20
221.1866276359396
 30
0.0
 11
266.83489150624098
 21
221.1866276359396
 31
0.0
  0
LINE
  5
1445
  8
0
  6
CONTINUOUS
 62
     0
 10
267.45261215635941
 20
238.09763541057021
 30
0.0
 11
267.45261215635941
 21
238.09763541057021
 31
0.0
  0
LINE
  5
1446
  8
0
  6
CONTINUOUS
 62
     0
 10
287.27108061206502
 20
-47.195811170090039
 30
0.0
 11
287.9247845517441
 21
-45.247589449978342
 31
0.0
  0
LINE
  5
1447
  8
0
  6
CONTINUOUS
 62
     0
 10
274.9106396880382
 20
-84.033403873246471
 30
0.0
 11
275.94067643170712
 21
-80.963604481316793
 31
0.0
  0
LINE
  5
1448
  8
0
  6
CONTINUOUS
 62
     0
 10
262.55019876401133
 20
-120.8709965764029
 30
0.0
 11
263.58023550768019
 21
-117.8011971844732
 31
0.0
  0
LINE
  5
1449
  8
0
  6
CONTINUOUS
 62
     0
 10
281.66910523012069
 20
46.932395396167699
 30
0.0
 11
282.69914197378949
 21
50.00219478809737
 31
0.0
  0
LINE
  5
144A
  8
0
  6
CONTINUOUS
 62
     0
 10
269.3086643060937
 20
10.094802693011269
 30
0.0
 11
270.33870104976268
 21
13.164602084940951
 31
0.0
  0
LINE
  5
144B
  8
0
  6
CONTINUOUS
 62
     0
 10
276.06712984817631
 20
141.06060196242541
 30
0.0
 11
277.09716659184522
 21
144.13040135435509
 31
0.0
  0
LINE
  5
144C
  8
0
  6
CONTINUOUS
 62
     0
 10
263.70668892414938
 20
104.22300925926901
 30
0.0
 11
264.73672566781829
 21
107.2928086511987
 31
0.0
  0
LINE
  5
144D
  8
0
  6
CONTINUOUS
 62
     0
 10
270.46515446623181
 20
235.18880852868321
 30
0.0
 11
271.2259627526488
 21
237.45623134575561
 31
0.0
  0
LINE
  5
144E
  8
0
  6
CONTINUOUS
 62
     0
 10
258.10471354220499
 20
198.35121582552671
 30
0.0
 11
259.13475028587391
 21
201.42101521745639
 31
0.0
  0
LINE
  5
144F
  8
0
  6
CONTINUOUS
 62
     0
 10
260.0234316997151
 20
-119.1667238743043
 30
0.0
 11
262.5503382208629
 21
-120.87114384408309
 31
0.0
  0
LINE
  5
1450
  8
0
  6
CONTINUOUS
 62
     0
 10
272.38383736924447
 20
-82.329130649840479
 30
0.0
 11
274.91074389039233
 21
-84.033550619619305
 31
0.0
  0
LINE
  5
1451
  8
0
  6
CONTINUOUS
 62
     0
 10
284.7442430387739
 20
-45.49153742537662
 30
0.0
 11
287.2711495599217
 21
-47.195957395155432
 31
0.0
  0
LINE
  5
1452
  8
0
  6
CONTINUOUS
 62
     0
 10
266.7817704545302
 20
11.7990954364332
 30
0.0
 11
269.308676975678
 21
10.094675466654399
 31
0.0
  0
LINE
  5
1453
  8
0
  6
CONTINUOUS
 62
     0
 10
279.14217612405957
 20
48.636688660897079
 30
0.0
 11
281.66908264520742
 21
46.932268691118267
 31
0.0
  0
LINE
  5
1454
  8
0
  6
CONTINUOUS
 62
     0
 10
261.17970353981582
 20
105.9273215227069
 30
0.0
 11
263.70661006096361
 21
104.22290155292811
 31
0.0
  0
LINE
  5
1455
  8
0
  6
CONTINUOUS
 62
     0
 10
273.54010920934519
 20
142.76491474717079
 30
0.0
 11
276.06701573049298
 21
141.06049477739199
 31
0.0
  0
LINE
  5
1456
  8
0
  6
CONTINUOUS
 62
     0
 10
285.90051487887462
 20
179.60250797163471
 30
0.0
 11
287.92478455174398
 21
178.23712083689841
 31
0.0
  0
LINE
  5
1457
  8
0
  6
CONTINUOUS
 62
     0
 10
258.07697546463078
 20
198.36972227524299
 30
0.0
 11
258.10454314624911
 21
198.35112763920191
 31
0.0
  0
LINE
  5
1458
  8
0
  6
CONTINUOUS
 62
     0
 10
267.9380422946308
 20
236.89314083344451
 30
0.0
 11
270.4649488157786
 21
235.18872086366571
 31
0.0
  0
LINE
  5
1459
  8
0
  6
CONTINUOUS
 62
     0
 10
260.02412886898873
 20
-119.1671432702563
 30
0.0
 11
263.58107029394301
 21
-117.80176138248871
 31
0.0
  0
LINE
  5
145A
  8
0
  6
CONTINUOUS
 62
     0
 10
272.38445000136409
 20
-82.329456913692695
 30
0.0
 11
275.94139142631838
 21
-80.964075025925084
 31
0.0
  0
LINE
  5
145B
  8
0
  6
CONTINUOUS
 62
     0
 10
284.7447711337395
 20
-45.491770557129037
 30
0.0
 11
287.92478455174398
 21
-44.271077775027052
 31
0.0
  0
LINE
  5
145C
  8
0
  6
CONTINUOUS
 62
     0
 10
266.78211629903819
 20
11.79901950278707
 30
0.0
 11
270.3390577239926
 21
13.164401390554669
 31
0.0
  0
LINE
  5
145D
  8
0
  6
CONTINUOUS
 62
     0
 10
279.14243743141373
 20
48.636705859350712
 30
0.0
 11
282.69937885636801
 21
50.00208774711831
 31
0.0
  0
LINE
  5
145E
  8
0
  6
CONTINUOUS
 62
     0
 10
261.17978259671241
 20
105.9274959192668
 30
0.0
 11
264.7367240216667
 21
107.2928778070344
 31
0.0
  0
LINE
  5
145F
  8
0
  6
CONTINUOUS
 62
     0
 10
273.54010372908778
 20
142.7651822758304
 30
0.0
 11
277.09704515404218
 21
144.130564163598
 31
0.0
  0
LINE
  5
1460
  8
0
  6
CONTINUOUS
 62
     0
 10
285.90042486146331
 20
179.60286863239409
 30
0.0
 11
287.92478455174398
 21
180.37994751146829
 31
0.0
  0
LINE
  5
1461
  8
0
  6
CONTINUOUS
 62
     0
 10
258.07697546463072
 20
201.01545069067879
 30
0.0
 11
259.13439031934092
 21
201.42135422351419
 31
0.0
  0
LINE
  5
1462
  8
0
  6
CONTINUOUS
 62
     0
 10
267.937770026762
 20
236.8936586923102
 30
0.0
 11
271.08985483378331
 21
238.10363068510719
 31
0.0
  0
LINE
  5
1463
  8
0
  6
CONTINUOUS
 62
     0
 10
277.81397436968263
 20
-89.776354540884483
 30
0.0
 11
282.3319590298558
 21
-90.477067471006208
 31
0.0
  0
LINE
  5
1464
  8
0
  6
CONTINUOUS
 62
     0
 10
271.07907961039109
 20
-31.88277580730411
 30
0.0
 11
275.5970642705642
 21
-32.58348873742581
 31
0.0
  0
LINE
  5
1465
  8
0
  6
CONTINUOUS
 62
     0
 10
264.34418485109973
 20
26.010802926276249
 30
0.0
 11
268.8621695112729
 21
25.310089996154549
 31
0.0
  0
LINE
  5
1466
  8
0
  6
CONTINUOUS
 62
     0
 10
258.07697546463072
 20
83.831846400749967
 30
0.0
 11
262.12727475198142
 21
83.2036687297349
 31
0.0
  0
LINE
  5
1467
  8
0
  6
CONTINUOUS
 62
     0
 10
262.12712327608142
 20
83.204161614646537
 30
0.0
 11
261.56587580914129
 21
88.028625344518886
 31
0.0
  0
LINE
  5
1468
  8
0
  6
CONTINUOUS
 62
     0
 10
268.86209287936282
 20
25.310596856179
 30
0.0
 11
268.30084541242258
 21
30.135060586051331
 31
0.0
  0
LINE
  5
1469
  8
0
  6
CONTINUOUS
 62
     0
 10
275.59706248264422
 20
-32.582967902288551
 30
0.0
 11
275.03581501570397
 21
-27.758504172416231
 31
0.0
  0
LINE
  5
146A
  8
0
  6
CONTINUOUS
 62
     0
 10
282.33203208592562
 20
-90.476532660756092
 30
0.0
 11
281.77078461898537
 21
-85.652068930883786
 31
0.0
  0
LINE
  5
146B
  8
0
  6
CONTINUOUS
 62
     0
 10
277.81402225569121
 20
-89.776018435168666
 30
0.0
 11
281.77075782359663
 21
-85.652249692177278
 31
0.0
  0
LINE
  5
146C
  8
0
  6
CONTINUOUS
 62
     0
 10
271.07904089213002
 20
-31.882327932727179
 30
0.0
 11
275.03577646003538
 21
-27.75855918973582
 31
0.0
  0
LINE
  5
146D
  8
0
  6
CONTINUOUS
 62
     0
 10
264.34405952856872
 20
26.011362569714318
 30
0.0
 11
268.30079509647408
 21
30.135131312705681
 31
0.0
  0
LINE
  5
146E
  8
0
  6
CONTINUOUS
 62
     0
 10
258.07697546463078
 20
84.392702606981345
 30
0.0
 11
261.56581373291289
 21
88.028821815147211
 31
0.0
  0
LINE
  5
146F
  8
0
  6
CONTINUOUS
 62
     0
 10
259.28920469283781
 20
165.2868672544781
 30
0.0
 11
258.7018490809682
 21
168.4711501227556
 31
0.0
  0
LINE
  5
1470
  8
0
  6
CONTINUOUS
 62
     0
 10
266.33747203527213
 20
127.0754728351485
 30
0.0
 11
265.75011642340257
 21
130.25975570342601
 31
0.0
  0
LINE
  5
1471
  8
0
  6
CONTINUOUS
 62
     0
 10
273.3857393777065
 20
88.864078415818938
 30
0.0
 11
272.79838376583689
 21
92.048361284096444
 31
0.0
  0
LINE
  5
1472
  8
0
  6
CONTINUOUS
 62
     0
 10
280.43400672014093
 20
50.652683996489337
 30
0.0
 11
279.84665110827132
 21
53.836966864766843
 31
0.0
  0
LINE
  5
1473
  8
0
  6
CONTINUOUS
 62
     0
 10
287.48227406257519
 20
12.441289577159729
 30
0.0
 11
286.89491845070569
 21
15.62557244543723
 31
0.0
  0
LINE
  5
1474
  8
0
  6
CONTINUOUS
 62
     0
 10
258.09377372938332
 20
-22.58204798689858
 30
0.0
 11
258.07697546463072
 21
-22.49097807016058
 31
0.0
  0
LINE
  5
1475
  8
0
  6
CONTINUOUS
 62
     0
 10
265.14204107181769
 20
-60.793442406228188
 30
0.0
 11
264.55468545994808
 21
-57.609159537950688
 31
0.0
  0
LINE
  5
1476
  8
0
  6
CONTINUOUS
 62
     0
 10
272.19030841425212
 20
-99.004836825557803
 30
0.0
 11
271.6029528023825
 21
-95.820553957280296
 31
0.0
  0
LINE
  5
1477
  8
0
  6
CONTINUOUS
 62
     0
 10
269.15485133209262
 20
-98.73731628004046
 30
0.0
 11
272.19125277187629
 21
-99.002966983935295
 31
0.0
  0
LINE
  5
1478
  8
0
  6
CONTINUOUS
 62
     0
 10
262.10628613695923
 20
-60.525987703604471
 30
0.0
 11
265.1426875767429
 21
-60.791638407499299
 31
0.0
  0
LINE
  5
1479
  8
0
  6
CONTINUOUS
 62
     0
 10
258.07697546463078
 20
-22.578809670213271
 30
0.0
 11
258.09412238160951
 21
-22.580309831063289
 31
0.0
  0
LINE
  5
147A
  8
0
  6
CONTINUOUS
 62
     0
 10
284.44597302409608
 20
12.70886100252919
 30
0.0
 11
287.48237446387969
 21
12.44321029863436
 31
0.0
  0
LINE
  5
147B
  8
0
  6
CONTINUOUS
 62
     0
 10
277.39740782896268
 20
50.9201895789652
 30
0.0
 11
280.4338092687463
 21
50.654538875070358
 31
0.0
  0
LINE
  5
147C
  8
0
  6
CONTINUOUS
 62
     0
 10
270.34884263382929
 20
89.13151815540121
 30
0.0
 11
273.38524407361291
 21
88.865867451506375
 31
0.0
  0
LINE
  5
147D
  8
0
  6
CONTINUOUS
 62
     0
 10
263.3002774386959
 20
127.3428467318372
 30
0.0
 11
266.33667887847952
 21
127.07719602794231
 31
0.0
  0
LINE
  5
147E
  8
0
  6
CONTINUOUS
 62
     0
 10
258.07697546463072
 20
165.3944854684789
 30
0.0
 11
259.28811368334613
 21
165.2885246043783
 31
0.0
  0
LINE
  5
147F
  8
0
  6
CONTINUOUS
 62
     0
 10
285.63996432583281
 20
200.5776954379709
 30
0.0
 11
287.92478455174421
 21
200.3777995700089
 31
0.0
  0
LINE
  5
1480
  8
0
  6
CONTINUOUS
 62
     0
 10
269.15590516306997
 20
-98.737457848824903
 30
0.0
 11
271.60492595597577
 21
-95.818828520541587
 31
0.0
  0
LINE
  5
1481
  8
0
  6
CONTINUOUS
 62
     0
 10
262.10722087873779
 20
-60.526088801644619
 30
0.0
 11
264.55624167164359
 21
-57.607459473361303
 31
0.0
  0
LINE
  5
1482
  8
0
  6
CONTINUOUS
 62
     0
 10
284.44678610927423
 20
12.70883218493536
 30
0.0
 11
286.89580690218003
 21
15.627461513218661
 31
0.0
  0
LINE
  5
1483
  8
0
  6
CONTINUOUS
 62
     0
 10
277.39810182494199
 20
50.920201232115609
 30
0.0
 11
279.84712261784767
 21
53.838830560398918
 31
0.0
  0
LINE
  5
1484
  8
0
  6
CONTINUOUS
 62
     0
 10
270.34941754060981
 20
89.131570279295943
 30
0.0
 11
272.79843833351549
 21
92.050199607579245
 31
0.0
  0
LINE
  5
1485
  8
0
  6
CONTINUOUS
 62
     0
 10
263.30073325627762
 20
127.3429393264762
 30
0.0
 11
265.74975404918331
 21
130.26156865475949
 31
0.0
  0
LINE
  5
1486
  8
0
  6
CONTINUOUS
 62
     0
 10
285.64029848681389
 20
200.57786031305619
 30
0.0
 11
287.92478455174398
 21
203.30040478816801
 31
0.0
  0
LINE
  5
1487
  8
0
  6
CONTINUOUS
 62
     0
 10
258.07697546463072
 20
167.7291710775346
 30
0.0
 11
258.70106976485101
 21
168.4729377019398
 31
0.0
  0
ENDBLK
  5
1489
  8
0
  0
BLOCK
  8
0
  2
*U21
 70
     1
 10
0.0
 20
0.0
 30
0.0
  3
*U21
  1

  0
SOLID
  5
149F
  8
0
 10
280.4177314804582
 20
157.5161528639851
 30
0.0
 11
277.20563153883683
 21
155.04090370289441
 31
0.0
 12
279.44132094488168
 22
158.42411775526281
 32
0.0
 13
279.44132094488168
 23
158.42411775526281
 33
0.0
  0
POLYLINE
  5
14A0
  8
0
 66
     1
 10
0.0
 20
0.0
 30
0.0
  0
VERTEX
  5
14A1
  8
0
 10
279.92952621266988
 20
157.97013530962391
 30
0.0
  0
VERTEX
  5
14A2
  8
0
 10
309.6330640524634
 20
189.91283217960489
 30
0.0
  0
VERTEX
  5
14A3
  8
0
 10
313.6330640524634
 20
189.91283217960489
 30
0.0
  0
SEQEND
  5
14A4
  8
0
  0
ENDBLK
  5
14A6
  8
0
  0
BLOCK
  8
0
  2
*U22
 70
     1
 10
0.0
 20
0.0
 30
0.0
  3
*U22
  1

  0
TEXT
  5
14A8
  8
0
  6
CONTINUOUS
 10
315.218330082477
 20
188.41283217960489
 30
0.0
 40
4.0
  1
Masonry wall
  7
COMM-34_JCTN_HZ_CLAD_WAL$0
  0
ENDBLK
  5
14AA
  8
0
  0
BLOCK
  8
0
  2
*U23
 70
     1
 10
0.0
 20
0.0
 30
0.0
  3
*U23
  1

  0
TEXT
  5
14AC
  8
0
  6
CONTINUOUS
 10
315.3820408601033
 20
10.0074206717903
 30
0.0
 40
4.0
  1
Spacer to maintain
  7
COMM-34_JCTN_HZ_CLAD_WAL$0
  0
TEXT
  5
14AD
  8
0
  6
CONTINUOUS
 10
315.44206814523278
 20
3.3066475931181758
 30
0.0
 40
4.0
  1
depth and width
  7
COMM-34_JCTN_HZ_CLAD_WAL$0
  0
ENDBLK
  5
14AF
  8
0
  0
BLOCK
  8
0
  2
*U24
 70
     1
 10
0.0
 20
0.0
 30
0.0
  3
*U24
  1

  0
SOLID
  5
14B1
  8
0
 10
258.99438556177438
 20
70.270100302952741
 30
0.0
 11
257.01398104228753
 21
73.808806617927203
 31
0.0
 12
260.0350252034155
 22
71.103675083055236
 32
0.0
 13
260.0350252034155
 23
71.103675083055236
 33
0.0
  0
POLYLINE
  5
14B2
  8
0
 66
     1
 10
0.0
 20
0.0
 30
0.0
  0
VERTEX
  5
14B3
  8
0
 10
259.51470538259503
 20
70.686887693003996
 30
0.0
  0
VERTEX
  5
14B4
  8
0
 10
309.6330640524634
 20
8.1188349510081252
 30
0.0
  0
VERTEX
  5
14B5
  8
0
 10
313.6330640524634
 20
8.1188349510081252
 30
0.0
  0
SEQEND
  5
14B6
  8
0
  0
ENDBLK
  5
14B8
  8
0
  0
BLOCK
  8
0
  2
*U25
 70
     1
 10
0.0
 20
0.0
 30
0.0
  3
*U25
  1

  0
TEXT
  5
14C8
  8
0
  6
CONTINUOUS
 10
193.3357162043055
 20
158.51589384661511
 30
0.0
 40
4.0
  1
10mm min, 25mm max
  7
COMM-34_JCTN_HZ_CLAD_WAL$0
  0
ENDBLK
  5
14CA
  8
0
  0
BLOCK
  8
0
  2
*U26
 70
     1
 10
0.0
 20
0.0
 30
0.0
  3
*U26
  1

  0
TEXT
  5
14CC
  8
0
  6
CONTINUOUS
 10
311.25452876046143
 20
107.0862865529341
 30
0.0
 40
4.0
  1
10mm
 50
90.0
  7
$3$ARIAL
  0
ENDBLK
  5
14CE
  8
0
  0
ENDSEC
  0
SECTION
  2
ENTITIES
  0
POLYLINE
  5
A7D
  8
0
 66
     1
 10
0.0
 20
0.0
 30
0.0
 70
   128
 40
0.5
 41
0.5
  0
VERTEX
  5
1357
  8
0
 10
171.1981555386883
 20
120.8758083725707
 30
0.0
  0
VERTEX
  5
1358
  8
0
 10
163.1981555386883
 20
120.8758083725707
 30
0.0
 42
-0.9708312371825119
  0
VERTEX
  5
1359
  8
0
 10
163.1981555386883
 20
123.8758083725707
 30
0.0
  0
VERTEX
  5
135A
  8
0
 10
244.07697546463081
 20
123.8758083725707
 30
0.0
 42
-0.4142135623730951
  0
VERTEX
  5
135B
  8
0
 10
247.07697546463081
 20
120.8758083725707
 30
0.0
  0
VERTEX
  5
135C
  8
0
 10
247.07697546463069
 20
64.909049757926184
 30
0.0
  0
SEQEND
  5
135D
  8
0
  0
POLYLINE
  5
A83
  8
0
 66
     1
 10
0.0
 20
0.0
 30
0.0
 70
   128
  0
VERTEX
  5
135E
  8
0
 10
65.037719486045745
 20
69.475808372571009
 30
0.0
  0
VERTEX
  5
135F
  8
0
 10
243.70197546463049
 20
69.475808372570981
 30
0.0
  0
VERTEX
  5
1360
  8
0
 10
243.70197546463049
 20
119.8758083725706
 30
0.0
  0
VERTEX
  5
1361
  8
0
 10
56.733500005777842
 20
119.8758083725706
 30
0.0
  0
SEQEND
  5
1362
  8
0
  0
LINE
  5
A8C
  8
0
 10
216.96163530025589
 20
124.17980837257051
 30
0.0
 11
216.96163530025589
 21
119.17650733232129
 31
0.0
1001
GENIUS_GENOREF_13
1005
0
  0
LINE
  5
A8F
  8
0
 10
212.16163530025571
 20
124.17980837257051
 30
0.0
 11
212.16163530025571
 21
119.17650733232129
 31
0.0
1001
GENIUS_GENOREF_13
1005
0
  0
ARC
  5
A90
  8
0
 10
211.51263530025579
 20
125.70380837257061
 30
0.0
 40
2.0960000000000019
 50
90.0
 51
180.0
1001
GENIUS_GENOREF_13
1005
0
  0
LINE
  5
A91
  8
0
 10
212.00663530025599
 20
125.1798083725708
 30
0.0
 11
209.4166353002559
 21
125.1798083725708
 31
0.0
1001
GENIUS_GENOREF_13
1005
0
  0
LINE
  5
A92
  8
0
 10
219.70663530025581
 20
125.70380837257061
 30
0.0
 11
209.4166353002559
 21
125.70380837257061
 31
0.0
1001
GENIUS_GENOREF_13
1005
0
  0
LINE
  5
A93
  8
0
 10
209.4166353002559
 20
125.1798083725708
 30
0.0
 11
209.4166353002559
 21
125.70380837257061
 31
0.0
1001
GENIUS_GENOREF_13
1005
0
  0
LINE
  5
A94
  8
0
 10
217.11663530025569
 20
125.1798083725708
 30
0.0
 11
212.00663530025599
 21
125.1798083725708
 31
0.0
1001
GENIUS_GENOREF_13
1005
0
  0
LINE
  5
A95
  8
0
 10
216.96163530025589
 20
124.2898083725707
 30
0.0
 11
212.16163530025571
 21
124.2898083725707
 31
0.0
1001
GENIUS_GENOREF_13
1005
0
  0
LINE
  5
A96
  8
0
 10
217.61063530025581
 20
127.79980837257089
 30
0.0
 11
214.5616353002558
 21
127.79980837257069
 31
0.0
1001
GENIUS_GENOREF_13
1005
0
  0
LINE
  5
A97
  8
0
 10
211.51263530025579
 20
127.79980837257089
 30
0.0
 11
214.5616353002558
 21
127.79980837257069
 31
0.0
1001
GENIUS_GENOREF_13
1005
0
  0
LINE
  5
A98
  8
0
 10
212.16163530025571
 20
124.2898083725707
 30
0.0
 11
212.00663530025599
 21
125.1798083725708
 31
0.0
1001
GENIUS_GENOREF_13
1005
0
  0
ARC
  5
A99
  8
0
 10
217.61063530025581
 20
125.70380837257061
 30
0.0
 40
2.0960000000000019
 50
0.0
 51
90.0
1001
GENIUS_GENOREF_13
1005
0
  0
LINE
  5
A9A
  8
0
 10
217.11663530025569
 20
125.1798083725708
 30
0.0
 11
219.70663530025581
 21
125.1798083725708
 31
0.0
1001
GENIUS_GENOREF_13
1005
0
  0
LINE
  5
A9B
  8
0
 10
219.70663530025581
 20
125.1798083725708
 30
0.0
 11
219.70663530025581
 21
125.70380837257061
 31
0.0
1001
GENIUS_GENOREF_13
1005
0
  0
LINE
  5
A9C
  8
0
 10
216.96163530025589
 20
124.2898083725707
 30
0.0
 11
217.11663530025569
 21
125.1798083725708
 31
0.0
1001
GENIUS_GENOREF_13
1005
0
  0
ARC
  5
A9D
  8
0
 10
220.73617465849139
 20
116.2971572048953
 30
0.0
 40
10.289999999999999
 50
163.75052445808609
 51
208.94882037700691
1001
GENIUS_GENOREF_13
1005
0
  0
LINE
  5
A9E
  8
0
 10
212.16163530025571
 20
119.17650733232129
 30
0.0
 11
210.8572353002557
 21
119.17650733232129
 31
0.0
1001
GENIUS_GENOREF_13
1005
0
  0
ARC
  5
A9F
  8
0
 10
208.3870959420203
 20
116.2971572048953
 30
0.0
 40
10.289999999999999
 50
331.05117962299289
 51
16.249475541913881
1001
GENIUS_GENOREF_13
1005
0
  0
LINE
  5
AA0
  8
0
 10
216.96163530025589
 20
119.17650733232129
 30
0.0
 11
212.16163530025571
 21
119.17650733232129
 31
0.0
1001
GENIUS_GENOREF_13
1005
0
  0
LINE
  5
AA1
  8
0
 10
217.39138530025571
 20
111.31650733232139
 30
0.0
 11
211.73188530025601
 21
111.31650733232139
 31
0.0
1001
GENIUS_GENOREF_13
1005
0
  0
LINE
  5
AA2
  8
0
 10
216.96163530025589
 20
119.17650733232129
 30
0.0
 11
218.26603530025591
 21
119.17650733232129
 31
0.0
1001
GENIUS_GENOREF_13
1005
0
  0
INSERT
  5
ABE
  8
0
  6
CONTINUOUS
  2
*U14
 10
0.0
 20
0.0
 30
0.0
1001
ACAD
1000
DSTYLE
1002
{
1070
   147
1040
1.0
1070
    77
1070
     0
1002
}
  0
INSERT
  5
AC0
  8
0
  6
CONTINUOUS
  2
*U15
 10
0.0
 20
0.0
 30
0.0
  0
ARC
  5
C9B
  8
0
 10
252.5879058492294
 20
103.4484606306649
 30
0.0
 40
7.9216784114966883
 50
46.138499549031458
 51
134.08119912253349
  0
ARC
  5
C9C
  8
0
 10
252.5417198811929
 20
125.86754259630661
 30
0.0
 40
8.2472117051726634
 50
228.500217068144
 51
312.15719135872769
  0
POLYLINE
  5
C9D
  8
0
 66
     1
 10
0.0
 20
0.0
 30
0.0
 70
   128
 40
0.5
 41
0.5
  0
VERTEX
  5
1373
  8
0
 10
244.8427255284297
 20
94.475808372570967
 30
0.0
  0
VERTEX
  5
1374
  8
0
 10
244.8427255284297
 20
67.909049757926113
 30
0.0
 42
-0.4142135623730951
  0
VERTEX
  5
1375
  8
0
 10
241.8427255284297
 20
64.909049757926113
 30
0.0
  0
VERTEX
  5
1376
  8
0
 10
68.635844245037191
 20
64.909049757926155
 30
0.0
 42
-0.9916536127478279
  0
VERTEX
  5
1377
  8
0
 10
68.635844245037191
 20
67.909049757926169
 30
0.0
  0
VERTEX
  5
1378
  8
0
 10
78.635844245037191
 20
67.909049757926169
 30
0.0
  0
SEQEND
  5
1379
  8
0
  0
POLYLINE
  5
C9E
  8
0
 66
     1
 10
0.0
 20
0.0
 30
0.0
 70
     1
 40
0.5
 41
0.5
  0
VERTEX
  5
137A
  8
0
 10
248.56263979951899
 20
64.909049757926155
 30
0.0
  0
VERTEX
  5
137B
  8
0
 10
256.7451728360677
 20
64.909049757926155
 30
0.0
  0
VERTEX
  5
137C
  8
0
 10
256.7451728360677
 20
106.34236769225291
 30
0.0
  0
VERTEX
  5
137D
  8
0
 10
248.56263979951899
 20
106.34236769225291
 30
0.0
  0
SEQEND
  5
137E
  8
0
  0
LINE
  5
C9F
  8
0
 10
256.7451728360677
 20
106.34236769225291
 30
0.0
 11
248.56263979951899
 21
64.909049757926155
 31
0.0
  0
POLYLINE
  5
CA0
  8
0
 66
     1
 10
0.0
 20
0.0
 30
0.0
 70
   128
 40
0.5
 41
0.5
  0
VERTEX
  5
137F
  8
0
 10
247.6264790992424
 20
108.4283323211131
 30
0.0
  0
VERTEX
  5
1380
  8
0
 10
257.68133353634443
 20
108.4283323211131
 30
0.0
  0
SEQEND
  5
1381
  8
0
  0
LINE
  5
CB7
  8
0
 10
248.56263979951899
 20
106.34236769225291
 30
0.0
 11
256.7451728360677
 21
64.909049757926155
 31
0.0
  0
DIMENSION
  5
D1E
  8
0
  2
*D3
 10
306.06557923795123
 20
109.2820999482928
 30
0.0
 11
313.3309271233536
 21
114.973053265076
 31
0.0
 70
   128
  1
10mm
 13
287.67478455174398
 23
119.8758083725707
 33
0.0
 14
287.67478455174398
 24
109.2820999482928
 34
0.0
 50
90.0
  0
INSERT
  5
D96
  8
0
  6
CONTINUOUS
  2
*U16
 10
0.0
 20
0.0
 30
0.0
1001
ACAD
1000
DSTYLE
1002
{
1070
   147
1040
1.0
1070
    77
1070
     0
1002
}
  0
INSERT
  5
D97
  8
0
  6
CONTINUOUS
  2
*U17
 10
0.0
 20
0.0
 30
0.0
  0
INSERT
  5
D98
  8
0
  6
CONTINUOUS
  2
*U18
 10
0.0
 20
0.0
 30
0.0
1001
ACAD
1000
DSTYLE
1002
{
1070
   147
1040
1.0
1070
    77
1070
     0
1002
}
  0
INSERT
  5
D99
  8
0
  6
CONTINUOUS
  2
*U19
 10
0.0
 20
0.0
 30
0.0
  0
POLYLINE
  5
1166
  8
0
 66
     1
 10
0.0
 20
0.0
 30
0.0
 70
   128
  0
VERTEX
  5
13D2
  8
0
 10
258.07697546463078
 20
240.6801551378577
 30
0.0
  0
VERTEX
  5
13D3
  8
0
 10
258.07697546463078
 20
-121.36424997834661
 30
0.0
  0
SEQEND
  5
13D4
  8
0
  0
POLYLINE
  5
1167
  8
0
 66
     1
 10
0.0
 20
0.0
 30
0.0
 70
   128
 40
0.5
 41
0.5
  0
VERTEX
  5
13D5
  8
0
 10
258.32697546463078
 20
240.6801551378577
 30
0.0
  0
VERTEX
  5
13D6
  8
0
 10
258.32697546463078
 20
-121.36424997834661
 30
0.0
  0
SEQEND
  5
13D7
  8
0
  0
POLYLINE
  5
1168
  8
0
 66
     1
 10
0.0
 20
0.0
 30
0.0
 70
   128
  0
VERTEX
  5
13D8
  8
0
 10
66.273466432514198
 20
61.975808372571009
 30
0.0
  0
VERTEX
  5
13D9
  8
0
 10
254.07697546463081
 20
61.975808372571009
 30
0.0
 42
-0.4142135623730951
  0
VERTEX
  5
13DA
  8
0
 10
256.07697546463078
 20
59.975808372571009
 30
0.0
  0
VERTEX
  5
13DB
  8
0
 10
256.07697546463078
 20
-121.0786403864555
 30
0.0
  0
SEQEND
  5
13DC
  8
0
  0
LINE
  5
116A
  8
0
 10
204.07697546463081
 20
59.975808372571016
 30
0.0
 11
66.602998951572431
 21
59.975808372571038
 31
0.0
  0
LINE
  5
116B
  8
0
 10
204.07697546463081
 20
-40.024191627428969
 30
0.0
 11
83.079624904485101
 21
-40.024191627428948
 31
0.0
  0
LINE
  5
116C
  8
0
 10
229.07697546463081
 20
29.97580837257102
 30
0.0
 11
229.07697546463081
 21
67.475808372571024
 31
0.0
  0
LINE
  5
116D
  8
0
 10
221.07697546463081
 20
67.475808372571024
 30
0.0
 11
237.07697546463081
 21
67.475808372571024
 31
0.0
  0
POLYLINE
  5
116E
  8
0
  6
CONTINUOUS
 66
     1
 10
0.0
 20
0.0
 30
0.0
 70
   128
  0
VERTEX
  5
13DD
  8
0
  6
CONTINUOUS
 10
54.603483275729317
 20
132.8033138954595
 30
0.0
  0
VERTEX
  5
13DE
  8
0
  6
CONTINUOUS
 10
71.546332940239225
 20
29.973707197282021
 30
0.0
  0
VERTEX
  5
13DF
  8
0
  6
CONTINUOUS
 10
67.72380558000421
 20
27.82365906673245
 30
0.0
  0
VERTEX
  5
13E0
  8
0
  6
CONTINUOUS
 10
76.344305863055212
 20
26.203577462729289
 30
0.0
  0
VERTEX
  5
13E1
  8
0
  6
CONTINUOUS
 10
72.521778502819174
 20
24.05352933218008
 30
0.0
  0
VERTEX
  5
13E2
  8
0
  6
CONTINUOUS
 10
85.079443618504044
 20
-52.161498863352598
 30
0.0
  0
SEQEND
  5
13E3
  8
0
  6
CONTINUOUS
  0
INSERT
  5
116F
  8
0
  6
CONTINUOUS
  2
*X20
 10
0.0
 20
0.0
 30
0.0
1001
ACAD
1000
HATCH
1002
{
1070
    19
1000
AR-CONC
1040
0.2
1040
0.0
1000
R14_HATCH_DATA
1000
116F
1011
1.0
1021
0.0
1031
0.0
1021
0.0
1031
0.0
1011
0.0
1021
0.0
1031
0.0
1021
1.0
1031
0.0
1011
0.0
1021
0.0
1031
0.0
1021
0.0
1031
1.0
1040
0.0
1010
0.0
1020
0.0
1030
1.0
1000
AR-CONC
1070
     0
1070
     0
1071
        1
1071
        1
1071
       12
1070
     1
1040
258.07697546463078
1040
-121.36424997834661
1040
270.93418339821471
1040
-123.2003209337316
1070
     1
1040
270.93418339821471
1040
-123.2003209337316
1040
271.83649984058059
1040
-127.49220250493821
1070
     1
1040
271.83649984058059
1040
-127.49220250493821
1040
275.97160743978861
1040
-119.75666279030381
1070
     1
1040
275.97160743978861
1040
-119.75666279030381
1040
276.87392388215562
1040
-124.04854436151039
1070
     1
1040
276.87392388215562
1040
-124.04854436151039
1040
287.92478455174398
1040
-125.6266602644537
1070
     1
1040
287.92478455174398
1040
-125.6266602644537
1040
287.92478455174398
1040
236.41774485175051
1070
     1
1040
287.92478455174398
1040
236.41774485175051
1040
276.87392388215562
1040
237.99586075469381
1070
     1
1040
276.87392388215562
1040
237.99586075469381
1040
275.97160743978861
1040
242.2877423259003
1070
     1
1040
275.97160743978861
1040
242.2877423259003
1040
271.8364998405807
1040
234.55220261126601
1070
     1
1040
271.8364998405807
1040
234.55220261126601
1040
270.93418339821471
1040
238.84408418247261
1070
     1
1040
270.93418339821471
1040
238.84408418247261
1040
258.07697546463072
1040
240.68015513785761
1070
     1
1040
258.07697546463072
1040
240.68015513785761
1040
258.07697546463078
1040
-121.36424997834661
1071
        0
1070
     0
1070
     1
1040
0.0
1040
0.2
1070
     0
1070
    13
1040
0.8726646259971645
1040
0.0
1040
0.0
1040
36.436933799200801
1040
-3.1878171077806172
1070
     2
1040
3.8100000000000001
1040
-41.909999999999997
1040
6.195918844579869
1040
0.0
1040
0.0
1040
-7.0485651951333983
1040
38.211328576436003
1070
     2
1040
3.048
1040
-33.527999999999999
1040
1.753200686920823
1040
3.0364
1040
-0.26565
1040
29.38850033319185
1040
35.02333756405838
1070
     2
1040
3.238
1040
-35.618000000000002
1040
0.8060663523995651
1040
0.0
1040
10.16
1040
54.215808178425988
1040
-8.4084655865454305
1070
     2
1040
5.714999999999999
1040
-62.865000000000002
1040
1.6866093946402321
1040
4.5179799999999997
1040
9.4593000000000007
1040
47.480846893247431
1040
49.485111178009838
1070
     2
1040
4.8570000000000002
1040
-53.427
1040
6.1293170803237658
1040
0.0
1040
10.16
1040
47.480921162786778
1040
49.48502357211953
1070
     2
1040
4.5720000000000001
1040
-50.292000000000002
1040
0.3665191429188092
1040
5.0800000000000001
1040
7.6200000000000001
1040
30.322975967076658
1040
-20.4531037033525
1070
     2
1040
3.8100000000000001
1040
-41.909999999999997
1040
5.6897733615015138
1040
5.0800000000000001
1040
7.6200000000000001
1040
12.36040566952941
1040
36.837593224463852
1070
     2
1040
3.048
1040
-33.527999999999999
1040
1.2470621851594761
1040
7.6069000000000004
1040
5.9155800000000003
1040
42.683298154024897
1040
16.384571543211489
1070
     2
1040
3.238
1040
-35.618000000000002
1040
0.6544984694978737
1040
0.0
1040
0.0
1040
0.6177206501183635
1040
16.911007774630619
1070
     6
1040
0.0
1040
-33.121600000000001
1040
0.0
1040
-34.036000000000001
1040
0.0
1040
-33.655000000000001
1040
0.1308996938995747
1040
0.0
1040
0.0
1040
13.36393250206115
1040
20.036114963623898
1070
     6
1040
0.0
1040
-19.4056
1040
0.0
1040
-32.3596
1040
0.0
1040
-12.827
1040
5.715953300281428
1040
-11.3284
1040
0.0
1040
27.118119033374281
1040
-1.145748798534691
1070
     6
1040
0.0
1040
-12.699999999999999
1040
0.0
1040
-39.624000000000002
1040
0.0
1040
-52.578000000000003
1040
5.5414203750819961
1040
-16.4084
1040
0.0
1040
29.625836277203611
1040
5.0852982066666028
1070
     6
1040
0.0
1040
-16.510000000000002
1040
0.0
1040
-26.314399999999999
1040
0.0
1040
-37.338000000000001
1071
        1
1040
262.70368888715763
1040
62.370805345893132
1040
0.0
1002
}
  0
POLYLINE
  5
1170
  8
0
  6
CONTINUOUS
 66
     1
 10
0.0
 20
0.0
 30
0.0
 70
   128
  0
VERTEX
  5
148A
  8
0
  6
CONTINUOUS
 10
241.1006443866716
 20
243.1044566333496
 30
0.0
  0
VERTEX
  5
148B
  8
0
  6
CONTINUOUS
 10
270.93418339821471
 20
238.84408418247261
 30
0.0
  0
VERTEX
  5
148C
  8
0
  6
CONTINUOUS
 10
271.8364998405807
 20
234.55220261126601
 30
0.0
  0
VERTEX
  5
148D
  8
0
  6
CONTINUOUS
 10
275.97160743978861
 20
242.28774232590041
 30
0.0
  0
VERTEX
  5
148E
  8
0
  6
CONTINUOUS
 10
276.87392388215562
 20
237.99586075469369
 30
0.0
  0
VERTEX
  5
148F
  8
0
  6
CONTINUOUS
 10
306.70746289369822
 20
233.73548830381679
 30
0.0
  0
SEQEND
  5
1490
  8
0
  6
CONTINUOUS
  0
POLYLINE
  5
1171
  8
0
  6
CONTINUOUS
 66
     1
 10
0.0
 20
0.0
 30
0.0
 70
   128
  0
VERTEX
  5
1491
  8
0
  6
CONTINUOUS
 10
241.10064438667149
 20
-118.9399484828546
 30
0.0
  0
VERTEX
  5
1492
  8
0
  6
CONTINUOUS
 10
270.9341833982146
 20
-123.2003209337316
 30
0.0
  0
VERTEX
  5
1493
  8
0
  6
CONTINUOUS
 10
271.8364998405807
 20
-127.49220250493821
 30
0.0
  0
VERTEX
  5
1494
  8
0
  6
CONTINUOUS
 10
275.97160743978861
 20
-119.75666279030381
 30
0.0
  0
VERTEX
  5
1495
  8
0
  6
CONTINUOUS
 10
276.87392388215551
 20
-124.04854436151039
 30
0.0
  0
VERTEX
  5
1496
  8
0
  6
CONTINUOUS
 10
306.70746289369822
 20
-128.30891681238739
 30
0.0
  0
SEQEND
  5
1497
  8
0
  6
CONTINUOUS
  0
POLYLINE
  5
1172
  8
0
 66
     1
 10
0.0
 20
0.0
 30
0.0
 70
   128
  0
VERTEX
  5
1498
  8
0
 10
287.92478455174398
 20
-125.6266602644537
 30
0.0
  0
VERTEX
  5
1499
  8
0
 10
287.92478455174398
 20
236.41774485175051
 30
0.0
  0
SEQEND
  5
149A
  8
0
  0
POLYLINE
  5
1173
  8
0
 66
     1
 10
0.0
 20
0.0
 30
0.0
 70
   128
 40
0.5
 41
0.5
  0
VERTEX
  5
149B
  8
0
 10
287.67478455174398
 20
-125.6266602644537
 30
0.0
  0
VERTEX
  5
149C
  8
0
 10
287.67478455174398
 20
236.41774485175051
 30
0.0
  0
SEQEND
  5
149D
  8
0
  0
DIMENSION
  5
1174
  8
0
  2
*D12
 10
248.24369558740909
 20
146.16357461059869
 30
0.0
 11
250.1160709109904
 21
155.71643954920719
 31
0.0
 70
   128
  1
10mm min, 25mm max
 13
257.9706470526873
 23
95.208771578798689
 33
0.0
 14
248.24369558740909
 24
95.145664207763744
 34
0.0
  0
INSERT
  5
1175
  8
0
  6
CONTINUOUS
  2
*U21
 10
0.0
 20
0.0
 30
0.0
1001
ACAD
1000
DSTYLE
1002
{
1070
   147
1040
1.0
1070
    77
1070
     0
1002
}
  0
INSERT
  5
1176
  8
0
  6
CONTINUOUS
  2
*U22
 10
0.0
 20
0.0
 30
0.0
  0
INSERT
  5
1177
  8
0
  6
CONTINUOUS
  2
*U23
 10
0.0
 20
0.0
 30
0.0
  0
INSERT
  5
1178
  8
0
  6
CONTINUOUS
  2
*U24
 10
0.0
 20
0.0
 30
0.0
1001
ACAD
1000
DSTYLE
1002
{
1070
   147
1040
1.0
1070
    77
1070
     0
1002
}
  0
POLYLINE
  5
1192
  8
0
 66
     1
 10
0.0
 20
0.0
 30
0.0
 70
     1
1001
ACDBBLOCKREPETAG
1070
     1
1071
        0
1005
1192
  0
VERTEX
  5
14B9
  8
0
 10
204.07697546463081
 20
59.975808372571016
 30
0.0
  0
VERTEX
  5
14BA
  8
0
 10
204.07697546463081
 20
-40.024191627428969
 30
0.0
  0
VERTEX
  5
14BB
  8
0
 10
254.07697546463081
 20
-40.024191627428984
 30
0.0
  0
VERTEX
  5
14BC
  8
0
 10
254.07697546463081
 20
59.975808372571016
 30
0.0
  0
SEQEND
  5
14BD
  8
0
  0
POLYLINE
  5
1193
  8
0
 66
     1
 10
0.0
 20
0.0
 30
0.0
 70
     1
 40
1.0
 41
1.0
1001
ACDBBLOCKREPETAG
1070
     1
1071
        3
1005
1193
  0
VERTEX
  5
14BE
  8
0
 10
204.57697546463081
 20
59.475808372571031
 30
0.0
  0
VERTEX
  5
14BF
  8
0
 10
204.57697546463081
 20
-39.524191627428984
 30
0.0
  0
VERTEX
  5
14C0
  8
0
 10
253.57697546463069
 20
-39.524191627428991
 30
0.0
  0
VERTEX
  5
14C1
  8
0
 10
253.57697546463081
 20
59.475808372571016
 30
0.0
  0
SEQEND
  5
14C2
  8
0
  0
LINE
  5
1194
  8
0
 10
204.07697546463081
 20
59.975808372571016
 30
0.0
 11
254.07697546463081
 21
-40.024191627428984
 31
0.0
1001
ACDBBLOCKREPETAG
1070
     1
1071
        1
1005
1194
  0
LINE
  5
1195
  8
0
 10
254.07697546463081
 20
59.975808372571016
 30
0.0
 11
204.07697546463081
 21
-40.024191627428969
 31
0.0
1001
ACDBBLOCKREPETAG
1070
     1
1071
        2
1005
1195
  0
LINE
  5
11AF
  8
0
 10
196.44310264838779
 20
117.8658615890326
 30
0.0
 11
197.07847188678281
 21
117.2304923506375
 31
0.0
1001
ACAD
1010
0.0
1020
0.0
1030
0.0
  0
LINE
  5
11B0
  8
0
 10
194.088566014403
 20
117.9753341927501
 30
0.0
 11
196.16246964460441
 21
115.9014305625487
 31
0.0
1001
ACAD
1010
0.0
1020
0.0
1030
0.0
  0
LINE
  5
11B2
  8
0
 10
191.84350198413571
 20
117.9753341927501
 30
0.0
 11
193.07550660298679
 21
116.7433295738989
 31
0.0
1001
ACAD
1010
0.0
1020
0.0
1030
0.0
  0
LINE
  5
11B4
  8
0
 10
194.19803861812051
 20
115.6207975587652
 30
0.0
 11
197.00436865595461
 21
112.8144675209311
 31
0.0
1001
ACAD
1010
0.0
1020
0.0
1030
0.0
  0
LINE
  5
11B5
  8
0
 10
189.5984379538684
 20
117.9753341927501
 30
0.0
 11
189.9885435613694
 21
117.5852285852491
 31
0.0
1001
ACAD
1010
0.0
1020
0.0
1030
0.0
  0
LINE
  5
11B7
  8
0
 10
191.111075576503
 20
116.4626965701155
 30
0.0
 11
193.9174056143371
 21
113.6563665322814
 31
0.0
1001
ACAD
1010
0.0
1020
0.0
1030
0.0
  0
LINE
  5
11B9
  8
0
 10
195.0399376294707
 20
112.5338345171477
 30
0.0
 11
197.07847188678281
 21
110.4953002598356
 31
0.0
1001
ACAD
1010
0.0
1020
0.0
1030
0.0
  0
LINE
  5
11BB
  8
0
 10
188.0241125348854
 20
117.3045955814657
 30
0.0
 11
190.83044257271951
 21
114.4982655436316
 31
0.0
1001
ACAD
1010
0.0
1020
0.0
1030
0.0
  0
LINE
  5
11BD
  8
0
 10
191.95297458785311
 20
113.3757335284979
 30
0.0
 11
194.75930462568721
 21
110.5694034906638
 31
0.0
1001
ACAD
1010
0.0
1020
0.0
1030
0.0
  0
LINE
  5
11BF
  8
0
 10
195.88183664082089
 20
109.4468714755302
 30
0.0
 11
197.07847188678269
 21
108.2502362295683
 31
0.0
1001
ACAD
1010
0.0
1020
0.0
1030
0.0
  0
LINE
  5
11C0
  8
0
 10
185.1083098933338
 20
117.9753341927501
 30
0.0
 11
187.743479531102
 21
115.3401645549819
 31
0.0
1001
ACAD
1010
0.0
1020
0.0
1030
0.0
  0
LINE
  5
11C2
  8
0
 10
188.8660115462356
 20
114.2176325398482
 30
0.0
 11
191.67234158406981
 21
111.4113025020141
 31
0.0
1001
ACAD
1010
0.0
1020
0.0
1030
0.0
  0
LINE
  5
11C4
  8
0
 10
192.79487359920341
 20
110.28877048688049
 30
0.0
 11
195.60120363703749
 21
107.48244044904629
 31
0.0
1001
ACAD
1010
0.0
1020
0.0
1030
0.0
  0
LINE
  5
11C6
  8
0
 10
196.72373565217109
 20
106.35990843391269
 30
0.0
 11
197.07847188678281
 21
106.005172199301
 31
0.0
1001
ACAD
1010
0.0
1020
0.0
1030
0.0
  0
LINE
  5
11C7
  8
0
 10
182.86324586306651
 20
117.9753341927501
 30
0.0
 11
184.65651648948449
 21
116.1820635663321
 31
0.0
1001
ACAD
1010
0.0
1020
0.0
1030
0.0
  0
LINE
  5
11C9
  8
0
 10
185.77904850461809
 20
115.0595315511985
 30
0.0
 11
188.58537854245219
 21
112.2532015133643
 31
0.0
1001
ACAD
1010
0.0
1020
0.0
1030
0.0
  0
LINE
  5
11CB
  8
0
 10
189.7079105575859
 20
111.1306694982307
 30
0.0
 11
192.51424059541989
 21
108.3243394603966
 31
0.0
1001
ACAD
1010
0.0
1020
0.0
1030
0.0
  0
LINE
  5
11CD
  8
0
 10
193.63677261055361
 20
107.2018074452629
 30
0.0
 11
196.44310264838771
 21
104.3954774074288
 31
0.0
1001
ACAD
1010
0.0
1020
0.0
1030
0.0
  0
LINE
  5
11CF
  8
0
 10
180.61818183279919
 20
117.9753341927501
 30
0.0
 11
181.56955344786701
 21
117.0239625776823
 31
0.0
1001
ACAD
1010
0.0
1020
0.0
1030
0.0
  0
LINE
  5
11D1
  8
0
 10
182.69208546300061
 20
115.9014305625487
 30
0.0
 11
185.49841550083471
 21
113.0951005247145
 31
0.0
1001
ACAD
1010
0.0
1020
0.0
1030
0.0
  0
LINE
  5
11D3
  8
0
 10
186.6209475159684
 20
111.9725685095809
 30
0.0
 11
189.4272775538025
 21
109.16623847174679
 31
0.0
1001
ACAD
1010
0.0
1020
0.0
1030
0.0
  0
LINE
  5
11D5
  8
0
 10
190.5498095689361
 20
108.04370645661309
 30
0.0
 11
193.3561396067702
 21
105.23737641877899
 31
0.0
1001
ACAD
1010
0.0
1020
0.0
1030
0.0
  0
LINE
  5
11D7
  8
0
 10
194.4786716219038
 20
104.11484440364529
 30
0.0
 11
197.07847188678281
 21
101.5150441387664
 31
0.0
1001
ACAD
1010
0.0
1020
0.0
1030
0.0
  0
LINE
  5
11D8
  8
0
 10
178.37311780253199
 20
117.9753341927501
 30
0.0
 11
178.4825904062495
 21
117.8658615890326
 31
0.0
1001
ACAD
1010
0.0
1020
0.0
1030
0.0
  0
LINE
  5
11DA
  8
0
 10
179.6051224213831
 20
116.7433295738989
 30
0.0
 11
182.4114524592172
 21
113.9369995360648
 31
0.0
1001
ACAD
1010
0.0
1020
0.0
1030
0.0
  0
LINE
  5
11DC
  8
0
 10
183.5339844743508
 20
112.8144675209311
 30
0.0
 11
186.3403145121849
 21
110.008137483097
 31
0.0
1001
ACAD
1010
0.0
1020
0.0
1030
0.0
  0
LINE
  5
11DE
  8
0
 10
187.46284652731859
 20
108.8856054679633
 30
0.0
 11
190.26917656515269
 21
106.0792754301292
 31
0.0
1001
ACAD
1010
0.0
1020
0.0
1030
0.0
  0
LINE
  5
11E0
  8
0
 10
191.39170858028629
 20
104.9567434149956
 30
0.0
 11
194.19803861812039
 21
102.1504133771615
 31
0.0
1001
ACAD
1010
0.0
1020
0.0
1030
0.0
  0
LINE
  5
11E2
  8
0
 10
195.32057063325399
 20
101.0278813620278
 30
0.0
 11
197.07847188678269
 21
99.269980108499141
 31
0.0
1001
ACAD
1010
0.0
1020
0.0
1030
0.0
  0
LINE
  5
11E3
  8
0
 10
176.51815937976559
 20
117.5852285852492
 30
0.0
 11
179.32448941759969
 21
114.778898547415
 31
0.0
1001
ACAD
1010
0.0
1020
0.0
1030
0.0
  0
LINE
  5
11E5
  8
0
 10
180.44702143273329
 20
113.6563665322814
 30
0.0
 11
183.2533514705674
 21
110.85003649444729
 31
0.0
1001
ACAD
1010
0.0
1020
0.0
1030
0.0
  0
LINE
  5
11E7
  8
0
 10
184.37588348570111
 20
109.72750447931359
 30
0.0
 11
187.18221352353521
 21
106.92117444147949
 31
0.0
1001
ACAD
1010
0.0
1020
0.0
1030
0.0
  0
LINE
  5
11E9
  8
0
 10
188.30474553866881
 20
105.79864242634579
 30
0.0
 11
191.11107557650291
 21
102.99231238851171
 31
0.0
1001
ACAD
1010
0.0
1020
0.0
1030
0.0
  0
LINE
  5
11EB
  8
0
 10
192.23360759163651
 20
101.86978037337811
 30
0.0
 11
195.03993762947059
 21
99.063450335543976
 31
0.0
1001
ACAD
1010
0.0
1020
0.0
1030
0.0
  0
LINE
  5
11ED
  8
0
 10
196.1624696446043
 20
97.940918320410333
 30
0.0
 11
197.07847188678269
 21
97.024916078231826
 31
0.0
1001
ACAD
1010
0.0
1020
0.0
1030
0.0
  0
LINE
  5
11EE
  8
0
 10
174.8016133399199
 20
117.05671059482761
 30
0.0
 11
176.23752637598221
 21
115.6207975587653
 31
0.0
1001
ACAD
1010
0.0
1020
0.0
1030
0.0
  0
LINE
  5
11F0
  8
0
 10
177.36005839111581
 20
114.4982655436316
 30
0.0
 11
180.16638842894989
 21
111.6919355057975
 31
0.0
1001
ACAD
1010
0.0
1020
0.0
1030
0.0
  0
LINE
  5
11F2
  8
0
 10
181.28892044408349
 20
110.5694034906639
 30
0.0
 11
184.09525048191759
 21
107.7630734528298
 31
0.0
1001
ACAD
1010
0.0
1020
0.0
1030
0.0
  0
LINE
  5
11F4
  8
0
 10
185.21778249705119
 20
106.6405414376961
 30
0.0
 11
188.02411253488529
 21
103.834211399862
 31
0.0
1001
ACAD
1010
0.0
1020
0.0
1030
0.0
  0
LINE
  5
11F6
  8
0
 10
189.146644550019
 20
102.7116793847283
 30
0.0
 11
191.95297458785311
 21
99.905349346894226
 31
0.0
1001
ACAD
1010
0.0
1020
0.0
1030
0.0
  0
LINE
  5
11F8
  8
0
 10
193.07550660298671
 20
98.782817331760569
 30
0.0
 11
195.88183664082081
 21
95.976487293926454
 31
0.0
1001
ACAD
1010
0.0
1020
0.0
1030
0.0
  0
LINE
  5
11FA
  8
0
 10
197.00436865595441
 20
94.853955278792796
 30
0.0
 11
197.07847188678269
 21
94.779852047964567
 31
0.0
1001
ACAD
1010
0.0
1020
0.0
1030
0.0
  0
LINE
  5
11FB
  8
0
 10
174.8016133399199
 20
114.81164656456031
 30
0.0
 11
177.07942538733241
 21
112.5338345171478
 31
0.0
1001
ACAD
1010
0.0
1020
0.0
1030
0.0
  0
LINE
  5
11FD
  8
0
 10
178.20195740246601
 20
111.4113025020141
 30
0.0
 11
181.00828744030011
 21
108.60497246417999
 31
0.0
1001
ACAD
1010
0.0
1020
0.0
1030
0.0
  0
LINE
  5
11FF
  8
0
 10
182.13081945543379
 20
107.48244044904629
 30
0.0
 11
184.9371494932679
 21
104.67611041121221
 31
0.0
1001
ACAD
1010
0.0
1020
0.0
1030
0.0
  0
LINE
  5
1201
  8
0
 10
186.0596815084015
 20
103.55357839607861
 30
0.0
 11
188.8660115462356
 21
100.74724835824441
 31
0.0
1001
ACAD
1010
0.0
1020
0.0
1030
0.0
  0
LINE
  5
1203
  8
0
 10
189.9885435613692
 20
99.624716343110819
 30
0.0
 11
192.7948735992033
 21
96.818386305276704
 31
0.0
1001
ACAD
1010
0.0
1020
0.0
1030
0.0
  0
LINE
  5
1205
  8
0
 10
193.91740561433701
 20
95.695854290143046
 30
0.0
 11
196.72373565217109
 21
92.889524252308945
 31
0.0
1001
ACAD
1010
0.0
1020
0.0
1030
0.0
  0
LINE
  5
1206
  8
0
 10
175.11499436084861
 20
112.2532015133643
 30
0.0
 11
177.92132439868271
 21
109.4468714755302
 31
0.0
1001
ACAD
1010
0.0
1020
0.0
1030
0.0
  0
LINE
  5
1208
  8
0
 10
179.04385641381629
 20
108.3243394603965
 30
0.0
 11
181.85018645165039
 21
105.5180094225624
 31
0.0
1001
ACAD
1010
0.0
1020
0.0
1030
0.0
  0
LINE
  5
120A
  8
0
 10
182.97271846678399
 20
104.3954774074288
 30
0.0
 11
185.7790485046182
 21
101.5891473695946
 31
0.0
1001
ACAD
1010
0.0
1020
0.0
1030
0.0
  0
LINE
  5
120C
  8
0
 10
186.9015805197518
 20
100.466615354461
 30
0.0
 11
189.7079105575859
 21
97.660285316626883
 31
0.0
1001
ACAD
1010
0.0
1020
0.0
1030
0.0
  0
LINE
  5
120E
  8
0
 10
190.83044257271951
 20
96.537753301493225
 30
0.0
 11
193.63677261055361
 21
93.73142326365911
 31
0.0
1001
ACAD
1010
0.0
1020
0.0
1030
0.0
  0
LINE
  5
1210
  8
0
 10
194.75930462568721
 20
92.608891248525438
 30
0.0
 11
197.07847188678269
 21
90.289723987429923
 31
0.0
1001
ACAD
1010
0.0
1020
0.0
1030
0.0
  0
LINE
  5
1211
  8
0
 10
174.8016133399199
 20
110.3215185040257
 30
0.0
 11
174.83436135706509
 21
110.2887704868804
 31
0.0
1001
ACAD
1010
0.0
1020
0.0
1030
0.0
  0
LINE
  5
1213
  8
0
 10
175.95689337219869
 20
109.16623847174679
 30
0.0
 11
178.76322341003279
 21
106.35990843391259
 31
0.0
1001
ACAD
1010
0.0
1020
0.0
1030
0.0
  0
LINE
  5
1215
  8
0
 10
179.88575542516651
 20
105.23737641877899
 30
0.0
 11
182.69208546300061
 21
102.43104638094491
 31
0.0
1001
ACAD
1010
0.0
1020
0.0
1030
0.0
  0
LINE
  5
1217
  8
0
 10
183.81461747813421
 20
101.30851436581121
 30
0.0
 11
186.62094751596831
 21
98.502184327977133
 31
0.0
1001
ACAD
1010
0.0
1020
0.0
1030
0.0
  0
LINE
  5
1219
  8
0
 10
187.74347953110191
 20
97.379652312843476
 30
0.0
 11
190.5498095689361
 21
94.57332227500936
 31
0.0
1001
ACAD
1010
0.0
1020
0.0
1030
0.0
  0
LINE
  5
121B
  8
0
 10
191.6723415840697
 20
93.450790259875717
 30
0.0
 11
194.4786716219038
 21
90.644460222041573
 31
0.0
1001
ACAD
1010
0.0
1020
0.0
1030
0.0
  0
LINE
  5
121D
  8
0
 10
195.6012036370374
 20
89.52192820690793
 30
0.0
 11
197.07847188678269
 21
88.044659957162651
 31
0.0
1001
ACAD
1010
0.0
1020
0.0
1030
0.0
  0
LINE
  5
121E
  8
0
 10
174.8016133399199
 20
108.0764544737585
 30
0.0
 11
175.6762603684154
 21
107.2018074452629
 31
0.0
1001
ACAD
1010
0.0
1020
0.0
1030
0.0
  0
LINE
  5
1220
  8
0
 10
176.798792383549
 20
106.0792754301293
 30
0.0
 11
179.6051224213831
 21
103.2729453922951
 31
0.0
1001
ACAD
1010
0.0
1020
0.0
1030
0.0
  0
LINE
  5
1222
  8
0
 10
180.7276544365167
 20
102.1504133771615
 30
0.0
 11
183.5339844743508
 21
99.344083339327398
 31
0.0
1001
ACAD
1010
0.0
1020
0.0
1030
0.0
  0
LINE
  5
1224
  8
0
 10
184.65651648948449
 20
98.221551324193754
 30
0.0
 11
187.46284652731859
 21
95.415221286359625
 31
0.0
1001
ACAD
1010
0.0
1020
0.0
1030
0.0
  0
LINE
  5
1226
  8
0
 10
188.58537854245219
 20
94.292689271225967
 30
0.0
 11
191.39170858028629
 21
91.486359233391852
 31
0.0
1001
ACAD
1010
0.0
1020
0.0
1030
0.0
  0
LINE
  5
1228
  8
0
 10
192.51424059541989
 20
90.363827218258194
 30
0.0
 11
195.32057063325399
 21
87.557497180424065
 31
0.0
1001
ACAD
1010
0.0
1020
0.0
1030
0.0
  0
LINE
  5
122A
  8
0
 10
196.44310264838771
 20
86.434965165290421
 30
0.0
 11
197.07847188678269
 21
85.799595926895336
 31
0.0
1001
ACAD
1010
0.0
1020
0.0
1030
0.0
  0
LINE
  5
122B
  8
0
 10
174.8016133399199
 20
105.8313904434911
 30
0.0
 11
176.51815937976559
 21
104.11484440364541
 31
0.0
1001
ACAD
1010
0.0
1020
0.0
1030
0.0
  0
LINE
  5
122D
  8
0
 10
177.64069139489919
 20
102.99231238851181
 30
0.0
 11
180.44702143273329
 21
100.18598235067761
 31
0.0
1001
ACAD
1010
0.0
1020
0.0
1030
0.0
  0
LINE
  5
122F
  8
0
 10
181.56955344786689
 20
99.063450335544005
 30
0.0
 11
184.375883485701
 21
96.257120297709889
 31
0.0
1001
ACAD
1010
0.0
1020
0.0
1030
0.0
  0
LINE
  5
1231
  8
0
 10
185.49841550083471
 20
95.134588282576246
 30
0.0
 11
188.30474553866881
 21
92.328258244742116
 31
0.0
1001
ACAD
1010
0.0
1020
0.0
1030
0.0
  0
LINE
  5
1233
  8
0
 10
189.42727755380241
 20
91.205726229608459
 30
0.0
 11
192.23360759163651
 21
88.399396191774329
 31
0.0
1001
ACAD
1010
0.0
1020
0.0
1030
0.0
  0
LINE
  5
1235
  8
0
 10
193.35613960677011
 20
87.276864176640686
 30
0.0
 11
196.16246964460419
 21
84.470534138806585
 31
0.0
1001
ACAD
1010
0.0
1020
0.0
1030
0.0
  0
LINE
  5
1237
  8
0
 10
174.8016133399199
 20
103.5863264132239
 30
0.0
 11
177.36005839111581
 21
101.0278813620279
 31
0.0
1001
ACAD
1010
0.0
1020
0.0
1030
0.0
  0
LINE
  5
1239
  8
0
 10
178.48259040624939
 20
99.905349346894283
 30
0.0
 11
181.2889204440836
 21
97.099019309060154
 31
0.0
1001
ACAD
1010
0.0
1020
0.0
1030
0.0
  0
LINE
  5
123B
  8
0
 10
182.4114524592172
 20
95.976487293926496
 30
0.0
 11
185.2177824970513
 21
93.170157256092381
 31
0.0
1001
ACAD
1010
0.0
1020
0.0
1030
0.0
  0
LINE
  5
123D
  8
0
 10
186.3403145121849
 20
92.047625240958723
 30
0.0
 11
189.146644550019
 21
89.241295203124594
 31
0.0
1001
ACAD
1010
0.0
1020
0.0
1030
0.0
  0
LINE
  5
123F
  8
0
 10
190.26917656515261
 20
88.11876318799095
 30
0.0
 11
193.07550660298671
 21
85.312433150156835
 31
0.0
1001
ACAD
1010
0.0
1020
0.0
1030
0.0
  0
LINE
  5
1241
  8
0
 10
194.19803861812039
 20
84.189901135023163
 30
0.0
 11
197.00436865595449
 21
81.383571097189062
 31
0.0
1001
ACAD
1010
0.0
1020
0.0
1030
0.0
  0
LINE
  5
1243
  8
0
 10
175.39562736463191
 20
100.74724835824451
 30
0.0
 11
178.20195740246601
 21
97.940918320410432
 31
0.0
1001
ACAD
1010
0.0
1020
0.0
1030
0.0
  0
LINE
  5
1245
  8
0
 10
179.32448941759961
 20
96.818386305276775
 30
0.0
 11
182.13081945543371
 21
94.012056267442659
 31
0.0
1001
ACAD
1010
0.0
1020
0.0
1030
0.0
  0
LINE
  5
1247
  8
0
 10
183.25335147056731
 20
92.889524252309016
 30
0.0
 11
186.05968150840141
 21
90.083194214474887
 31
0.0
1001
ACAD
1010
0.0
1020
0.0
1030
0.0
  0
LINE
  5
1249
  8
0
 10
187.1822135235351
 20
88.960662199341229
 30
0.0
 11
189.9885435613692
 21
86.154332161507114
 31
0.0
1001
ACAD
1010
0.0
1020
0.0
1030
0.0
  0
LINE
  5
124B
  8
0
 10
191.1110755765028
 20
85.031800146373456
 30
0.0
 11
193.9174056143369
 21
82.225470108539355
 31
0.0
1001
ACAD
1010
0.0
1020
0.0
1030
0.0
  0
LINE
  5
124D
  8
0
 10
195.0399376294705
 20
81.102938093405683
 30
0.0
 11
197.07847188678269
 21
79.064403836093547
 31
0.0
1001
ACAD
1010
0.0
1020
0.0
1030
0.0
  0
LINE
  5
124E
  8
0
 10
174.8016133399199
 20
99.096198352689342
 30
0.0
 11
175.11499436084861
 21
98.782817331760612
 31
0.0
1001
ACAD
1010
0.0
1020
0.0
1030
0.0
  0
LINE
  5
1250
  8
0
 10
176.23752637598221
 20
97.660285316626954
 30
0.0
 11
179.04385641381629
 21
94.853955278792824
 31
0.0
1001
ACAD
1010
0.0
1020
0.0
1030
0.0
  0
LINE
  5
1252
  8
0
 10
180.16638842894989
 20
93.731423263659181
 30
0.0
 11
182.97271846678399
 21
90.925093225825066
 31
0.0
1001
ACAD
1010
0.0
1020
0.0
1030
0.0
  0
LINE
  5
1254
  8
0
 10
184.0952504819177
 20
89.802561210691408
 30
0.0
 11
186.9015805197518
 21
86.996231172857307
 31
0.0
1001
ACAD
1010
0.0
1020
0.0
1030
0.0
  0
LINE
  5
1256
  8
0
 10
188.0241125348854
 20
85.873699157723635
 30
0.0
 11
190.83044257271951
 21
83.06736911988952
 31
0.0
1001
ACAD
1010
0.0
1020
0.0
1030
0.0
  0
LINE
  5
1258
  8
0
 10
191.95297458785311
 20
81.944837104755848
 30
0.0
 11
194.75930462568721
 21
79.138507066921747
 31
0.0
1001
ACAD
1010
0.0
1020
0.0
1030
0.0
  0
LINE
  5
125A
  8
0
 10
195.88183664082081
 20
78.015975051788089
 30
0.0
 11
197.07847188678269
 21
76.819339805826218
 31
0.0
1001
ACAD
1010
0.0
1020
0.0
1030
0.0
  0
LINE
  5
125B
  8
0
 10
174.8016133399199
 20
96.851134322422041
 30
0.0
 11
175.95689337219869
 21
95.695854290143103
 31
0.0
1001
ACAD
1010
0.0
1020
0.0
1030
0.0
  0
LINE
  5
125D
  8
0
 10
177.07942538733241
 20
94.573322275009446
 30
0.0
 11
179.88575542516651
 21
91.766992237175316
 31
0.0
1001
ACAD
1010
0.0
1020
0.0
1030
0.0
  0
LINE
  5
125F
  8
0
 10
181.00828744030011
 20
90.644460222041673
 30
0.0
 11
183.81461747813421
 21
87.838130184207557
 31
0.0
1001
ACAD
1010
0.0
1020
0.0
1030
0.0
  0
LINE
  5
1261
  8
0
 10
184.9371494932679
 20
86.715598169073886
 30
0.0
 11
187.74347953110191
 21
83.909268131239784
 31
0.0
1001
ACAD
1010
0.0
1020
0.0
1030
0.0
  0
LINE
  5
1263
  8
0
 10
188.8660115462356
 20
82.786736116106127
 30
0.0
 11
191.6723415840697
 21
79.980406078272011
 31
0.0
1001
ACAD
1010
0.0
1020
0.0
1030
0.0
  0
LINE
  5
1265
  8
0
 10
192.7948735992033
 20
78.857874063138354
 30
0.0
 11
195.6012036370374
 21
76.051544025304224
 31
0.0
1001
ACAD
1010
0.0
1020
0.0
1030
0.0
  0
LINE
  5
1267
  8
0
 10
196.723735652171
 20
74.929012010170581
 30
0.0
 11
197.07847188678269
 21
74.574275775558931
 31
0.0
1001
ACAD
1010
0.0
1020
0.0
1030
0.0
  0
LINE
  5
1268
  8
0
 10
174.8016133399199
 20
94.606070292154754
 30
0.0
 11
176.798792383549
 21
92.608891248525595
 31
0.0
1001
ACAD
1010
0.0
1020
0.0
1030
0.0
  0
LINE
  5
126A
  8
0
 10
177.9213243986826
 20
91.486359233391937
 30
0.0
 11
180.7276544365167
 21
88.680029195557836
 31
0.0
1001
ACAD
1010
0.0
1020
0.0
1030
0.0
  0
LINE
  5
126C
  8
0
 10
181.85018645165039
 20
87.557497180424164
 30
0.0
 11
184.65651648948449
 21
84.751167142590049
 31
0.0
1001
ACAD
1010
0.0
1020
0.0
1030
0.0
  0
LINE
  5
126E
  8
0
 10
185.77904850461809
 20
83.628635127456377
 30
0.0
 11
188.58537854245219
 21
80.822305089622276
 31
0.0
1001
ACAD
1010
0.0
1020
0.0
1030
0.0
  0
LINE
  5
1270
  8
0
 10
189.70791055758579
 20
79.699773074488618
 30
0.0
 11
192.51424059541989
 21
76.893443036654503
 31
0.0
1001
ACAD
1010
0.0
1020
0.0
1030
0.0
  0
LINE
  5
1272
  8
0
 10
193.63677261055361
 20
75.770911021520845
 30
0.0
 11
196.44310264838771
 21
72.96458098368673
 31
0.0
1001
ACAD
1010
0.0
1020
0.0
1030
0.0
  0
LINE
  5
1274
  8
0
 10
174.83436135706509
 20
92.328258244742159
 30
0.0
 11
177.64069139489919
 21
89.521928206908058
 31
0.0
1001
ACAD
1010
0.0
1020
0.0
1030
0.0
  0
LINE
  5
1276
  8
0
 10
178.76322341003279
 20
88.399396191774414
 30
0.0
 11
181.56955344786701
 21
85.593066153940285
 31
0.0
1001
ACAD
1010
0.0
1020
0.0
1030
0.0
  0
LINE
  5
1278
  8
0
 10
182.69208546300061
 20
84.470534138806627
 30
0.0
 11
185.49841550083471
 21
81.664204100972498
 31
0.0
1001
ACAD
1010
0.0
1020
0.0
1030
0.0
  0
LINE
  5
127A
  8
0
 10
186.62094751596831
 20
80.541672085838854
 30
0.0
 11
189.42727755380241
 21
77.735342048004739
 31
0.0
1001
ACAD
1010
0.0
1020
0.0
1030
0.0
  0
LINE
  5
127C
  8
0
 10
190.5498095689361
 20
76.612810032871081
 30
0.0
 11
193.3561396067702
 21
73.806479995036966
 31
0.0
1001
ACAD
1010
0.0
1020
0.0
1030
0.0
  0
LINE
  5
127E
  8
0
 10
194.4786716219038
 20
72.683947979903309
 30
0.0
 11
197.07847188678269
 21
70.084147715024358
 31
0.0
1001
ACAD
1010
0.0
1020
0.0
1030
0.0
  0
LINE
  5
1280
  8
0
 10
175.6762603684154
 20
89.241295203124665
 30
0.0
 11
178.4825904062495
 21
86.434965165290535
 31
0.0
1001
ACAD
1010
0.0
1020
0.0
1030
0.0
  0
LINE
  5
1282
  8
0
 10
179.6051224213831
 20
85.312433150156892
 30
0.0
 11
182.4114524592172
 21
82.506103112322776
 31
0.0
1001
ACAD
1010
0.0
1020
0.0
1030
0.0
  0
LINE
  5
1284
  8
0
 10
183.5339844743508
 20
81.383571097189119
 30
0.0
 11
186.3403145121849
 21
78.577241059355003
 31
0.0
1001
ACAD
1010
0.0
1020
0.0
1030
0.0
  0
LINE
  5
1286
  8
0
 10
187.46284652731859
 20
77.454709044221346
 30
0.0
 11
190.26917656515269
 21
74.648379006387231
 31
0.0
1001
ACAD
1010
0.0
1020
0.0
1030
0.0
  0
LINE
  5
1288
  8
0
 10
191.39170858028629
 20
73.525846991253573
 30
0.0
 11
194.19803861812039
 21
70.719516953419458
 31
0.0
1001
ACAD
1010
0.0
1020
0.0
1030
0.0
  0
LINE
  5
128A
  8
0
 10
174.8016133399199
 20
87.870878201352866
 30
0.0
 11
175.39562736463191
 21
87.276864176640757
 31
0.0
1001
ACAD
1010
0.0
1020
0.0
1030
0.0
  0
LINE
  5
128C
  8
0
 10
176.51815937976559
 20
86.154332161507114
 30
0.0
 11
179.32448941759969
 21
83.348002123672984
 31
0.0
1001
ACAD
1010
0.0
1020
0.0
1030
0.0
  0
LINE
  5
128E
  8
0
 10
180.44702143273329
 20
82.225470108539326
 30
0.0
 11
183.2533514705674
 21
79.419140070705211
 31
0.0
1001
ACAD
1010
0.0
1020
0.0
1030
0.0
  0
LINE
  5
1290
  8
0
 10
184.375883485701
 20
78.296608055571554
 30
0.0
 11
187.1822135235351
 21
75.490278017737424
 31
0.0
1001
ACAD
1010
0.0
1020
0.0
1030
0.0
  0
LINE
  5
1292
  8
0
 10
188.30474553866881
 20
74.367746002603781
 30
0.0
 11
191.11107557650291
 21
71.561415964769665
 31
0.0
1001
ACAD
1010
0.0
1020
0.0
1030
0.0
  0
LINE
  5
1294
  8
0
 10
192.23360759163651
 20
70.438883949636008
 30
0.0
 11
193.06160587587101
 21
69.610885665401511
 31
0.0
1001
ACAD
1010
0.0
1020
0.0
1030
0.0
  0
LINE
  5
1295
  8
0
 10
174.8016133399199
 20
85.625814171085594
 30
0.0
 11
176.23752637598221
 21
84.189901135023234
 31
0.0
1001
ACAD
1010
0.0
1020
0.0
1030
0.0
  0
LINE
  5
1297
  8
0
 10
177.36005839111581
 20
83.067369119889591
 30
0.0
 11
180.16638842894989
 21
80.261039082055476
 31
0.0
1001
ACAD
1010
0.0
1020
0.0
1030
0.0
  0
LINE
  5
1299
  8
0
 10
181.2889204440836
 20
79.138507066921818
 30
0.0
 11
184.0952504819177
 21
76.332177029087703
 31
0.0
1001
ACAD
1010
0.0
1020
0.0
1030
0.0
  0
LINE
  5
129B
  8
0
 10
185.2177824970513
 20
75.209645013954045
 30
0.0
 11
188.0241125348854
 21
72.40331497611993
 31
0.0
1001
ACAD
1010
0.0
1020
0.0
1030
0.0
  0
LINE
  5
129D
  8
0
 10
189.146644550019
 20
71.280782960986272
 30
0.0
 11
190.81654184560381
 21
69.610885665401526
 31
0.0
1001
ACAD
1010
0.0
1020
0.0
1030
0.0
  0
LINE
  5
129E
  8
0
 10
174.8016133399199
 20
83.380750140818279
 30
0.0
 11
177.07942538733241
 21
81.102938093405726
 31
0.0
1001
ACAD
1010
0.0
1020
0.0
1030
0.0
  0
LINE
  5
12A0
  8
0
 10
178.20195740246601
 20
79.980406078272054
 30
0.0
 11
181.00828744030011
 21
77.174076040437953
 31
0.0
1001
ACAD
1010
0.0
1020
0.0
1030
0.0
  0
LINE
  5
12A2
  8
0
 10
182.13081945543379
 20
76.051544025304295
 30
0.0
 11
184.9371494932679
 21
73.24521398747018
 31
0.0
1001
ACAD
1010
0.0
1020
0.0
1030
0.0
  0
LINE
  5
12A4
  8
0
 10
186.0596815084015
 20
72.122681972336522
 30
0.0
 11
188.57147781533649
 21
69.61088566540154
 31
0.0
1001
ACAD
1010
0.0
1020
0.0
1030
0.0
  0
LINE
  5
12A5
  8
0
 10
175.11499436084861
 20
80.822305089622304
 30
0.0
 11
177.92132439868271
 21
78.015975051788203
 31
0.0
1001
ACAD
1010
0.0
1020
0.0
1030
0.0
  0
LINE
  5
12A7
  8
0
 10
179.04385641381629
 20
76.893443036654546
 30
0.0
 11
181.85018645165039
 21
74.08711299882043
 31
0.0
1001
ACAD
1010
0.0
1020
0.0
1030
0.0
  0
LINE
  5
12A9
  8
0
 10
182.97271846678399
 20
72.964580983686773
 30
0.0
 11
185.77904850461809
 21
70.158250945852657
 31
0.0
1001
ACAD
1010
0.0
1020
0.0
1030
0.0
  0
LINE
  5
12AA
  8
0
 10
174.8016133399199
 20
78.89062208028372
 30
0.0
 11
174.83436135706509
 21
78.857874063138482
 31
0.0
1001
ACAD
1010
0.0
1020
0.0
1030
0.0
  0
LINE
  5
12AC
  8
0
 10
175.95689337219869
 20
77.735342048004824
 30
0.0
 11
178.76322341003279
 21
74.929012010170709
 31
0.0
1001
ACAD
1010
0.0
1020
0.0
1030
0.0
  0
LINE
  5
12AE
  8
0
 10
179.88575542516639
 20
73.806479995037051
 30
0.0
 11
182.6920854630005
 21
71.000149957202936
 31
0.0
1001
ACAD
1010
0.0
1020
0.0
1030
0.0
  0
LINE
  5
12B0
  8
0
 10
183.81461747813421
 20
69.877617942069278
 30
0.0
 11
184.08134975480189
 21
69.610885665401568
 31
0.0
1001
ACAD
1010
0.0
1020
0.0
1030
0.0
  0
LINE
  5
12B1
  8
0
 10
174.8016133399199
 20
76.645558050016419
 30
0.0
 11
175.67626036841531
 21
75.770911021520931
 31
0.0
1001
ACAD
1010
0.0
1020
0.0
1030
0.0
  0
LINE
  5
12B3
  8
0
 10
176.798792383549
 20
74.648379006387273
 30
0.0
 11
179.6051224213831
 21
71.842048968553158
 31
0.0
1001
ACAD
1010
0.0
1020
0.0
1030
0.0
  0
LINE
  5
12B5
  8
0
 10
180.7276544365167
 20
70.7195169534195
 30
0.0
 11
181.83628572453469
 21
69.610885665401554
 31
0.0
1001
ACAD
1010
0.0
1020
0.0
1030
0.0
  0
LINE
  5
12B6
  8
0
 10
174.8016133399199
 20
74.400494019749146
 30
0.0
 11
176.51815937976559
 21
72.683947979903408
 31
0.0
1001
ACAD
1010
0.0
1020
0.0
1030
0.0
  0
LINE
  5
12B8
  8
0
 10
177.64069139489919
 20
71.561415964769751
 30
0.0
 11
179.5912216942674
 21
69.610885665401582
 31
0.0
1001
ACAD
1010
0.0
1020
0.0
1030
0.0
  0
LINE
  5
12B9
  8
0
 10
174.8016133399199
 20
72.155429989481846
 30
0.0
 11
177.346157664
 21
69.610885665401611
 31
0.0
1001
ACAD
1010
0.0
1020
0.0
1030
0.0
  0
LINE
  5
12BB
  8
0
  6
CONTINUOUS
 10
258.07697546463078
 20
110.2011192379762
 30
0.0
 11
257.52183953047353
 21
109.64598330381889
 31
0.0
1001
ACAD
1010
0.0
1020
0.0
1030
0.0
  0
LINE
  5
12BC
  8
0
  6
CONTINUOUS
 10
258.07697546463078
 20
111.5481576561365
 30
0.0
 11
256.72985297501867
 21
110.20103516652441
 31
0.0
1001
ACAD
1010
0.0
1020
0.0
1030
0.0
  0
LINE
  5
12BD
  8
0
  6
CONTINUOUS
 10
258.07697546463078
 20
112.8951960742969
 30
0.0
 11
255.84937013332731
 21
110.6675907429933
 31
0.0
1001
ACAD
1010
0.0
1020
0.0
1030
0.0
  0
LINE
  5
12BE
  8
0
  6
CONTINUOUS
 10
258.07697546463078
 20
114.2422344924573
 30
0.0
 11
254.86926659183459
 21
111.0345256196611
 31
0.0
1001
ACAD
1010
0.0
1020
0.0
1030
0.0
  0
LINE
  5
12BF
  8
0
  6
CONTINUOUS
 10
258.07697546463078
 20
115.58927291061759
 30
0.0
 11
253.76925919614749
 21
111.2815566421343
 31
0.0
1001
ACAD
1010
0.0
1020
0.0
1030
0.0
  0
LINE
  5
12C0
  8
0
  6
CONTINUOUS
 10
258.07697546463078
 20
116.936311328778
 30
0.0
 11
252.5104242468087
 21
111.36976011095589
 31
0.0
1001
ACAD
1010
0.0
1020
0.0
1030
0.0
  0
LINE
  5
12C1
  8
0
  6
CONTINUOUS
 10
258.07697546463078
 20
118.2833497469384
 30
0.0
 11
251.00375133219501
 21
111.2101256145026
 31
0.0
1001
ACAD
1010
0.0
1020
0.0
1030
0.0
  0
LINE
  5
12C2
  8
0
  6
CONTINUOUS
 10
258.07697546463078
 20
119.63038816509879
 30
0.0
 11
248.91246217044809
 21
110.465874870916
 31
0.0
1001
ACAD
1010
0.0
1020
0.0
1030
0.0
  0
LINE
  5
12C3
  8
0
  6
CONTINUOUS
 10
255.139801077633
 20
118.04025219626141
 30
0.0
 11
247.07697546463081
 21
109.9774265832591
 31
0.0
1001
ACAD
1010
0.0
1020
0.0
1030
0.0
  0
LINE
  5
12C4
  8
0
  6
CONTINUOUS
 10
253.41970945595159
 20
117.6671989927403
 30
0.0
 11
247.07697546463081
 21
111.3244650014195
 31
0.0
1001
ACAD
1010
0.0
1020
0.0
1030
0.0
  0
LINE
  5
12C5
  8
0
  6
CONTINUOUS
 10
252.0410162918923
 20
117.63554424684141
 30
0.0
 11
247.07697546463081
 21
112.67150341957991
 31
0.0
1001
ACAD
1010
0.0
1020
0.0
1030
0.0
  0
LINE
  5
12C6
  8
0
  6
CONTINUOUS
 10
250.85342100173489
 20
117.7949873748444
 30
0.0
 11
247.07697546463081
 21
114.0185418377403
 31
0.0
1001
ACAD
1010
0.0
1020
0.0
1030
0.0
  0
LINE
  5
12C7
  8
0
  6
CONTINUOUS
 10
249.8005893674474
 20
118.08919415871721
 30
0.0
 11
247.07697546463081
 21
115.3655802559007
 31
0.0
1001
ACAD
1010
0.0
1020
0.0
1030
0.0
  0
LINE
  5
12C8
  8
0
  6
CONTINUOUS
 10
248.85473097778561
 20
118.49037418721581
 30
0.0
 11
247.07697546463081
 21
116.71261867406101
 31
0.0
1001
ACAD
1010
0.0
1020
0.0
1030
0.0
  0
LINE
  5
12C9
  8
0
  6
CONTINUOUS
 10
248.00052639027231
 20
118.98320801786279
 30
0.0
 11
247.07697546463081
 21
118.0596570922214
 31
0.0
1001
ACAD
1010
0.0
1020
0.0
1030
0.0
  0
LINE
  5
12CA
  8
0
  6
CONTINUOUS
 10
247.22941878912849
 20
119.5591388348795
 30
0.0
 11
247.07697546463081
 21
119.40669551038179
 31
0.0
1001
ACAD
1010
0.0
1020
0.0
1030
0.0
  0
LINE
  5
12CB
  8
0
  6
CONTINUOUS
 10
257.88433533272217
 20
119.5847915231686
 30
0.0
 11
258.07697546463078
 21
119.39215139126
 31
0.0
1001
ACAD
1010
0.0
1020
0.0
1030
0.0
  0
LINE
  5
12CC
  8
0
  6
CONTINUOUS
 10
257.11656439302402
 20
119.00552404470641
 30
0.0
 11
258.07697546463078
 21
118.04511297309971
 31
0.0
1001
ACAD
1010
0.0
1020
0.0
1030
0.0
  0
LINE
  5
12CD
  8
0
  6
CONTINUOUS
 10
256.2659470123163
 20
118.5091030072537
 30
0.0
 11
258.07697546463078
 21
116.6980745549393
 31
0.0
1001
ACAD
1010
0.0
1020
0.0
1030
0.0
  0
LINE
  5
12CE
  8
0
  6
CONTINUOUS
 10
255.32414245945989
 20
118.1038691419497
 30
0.0
 11
258.07697546463078
 21
115.3510361367789
 31
0.0
1001
ACAD
1010
0.0
1020
0.0
1030
0.0
  0
LINE
  5
12CF
  8
0
  6
CONTINUOUS
 10
254.27619127403639
 20
117.80478190921291
 30
0.0
 11
258.07697546463078
 21
114.00399771861851
 31
0.0
1001
ACAD
1010
0.0
1020
0.0
1030
0.0
  0
LINE
  5
12D0
  8
0
  6
CONTINUOUS
 10
253.09502249966539
 20
117.6389122654236
 30
0.0
 11
258.07697546463078
 21
112.6569593004582
 31
0.0
1001
ACAD
1010
0.0
1020
0.0
1030
0.0
  0
LINE
  5
12D1
  8
0
  6
CONTINUOUS
 10
251.72613931163789
 20
117.6607570352906
 30
0.0
 11
258.07697546463078
 21
111.3099208822978
 31
0.0
1001
ACAD
1010
0.0
1020
0.0
1030
0.0
  0
LINE
  5
12D2
  8
0
  6
CONTINUOUS
 10
250.0266829006714
 20
118.0131750280968
 30
0.0
 11
258.07697546463078
 21
109.96288246413739
 31
0.0
1001
ACAD
1010
0.0
1020
0.0
1030
0.0
  0
LINE
  5
12D3
  8
0
  6
CONTINUOUS
 10
247.07697546463081
 20
119.615844045977
 30
0.0
 11
256.18798404090688
 21
110.50483546970089
 31
0.0
1001
ACAD
1010
0.0
1020
0.0
1030
0.0
  0
LINE
  5
12D4
  8
0
  6
CONTINUOUS
 10
247.07697546463081
 20
118.2688056278166
 30
0.0
 11
254.12649468528019
 21
111.2192864071672
 31
0.0
1001
ACAD
1010
0.0
1020
0.0
1030
0.0
  0
LINE
  5
12D5
  8
0
  6
CONTINUOUS
 10
247.07697546463081
 20
116.92176720965629
 30
0.0
 11
252.62870871623221
 21
111.3700339580549
 31
0.0
1001
ACAD
1010
0.0
1020
0.0
1030
0.0
  0
LINE
  5
12D6
  8
0
  6
CONTINUOUS
 10
247.07697546463081
 20
115.5747287914959
 30
0.0
 11
251.37497511404621
 21
111.2767291420805
 31
0.0
1001
ACAD
1010
0.0
1020
0.0
1030
0.0
  0
LINE
  5
12D7
  8
0
  6
CONTINUOUS
 10
247.07697546463081
 20
114.22769037333551
 30
0.0
 11
250.27860026943881
 21
111.0260655685275
 31
0.0
1001
ACAD
1010
0.0
1020
0.0
1030
0.0
  0
LINE
  5
12D8
  8
0
  6
CONTINUOUS
 10
247.07697546463081
 20
112.8806519551751
 30
0.0
 11
249.3014016165244
 21
110.6562258032815
 31
0.0
1001
ACAD
1010
0.0
1020
0.0
1030
0.0
  0
LINE
  5
12D9
  8
0
  6
CONTINUOUS
 10
247.07697546463081
 20
111.5336135370148
 30
0.0
 11
248.42342660551711
 21
110.1871623961285
 31
0.0
1001
ACAD
1010
0.0
1020
0.0
1030
0.0
  0
LINE
  5
12DA
  8
0
  6
CONTINUOUS
 10
247.07697546463081
 20
110.18657511885441
 30
0.0
 11
247.63373360810081
 21
109.6298169753844
 31
0.0
1001
ACAD
1010
0.0
1020
0.0
1030
0.0
  0
ENDSEC
  0
EOF
