  0
SECTION
  2
HEADER
  9
$ACADVER
  1
AC1009
  9
$INSBASE
 10
0.0
 20
0.0
 30
0.0
  9
$EXTMIN
 10
-111.6501036427961
 20
-112.025752848309
 30
-0.0015258207003583
  9
$EXTMAX
 10
278.94423628812268
 20
119.67505940766959
 30
0.0000000349246037
  9
$LIMMIN
 10
0.0
 20
0.0
  9
$LIMMAX
 10
12.0
 20
9.0
  9
$ORTHOMODE
 70
     0
  9
$REGENMODE
 70
     1
  9
$FILLMODE
 70
     1
  9
$QTEXTMODE
 70
     0
  9
$MIRRTEXT
 70
     0
  9
$DRAGMODE
 70
     2
  9
$LTSCALE
 40
1.0
  9
$OSMODE
 70
     0
  9
$ATTMODE
 70
     1
  9
$TEXTSIZE
 40
5.0
  9
$TRACEWID
 40
0.05
  9
$TEXTSTYLE
  7
ARIAL
  9
$CLAYER
  8
0
  9
$CELTYPE
  6
CONTINUOUS
  9
$CECOLOR
 62
   256
  9
$DIMSCALE
 40
2.0
  9
$DIMASZ
 40
2.5
  9
$DIMEXO
 40
2.0
  9
$DIMDLI
 40
6.0
  9
$DIMRND
 40
0.0
  9
$DIMDLE
 40
2.0
  9
$DIMEXE
 40
2.0
  9
$DIMTP
 40
0.0
  9
$DIMTM
 40
0.0
  9
$DIMTXT
 40
2.5
  9
$DIMCEN
 40
2.0
  9
$DIMTSZ
 40
0.0
  9
$DIMTOL
 70
     0
  9
$DIMLIM
 70
     0
  9
$DIMTIH
 70
     0
  9
$DIMTOH
 70
     0
  9
$DIMSE1
 70
     0
  9
$DIMSE2
 70
     0
  9
$DIMTAD
 70
     1
  9
$DIMZIN
 70
     0
  9
$DIMBLK
  1
ARCHTICK
  9
$DIMASO
 70
     1
  9
$DIMSHO
 70
     1
  9
$DIMPOST
  1
mm
  9
$DIMAPOST
  1

  9
$DIMALT
 70
     0
  9
$DIMALTD
 70
     2
  9
$DIMALTF
 40
0.0394
  9
$DIMLFAC
 40
1.0
  9
$DIMTOFL
 70
     0
  9
$DIMTVP
 40
0.0
  9
$DIMTIX
 70
     0
  9
$DIMSOXD
 70
     0
  9
$DIMSAH
 70
     0
  9
$DIMBLK1
  1

  9
$DIMBLK2
  1

  9
$DIMSTYLE
  2
1_TO_2
  9
$DIMCLRD
 70
   256
  9
$DIMCLRE
 70
   256
  9
$DIMCLRT
 70
   256
  9
$DIMTFAC
 40
1.0
  9
$DIMGAP
 40
1.0
  9
$LUNITS
 70
     2
  9
$LUPREC
 70
     1
  9
$SKETCHINC
 40
0.1
  9
$FILLETRAD
 40
2.0
  9
$AUNITS
 70
     1
  9
$AUPREC
 70
     4
  9
$MENU
  1
.
  9
$ELEVATION
 40
0.0
  9
$PELEVATION
 40
0.0
  9
$THICKNESS
 40
0.0
  9
$LIMCHECK
 70
     0
  9
$BLIPMODE
 70
     0
  9
$CHAMFERA
 40
0.0
  9
$CHAMFERB
 40
0.0
  9
$SKPOLY
 70
     0
  9
$TDCREATE
 40
2452152.65359294
  9
$TDUPDATE
 40
2455936.5023231711
  9
$TDINDWG
 40
10.1520798148
  9
$TDUSRTIMER
 40
10.1520798148
  9
$USRTIMER
 70
     1
  9
$ANGBASE
 50
0.0
  9
$ANGDIR
 70
     0
  9
$PDMODE
 70
     3
  9
$PDSIZE
 40
0.0
  9
$PLINEWID
 40
0.0
  9
$COORDS
 70
     1
  9
$SPLFRAME
 70
     0
  9
$SPLINETYPE
 70
     6
  9
$SPLINESEGS
 70
     8
  9
$ATTDIA
 70
     0
  9
$ATTREQ
 70
     1
  9
$HANDLING
 70
     1
  9
$HANDSEED
  5
14C2
  9
$SURFTAB1
 70
     6
  9
$SURFTAB2
 70
     6
  9
$SURFTYPE
 70
     6
  9
$SURFU
 70
     6
  9
$SURFV
 70
     6
  9
$UCSNAME
  2

  9
$UCSORG
 10
0.0
 20
0.0
 30
0.0
  9
$UCSXDIR
 10
1.0
 20
0.0
 30
0.0
  9
$UCSYDIR
 10
0.0
 20
1.0
 30
0.0
  9
$PUCSNAME
  2

  9
$PUCSORG
 10
0.0
 20
0.0
 30
0.0
  9
$PUCSXDIR
 10
1.0
 20
0.0
 30
0.0
  9
$PUCSYDIR
 10
0.0
 20
1.0
 30
0.0
  9
$USERI1
 70
     0
  9
$USERI2
 70
     0
  9
$USERI3
 70
     0
  9
$USERI4
 70
     0
  9
$USERI5
 70
     0
  9
$USERR1
 40
0.0
  9
$USERR2
 40
0.0
  9
$USERR3
 40
0.0
  9
$USERR4
 40
0.0
  9
$USERR5
 40
0.0
  9
$WORLDVIEW
 70
     1
  9
$SHADEDGE
 70
     3
  9
$SHADEDIF
 70
    70
  9
$TILEMODE
 70
     1
  9
$MAXACTVP
 70
    48
  9
$PLIMCHECK
 70
     0
  9
$PEXTMIN
 10
0.0
 20
0.0
 30
0.0
  9
$PEXTMAX
 10
0.0
 20
0.0
 30
0.0
  9
$PLIMMIN
 10
0.0
 20
0.0
  9
$PLIMMAX
 10
12.0
 20
9.0
  9
$UNITMODE
 70
     0
  9
$VISRETAIN
 70
     1
  9
$PLINEGEN
 70
     1
  9
$PSLTSCALE
 70
     1
  0
ENDSEC
  0
SECTION
  2
TABLES
  0
TABLE
  2
VPORT
 70
     1
  0
VPORT
  2
*ACTIVE
 70
     0
 10
0.0
 20
0.0
 11
1.0
 21
1.0
 12
83.647066322663306
 22
3.824653279680347
 13
0.0
 23
0.0
 14
1.0
 24
1.0
 15
0.5
 25
0.5
 16
0.0
 26
0.0
 36
1.0
 17
0.0
 27
0.0
 37
0.0
 40
233.09380311122499
 41
1.908726178535606
 42
50.0
 43
0.0
 44
0.0
 50
0.0
 51
0.0
 71
     0
 72
 20000
 73
     1
 74
     3
 75
     0
 76
     0
 77
     0
 78
     0
  0
ENDTAB
  0
TABLE
  2
LTYPE
 70
     1
  0
LTYPE
  2
CONTINUOUS
 70
     0
  3
Solid line
 72
    65
 73
     0
 40
0.0
  0
ENDTAB
  0
TABLE
  2
LAYER
 70
    15
  0
LAYER
  2
0
 70
     0
 62
     7
  6
CONTINUOUS
  0
LAYER
  2
DEFPOINTS
 70
     0
 62
   211
  6
CONTINUOUS
  0
ENDTAB
  0
TABLE
  2
STYLE
 70
     5
  0
STYLE
  2
STANDARD
 70
     0
 40
0.0
 41
1.0
 50
0.0
 71
     0
 42
1.5
  3
romans.shx
  4

  0
STYLE
  2
ARIAL
 70
     0
 40
0.0
 41
1.0
 50
0.0
 71
     0
 42
5.0
  3
txt
  4

  0
STYLE
  2
$0$ARIAL
 70
     0
 40
0.0
 41
1.0
 50
0.0
 71
     0
 42
5.0
  3
txt
  4

  0
STYLE
  2
COMM-26_TILT_WALL$0$ARIAL
 70
     0
 40
0.0
 41
1.0
 50
0.0
 71
     0
 42
5.0
  3
txt
  4

  0
ENDTAB
  0
TABLE
  2
VIEW
 70
     2
  0
VIEW
  2
COMM-04
 70
     1
 40
477.26027331217421
 10
194.21746115522001
 20
180.60494410563541
 41
755.81685306636155
 11
0.0
 21
0.0
 31
1.0
 12
0.0
 22
0.0
 32
0.0
 42
50.0
 43
0.0
 44
0.0
 50
0.0
 71
     0
  0
ENDTAB
  0
TABLE
  2
UCS
 70
     0
  0
ENDTAB
  0
TABLE
  2
APPID
 70
    28
  0
APPID
  2
ACAD
 70
     0
  0
APPID
  2
RAK
 70
     0
  0
APPID
  2
ACAD_EXEMPT_FROM_CAD_STANDARDS
 70
     0
  0
APPID
  2
ACAD_MLEADERVER
 70
     0
  0
APPID
  2
GENIUS_GENOREF_13
 70
     0
  0
APPID
  2
ACAD_DSTYLE_DIMEXT_ENABLED
 70
     0
  0
APPID
  2
ACAD_DSTYLE_DIMEXT_LENGTH
 70
     0
  0
APPID
  2
ACAD_PSEXT
 70
     0
  0
APPID
  2
ACADANNOTATIVE
 70
     0
  0
APPID
  2
ACDBBLOCKREPETAG
 70
     0
  0
APPID
  2
ACDBDYNAMICBLOCKGUID
 70
     0
  0
APPID
  2
ACAUTHENVIRON
 70
     0
  0
APPID
  2
ACDBDYNAMICBLOCKTRUENAME
 70
     0
  0
APPID
  2
GENIUS_GENODEF_13
 70
     0
  0
APPID
  2
GENIUS_GENSCREG_15
 70
     0
  0
APPID
  2
GENIUS_GENOBJ-N-SDF_13
 70
     0
  0
APPID
  2
GENIUS_GENCFG_13
 70
     0
  0
APPID
  2
GENIUS_GENCFG0_13
 70
     0
  0
APPID
  2
ACAECLAYERSTANDARD
 70
     0
  0
APPID
  2
ACCMTRANSPARENCY
 70
     0
  0
APPID
  2
ACADANNOPO
 70
     0
  0
APPID
  2
ADESKUNDERLAYLAYEROVERRIDEDATA
 70
     0
  0
APPID
  2
URBANX
 70
     0
  0
APPID
  2
GRADIENTCOLOR1ACI
 70
     0
  0
APPID
  2
GRADIENTCOLOR2ACI
 70
     0
  0
APPID
  2
ACAD_NAV_VCDISPLAY
 70
     0
  0
APPID
  2
ACAD_DSTYLE_DIMJOGGED_JOGA
 70
     0
  0
APPID
  2
PE_URL
 70
     0
  0
ENDTAB
  0
TABLE
  2
DIMSTYLE
 70
     4
  0
DIMSTYLE
  2
1_TO_2
 70
     0
  3
mm
  4

  5
ARCHTICK
  6

  7

 40
2.0
 41
2.5
 42
2.0
 43
6.0
 44
2.0
 45
0.0
 46
2.0
 47
0.0
 48
0.0
140
2.5
141
2.0
142
0.0
143
0.0394
144
1.0
145
0.0
146
1.0
147
1.0
 71
     0
 72
     0
 73
     0
 74
     0
 75
     0
 76
     0
 77
     1
 78
     0
170
     0
171
     2
172
     0
173
     0
174
     0
175
     0
176
   256
177
   256
178
   256
  0
DIMSTYLE
  2
$0$1_TO_2_LEADER
 70
     0
  3

  4

  5
$0$_ARCHTICK
  6

  7

 40
2.0
 41
2.0
 42
2.0
 43
6.0
 44
1.5
 45
0.0
 46
1.5
 47
0.0
 48
0.0
140
2.0
141
2.0
142
0.0
143
0.0394
144
1.0
145
0.0
146
1.0
147
1.0
 71
     0
 72
     0
 73
     0
 74
     0
 75
     0
 76
     0
 77
     0
 78
     0
170
     0
171
     2
172
     1
173
     0
174
     1
175
     0
176
     0
177
     0
178
     0
  0
DIMSTYLE
  2
COMM-26_TILT_WALL$0$1_TO_2
 70
     0
  3

  4

  5
COMM-26_TILT_WALL$0$_ARCHT
  6

  7

 40
2.0
 41
2.0
 42
2.0
 43
6.0
 44
2.0
 45
0.0
 46
2.0
 47
0.0
 48
0.0
140
2.0
141
2.0
142
0.0
143
0.0394
144
1.0
145
0.0
146
1.0
147
1.0
 71
     0
 72
     0
 73
     0
 74
     0
 75
     0
 76
     0
 77
     1
 78
     0
170
     0
171
     2
172
     0
173
     0
174
     0
175
     0
176
   256
177
   256
178
   256
  0
DIMSTYLE
  2
COMM-26_TILT_WALL$0$1_TO_0
 70
     0
  3

  4

  5
COMM-26_TILT_WALL$0$_ARCHT
  6

  7

 40
2.0
 41
2.0
 42
2.0
 43
6.0
 44
1.5
 45
0.0
 46
1.5
 47
0.0
 48
0.0
140
2.0
141
2.0
142
0.0
143
0.0394
144
1.0
145
0.0
146
1.0
147
1.0
 71
     0
 72
     0
 73
     0
 74
     0
 75
     0
 76
     0
 77
     0
 78
     0
170
     0
171
     2
172
     1
173
     0
174
     1
175
     0
176
     0
177
     0
178
     0
  0
ENDTAB
  0
ENDSEC
  0
SECTION
  2
BLOCKS
  0
BLOCK
  8
0
  2
$MODEL_SPACE
 70
     0
 10
0.0
 20
0.0
 30
0.0
  3
$MODEL_SPACE
  1

  0
ENDBLK
  5
C
  8
0
  0
BLOCK
 67
     1
  8
0
  2
$PAPER_SPACE
 70
     0
 10
0.0
 20
0.0
 30
0.0
  3
$PAPER_SPACE
  1

  0
ENDBLK
  5
1286
 67
     1
  8
0
  0
BLOCK
  8
0
  2
_ARCHTICK
 70
     0
 10
0.0
 20
0.0
 30
0.0
  3
_ARCHTICK
  1

  0
POLYLINE
  5
7DE
  8
0
  6
BYBLOCK
 62
     0
 66
     1
 10
0.0
 20
0.0
 30
0.0
 40
0.15
 41
0.15
  0
VERTEX
  5
13AD
  8
0
  6
BYBLOCK
 62
     0
 10
-0.5
 20
-0.5
 30
0.0
  0
VERTEX
  5
13AE
  8
0
  6
BYBLOCK
 62
     0
 10
0.5
 20
0.5
 30
0.0
  0
SEQEND
  5
13AF
  8
0
  6
BYBLOCK
 62
     0
  0
ENDBLK
  5
7E0
  8
0
  0
BLOCK
  8
0
  2
$0$_ARCHTICK
 70
     0
 10
0.0
 20
0.0
 30
0.0
  3
$0$_ARCHTICK
  1

  0
POLYLINE
  5
D0A
  8
0
  6
BYBLOCK
 62
     0
 66
     1
 10
0.0
 20
0.0
 30
0.0
 40
0.15
 41
0.15
  0
VERTEX
  5
13BB
  8
0
  6
BYBLOCK
 62
     0
 10
-0.5
 20
-0.5
 30
0.0
  0
VERTEX
  5
13BC
  8
0
  6
BYBLOCK
 62
     0
 10
0.5
 20
0.5
 30
0.0
  0
SEQEND
  5
13BD
  8
0
  6
BYBLOCK
 62
     0
  0
ENDBLK
  5
D0B
  8
0
  0
BLOCK
  8
0
  2
COMM-26_TILT_WALL$0$_ARCHT
 70
     0
 10
0.0
 20
0.0
 30
0.0
  3
COMM-26_TILT_WALL$0$_ARCHT
  1

  0
POLYLINE
  5
1195
  8
0
  6
BYBLOCK
 62
     0
 66
     1
 10
0.0
 20
0.0
 30
0.0
 40
0.15
 41
0.15
  0
VERTEX
  5
1400
  8
0
  6
BYBLOCK
 62
     0
 10
-0.5
 20
-0.5
 30
0.0
  0
VERTEX
  5
1401
  8
0
  6
BYBLOCK
 62
     0
 10
0.5
 20
0.5
 30
0.0
  0
SEQEND
  5
1402
  8
0
  6
BYBLOCK
 62
     0
  0
ENDBLK
  5
1196
  8
0
  0
BLOCK
  8
0
  2
*D16
 70
     1
 10
0.0
 20
0.0
 30
0.0
  3
*D16
  1

  0
LINE
  5
1293
  8
0
 10
1.0000000000000031
 20
64.231795606224964
 30
0.0
 11
1.000000000000004
 21
78.231795606224978
 31
0.0
  0
LINE
  5
1294
  8
0
 10
-17.355592810346021
 20
64.231795606224964
 30
0.0
 11
-17.355592810346021
 21
78.231795606224978
 31
0.0
  0
LINE
  5
1295
  8
0
 10
5.0000000000000044
 20
74.231795606224964
 30
0.0
 11
-21.355592810346021
 21
74.231795606224964
 31
0.0
  0
LINE
  5
1296
  8
0
 10
-8.1777964051730088
 20
74.231795606224964
 30
0.0
 11
-4.4626531582425857
 21
86.615606429326405
 31
0.0
  0
LINE
  5
1297
  8
0
 10
-4.4626531582425857
 20
86.615606429326405
 30
0.0
 11
26.967087633026178
 21
86.615606429326405
 31
0.0
  0
INSERT
  5
1298
  8
0
  6
CONTINUOUS
  2
*U33
 10
0.0
 20
0.0
 30
0.0
  0
INSERT
  5
1299
  8
0
  2
COMM-26_TILT_WALL$0$_ARCHT
 10
1.000000000000004
 20
74.231795606224964
 30
0.0
 41
4.0
 42
4.0
 43
4.0
  0
INSERT
  5
129A
  8
0
  2
COMM-26_TILT_WALL$0$_ARCHT
 10
-17.355592810346021
 20
74.231795606224964
 30
0.0
 41
4.0
 42
4.0
 43
4.0
 50
180.0
  0
POINT
  5
129B
  8
DEFPOINTS
 62
     0
 10
1.0
 20
-2.9999999999997549
 30
0.0
  0
POINT
  5
129C
  8
DEFPOINTS
 62
     0
 10
-17.355592810346021
 20
-4.9999999999997531
 30
0.0
  0
POINT
  5
129D
  8
DEFPOINTS
 62
     0
 10
-17.355592810346021
 20
74.231795606224964
 30
0.0
  0
ENDBLK
  5
124F
  8
0
  0
BLOCK
  8
0
  2
*D17
 70
     1
 10
0.0
 20
0.0
 30
0.0
  3
*D17
  1

  0
LINE
  5
1288
  8
0
 10
-20.355592810346032
 20
-3.999999999999742
 30
0.0
 11
-30.321545296375231
 21
-3.9999999999997402
 31
0.0
  0
LINE
  5
1289
  8
0
 10
-20.355592810346032
 20
6.0000000000002407
 30
0.0
 11
-30.321545296375231
 21
6.0000000000002451
 31
0.0
  0
LINE
  5
128A
  8
0
 10
-26.321545296375231
 20
-7.9999999999997407
 30
0.0
 11
-26.321545296375231
 21
10.00000000000024
 31
0.0
  0
LINE
  5
128B
  8
0
 10
-26.321545296375231
 20
1.0000000000002509
 30
0.0
 11
-35.363837247261998
 21
3.7126875852662828
 31
0.0
  0
LINE
  5
128C
  8
0
 10
-35.363837247261998
 20
3.7126875852662828
 30
0.0
 11
-35.363837247261991
 21
34.697680763983882
 31
0.0
  0
INSERT
  5
128D
  8
0
  6
CONTINUOUS
  2
*U32
 10
0.0
 20
0.0
 30
0.0
  0
INSERT
  5
128E
  8
0
  2
COMM-26_TILT_WALL$0$_ARCHT
 10
-26.321545296375231
 20
-3.9999999999997411
 30
0.0
 41
4.0
 42
4.0
 43
4.0
 50
270.0
  0
INSERT
  5
128F
  8
0
  2
COMM-26_TILT_WALL$0$_ARCHT
 10
-26.321545296375231
 20
6.0000000000002442
 30
0.0
 41
4.0
 42
4.0
 43
4.0
 50
90.0
  0
POINT
  5
1290
  8
DEFPOINTS
 62
     0
 10
-16.355592810346032
 20
-3.9999999999997442
 30
0.0
  0
POINT
  5
1291
  8
DEFPOINTS
 62
     0
 10
-16.355592810346032
 20
6.0000000000002398
 30
0.0
  0
POINT
  5
1292
  8
DEFPOINTS
 62
     0
 10
-26.321545296375231
 20
6.0000000000002442
 30
0.0
  0
ENDBLK
  5
125D
  8
0
  0
BLOCK
  8
0
  2
*U19
 70
     1
 10
0.0
 20
0.0
 30
0.0
  3
*U19
  1

  0
SOLID
  5
13BF
  8
0
 10
147.4148941969205
 20
1.0605793123031051
 30
0.0
 11
145.16773087833991
 21
-2.3150245542769592
 31
0.0
 12
146.19863546621451
 22
1.6069239633789709
 32
0.0
 13
146.19863546621451
 23
1.6069239633789709
 33
0.0
  0
POLYLINE
  5
13C0
  8
0
 66
     1
 10
0.0
 20
0.0
 30
0.0
  0
VERTEX
  5
13C1
  8
0
 10
146.80676483156751
 20
1.3337516378410379
 30
0.0
  0
VERTEX
  5
13C2
  8
0
 10
171.0595360587281
 20
55.324661388238283
 30
0.0
  0
VERTEX
  5
13C3
  8
0
 10
175.0595360587281
 20
55.324661388238283
 30
0.0
  0
SEQEND
  5
13C4
  8
0
  0
ENDBLK
  5
13C6
  8
0
  0
BLOCK
  8
0
  2
*U20
 70
     1
 10
0.0
 20
0.0
 30
0.0
  3
*U20
  1

  0
TEXT
  5
13C8
  8
0
  6
CONTINUOUS
 10
176.80851286636789
 20
53.756448564227362
 30
0.0
 40
4.0
  1
Steel & Tube Plumbdek
  7
$0$ARIAL
  0
TEXT
  5
13C9
  8
0
  6
CONTINUOUS
 10
176.69118680906911
 20
47.021569073549777
 30
0.0
 40
4.0
  1
profile roofing
  7
$0$ARIAL
  0
ENDBLK
  5
13CB
  8
0
  0
BLOCK
  8
0
  2
*U21
 70
     1
 10
0.0
 20
0.0
 30
0.0
  3
*U21
  1

  0
SOLID
  5
13CD
  8
0
 10
116.9518240394283
 20
11.44708294447544
 30
0.0
 11
114.52154370618899
 21
8.2008263393508969
 31
0.0
 12
115.7676175548885
 22
12.05980864146524
 32
0.0
 13
115.7676175548885
 23
12.05980864146524
 33
0.0
  0
POLYLINE
  5
13CE
  8
0
 66
     1
 10
0.0
 20
0.0
 30
0.0
  0
VERTEX
  5
13CF
  8
0
 10
116.3597207971584
 20
11.753445792970339
 30
0.0
  0
VERTEX
  5
13D0
  8
0
 10
137.47786856460559
 20
52.568198055755488
 30
0.0
  0
VERTEX
  5
13D1
  8
0
 10
141.47786856460559
 20
52.568198055755488
 30
0.0
  0
SEQEND
  5
13D2
  8
0
  0
ENDBLK
  5
13D4
  8
0
  0
BLOCK
  8
0
  2
*U22
 70
     1
 10
0.0
 20
0.0
 30
0.0
  3
*U22
  1

  0
TEXT
  5
13D6
  8
0
  6
CONTINUOUS
 10
143.03857797797531
 20
51.068198055755488
 30
0.0
 40
4.0
  1
Rivet
  7
$0$ARIAL
  0
ENDBLK
  5
13D8
  8
0
  0
BLOCK
  8
0
  2
*U23
 70
     1
 10
0.0
 20
0.0
 30
0.0
  3
*U23
  1

  0
SOLID
  5
145E
  8
0
 10
-3.8302183687743101
 20
31.593210562741099
 30
0.0
 11
-6.355592810346022
 21
28.420368244834211
 31
0.0
 12
-4.9957550362885321
 22
32.240745932012643
 32
0.0
 13
-4.9957550362885321
 23
32.240745932012643
 33
0.0
  0
POLYLINE
  5
145F
  8
0
 66
     1
 10
0.0
 20
0.0
 30
0.0
  0
VERTEX
  5
1460
  8
0
 10
-4.4129867025314207
 20
31.916978247376871
 30
0.0
  0
VERTEX
  5
1461
  8
0
 10
15.99082761656029
 20
68.642993341821466
 30
0.0
  0
VERTEX
  5
1462
  8
0
 10
19.990827616560289
 20
68.642993341821466
 30
0.0
  0
SEQEND
  5
1463
  8
0
  0
ENDBLK
  5
1465
  8
0
  0
BLOCK
  8
0
  2
*U24
 70
     1
 10
0.0
 20
0.0
 30
0.0
  3
*U24
  1

  0
TEXT
  5
1467
  8
0
  6
CONTINUOUS
 10
21.859858994459341
 20
67.142993341821466
 30
0.0
 40
4.0
  1
Timber spacer to maintain
  7
COMM-26_TILT_WALL$0$ARIAL
  0
TEXT
  5
1468
  8
0
  6
CONTINUOUS
 10
21.974456538797678
 20
60.476326675154787
 30
0.0
 40
4.0
  1
width and depth
  7
COMM-26_TILT_WALL$0$ARIAL
  0
ENDBLK
  5
146A
  8
0
  0
BLOCK
  8
0
  2
*U25
 70
     1
 10
0.0
 20
0.0
 30
0.0
  3
*U25
  1

  0
SOLID
  5
146C
  8
0
 10
-10.360186521667019
 20
2.9452060178647241
 30
0.0
 11
-10.304596892400919
 21
7.000000000000254
 31
0.0
 12
-9.0421133583113882
 22
3.1463550020019628
 32
0.0
 13
-9.0421133583113882
 23
3.1463550020019628
 33
0.0
  0
POLYLINE
  5
146D
  8
0
 66
     1
 10
0.0
 20
0.0
 30
0.0
  0
VERTEX
  5
146E
  8
0
 10
-9.7011499399892056
 20
3.0457805099333441
 30
0.0
  0
VERTEX
  5
146F
  8
0
 10
1.0996625322677229
 20
-67.7289297038933
 30
0.0
  0
VERTEX
  5
1470
  8
0
 10
5.0996625322677227
 20
-67.7289297038933
 30
0.0
  0
SEQEND
  5
1471
  8
0
  0
ENDBLK
  5
1473
  8
0
  0
BLOCK
  8
0
  2
*U26
 70
     1
 10
0.0
 20
0.0
 30
0.0
  3
*U26
  1

  0
TEXT
  5
1475
  8
0
  6
CONTINUOUS
 10
6.6521864067561269
 20
-69.295002145912392
 30
0.0
 40
4.0
  1
Holdfast
  7
COMM-26_TILT_WALL$0$ARIAL
  0
TEXT
  5
1476
  8
0
  6
CONTINUOUS
 10
27.145298821490101
 20
-66.789602145912383
 30
0.0
 40
3.0323999999999991
  1
®
  7
COMM-26_TILT_WALL$0$ARIAL
  0
TEXT
  5
1477
  8
0
  6
CONTINUOUS
 10
27.151504278516018
 20
-67.8004021459124
 30
0.0
 40
3.0323999999999991
  1

  7
COMM-26_TILT_WALL$0$ARIAL
  0
TEXT
  5
1478
  8
0
  6
CONTINUOUS
 10
30.4755607587343
 20
-69.295021565912393
 30
0.0
 40
4.0000388400000002
  1
 Gator Yellow Bond Breaker tape
  7
COMM-26_TILT_WALL$0$ARIAL
  0
TEXT
  5
1479
  8
0
  6
CONTINUOUS
 10
6.7613236399348438
 20
-75.998007226762795
 30
0.0
 40
4.0000388400000002
  1
(Note: only between HF Fixall and timber - not at sides)
  7
COMM-26_TILT_WALL$0$ARIAL
  0
ENDBLK
  5
147B
  8
0
  0
BLOCK
  8
0
  2
*U27
 70
     1
 10
0.0
 20
0.0
 30
0.0
  3
*U27
  1

  0
SOLID
  5
147D
  8
0
 10
83.18408876073903
 20
-8.7567032511429108
 30
0.0
 11
81.657122773136507
 21
-4.9999999999997637
 31
0.0
 12
84.319940302320447
 22
-8.0584059983451635
 32
0.0
 13
84.319940302320447
 23
-8.0584059983451635
 33
0.0
  0
POLYLINE
  5
147E
  8
0
 66
     1
 10
0.0
 20
0.0
 30
0.0
  0
VERTEX
  5
147F
  8
0
 10
83.752014531529753
 20
-8.4075546247440371
 30
0.0
  0
VERTEX
  5
1480
  8
0
 10
104.7113213380803
 20
-42.5
 30
0.0
  0
VERTEX
  5
1481
  8
0
 10
108.7113213380803
 20
-42.5
 30
0.0
  0
SEQEND
  5
1482
  8
0
  0
ENDBLK
  5
1484
  8
0
  0
BLOCK
  8
0
  2
*U28
 70
     1
 10
0.0
 20
0.0
 30
0.0
  3
*U28
  1

  0
TEXT
  5
1486
  8
0
  6
CONTINUOUS
 10
110.252931160727
 20
-44.034106412005457
 30
0.0
 40
4.0
  1
Face flashing
  7
COMM-26_TILT_WALL$0$ARIAL
  0
ENDBLK
  5
1488
  8
0
  0
BLOCK
  8
0
  2
*U29
 70
     1
 10
0.0
 20
0.0
 30
0.0
  3
*U29
  1

  0
TEXT
  5
148A
  8
0
  6
CONTINUOUS
 10
32.203292605414269
 20
-110.24242093440451
 30
0.0
 40
6.0
  1
Exterior
  7
COMM-26_TILT_WALL$0$ARIAL
  0
ENDBLK
  5
148C
  8
0
  0
BLOCK
  8
0
  2
*U30
 70
     1
 10
0.0
 20
0.0
 30
0.0
  3
*U30
  1

  0
SOLID
  5
148E
  8
0
 10
-14.375698581287381
 20
-4.0732154951353552
 30
0.0
 11
-12.44310582473315
 21
-0.5081727630270052
 31
0.0
 12
-13.115004032681741
 22
-4.5072973225524908
 32
0.0
 13
-13.115004032681741
 23
-4.5072973225524908
 33
0.0
  0
POLYLINE
  5
148F
  8
0
 66
     1
 10
0.0
 20
0.0
 30
0.0
  0
VERTEX
  5
1490
  8
0
 10
-13.74535130698456
 20
-4.2902564088439226
 30
0.0
  0
VERTEX
  5
1491
  8
0
 10
-26.353880075992041
 20
-40.90893630061948
 30
0.0
  0
VERTEX
  5
1492
  8
0
 10
-30.353880075992041
 20
-40.90893630061948
 30
0.0
  0
SEQEND
  5
1493
  8
0
  0
ENDBLK
  5
1495
  8
0
  0
BLOCK
  8
0
  2
*U31
 70
     1
 10
0.0
 20
0.0
 30
0.0
  3
*U31
  1

  0
TEXT
  5
1497
  8
0
  6
CONTINUOUS
 10
-108.52850490546
 20
-38.120168678973293
 30
0.0
 40
4.0
  1
10mm deep x 10 0 25mm wide
  7
COMM-26_TILT_WALL$0$ARIAL
  0
TEXT
  5
1498
  8
0
  6
CONTINUOUS
 10
-111.6381852863604
 20
-44.861093326540363
 30
0.0
 40
4.0
  1
Holdfast
  7
COMM-26_TILT_WALL$0$ARIAL
  0
TEXT
  5
1499
  8
0
  6
CONTINUOUS
 10
-91.145072871626425
 20
-42.355693326540361
 30
0.0
 40
3.0323999999999991
  1
®
  7
COMM-26_TILT_WALL$0$ARIAL
  0
TEXT
  5
149A
  8
0
  6
CONTINUOUS
 10
-91.138867414600483
 20
-43.366493326540358
 30
0.0
 40
3.0323999999999991
  1

  7
COMM-26_TILT_WALL$0$ARIAL
  0
TEXT
  5
149B
  8
0
  6
CONTINUOUS
 10
-87.814810934382209
 20
-44.277224126540361
 30
0.0
 40
2.8322615999999998
  1
 
  7
COMM-26_TILT_WALL$0$ARIAL
  0
TEXT
  5
149C
  8
0
  6
CONTINUOUS
 10
-85.252288534382217
 20
-44.861093326540363
 30
0.0
 40
4.0
  1
FIX ALL
  7
COMM-26_TILT_WALL$0$ARIAL
  0
TEXT
  5
149D
  8
0
  6
CONTINUOUS
 10
-65.070226597138003
 20
-42.355693326540361
 30
0.0
 40
3.0323999999999991
  1
®
  7
COMM-26_TILT_WALL$0$ARIAL
  0
TEXT
  5
149E
  8
0
  6
CONTINUOUS
 10
-65.064021140112075
 20
-43.366493326540358
 30
0.0
 40
3.0323999999999991
  1

  7
COMM-26_TILT_WALL$0$ARIAL
  0
TEXT
  5
149F
  8
0
  6
CONTINUOUS
 10
-61.739964659893808
 20
-44.861093326540363
 30
0.0
 40
4.0
  1
  220LM MS
  7
COMM-26_TILT_WALL$0$ARIAL
  0
TEXT
  5
14A0
  8
0
  6
CONTINUOUS
 10
-62.135599039157121
 20
-51.529900375198842
 30
0.0
 40
4.0
  1
joint sealant
  7
COMM-26_TILT_WALL$0$ARIAL
  0
ENDBLK
  5
14A2
  8
0
  0
BLOCK
  8
0
  2
*U32
 70
     1
 10
0.0
 20
0.0
 30
0.0
  3
*U32
  1

  0
TEXT
  5
14BA
  8
0
  6
CONTINUOUS
 10
-37.440235610154211
 20
5.1042291950889247
 30
0.0
 40
4.0
  1
10mm max
 50
90.0
  7
COMM-26_TILT_WALL$0$ARIAL
  0
ENDBLK
  5
14BC
  8
0
  0
BLOCK
  8
0
  2
*U33
 70
     1
 10
0.0
 20
0.0
 30
0.0
  3
*U33
  1

  0
TEXT
  5
14BE
  8
0
  6
CONTINUOUS
 10
-1.900579488392653
 20
95.375042536647896
 30
0.0
 40
4.0
  1
10mm min
  7
COMM-26_TILT_WALL$0$ARIAL
  0
TEXT
  5
14BF
  8
0
  6
CONTINUOUS
 10
-2.6263639358687798
 20
88.692004792218626
 30
0.0
 40
4.0
  1
25mm max
  7
COMM-26_TILT_WALL$0$ARIAL
  0
ENDBLK
  5
14C1
  8
0
  0
ENDSEC
  0
SECTION
  2
ENTITIES
  0
POLYLINE
  5
CE3
  8
0
 66
     1
 10
0.0
 20
0.0
 30
0.0
 70
   128
 40
0.5
 41
0.5
  0
VERTEX
  5
13B0
  8
0
 10
224.3396480040096
 20
17.383923566349381
 30
0.0
  0
VERTEX
  5
13B1
  8
0
 10
208.72262966939721
 20
-4.1733440667147246
 30
0.0
 42
-0.2404424387261004
  0
VERTEX
  5
13B2
  8
0
 10
207.10298041690311
 20
-4.9999999999997708
 30
0.0
  0
VERTEX
  5
13B3
  8
0
 10
4.0
 20
-4.999999999999754
 30
0.0
 42
-0.4142135623730951
  0
VERTEX
  5
13B4
  8
0
 10
2.0
 20
-2.999999999999754
 30
0.0
  0
VERTEX
  5
13B5
  8
0
 10
2.0000000000000009
 20
27.500000000000249
 30
0.0
 42
0.4142135623730951
  0
VERTEX
  5
13B6
  8
0
 10
1.0000000000000011
 20
28.500000000000249
 30
0.0
  0
VERTEX
  5
13B7
  8
0
 10
1.0000000000000011
 20
28.500000000000249
 30
0.0
 42
0.4142135623730951
  0
VERTEX
  5
13B8
  8
0
 10
0.0000000000000018
 20
27.500000000000249
 30
0.0
  0
VERTEX
  5
13B9
  8
0
 10
0.0
 20
18.500000000000249
 30
0.0
  0
SEQEND
  5
13BA
  8
0
  0
INSERT
  5
D10
  8
0
  6
CONTINUOUS
  2
*U19
 10
0.0
 20
0.0
 30
0.0
1001
ACAD
1000
DSTYLE
1002
{
1070
   147
1040
1.0
1070
    77
1070
     0
1002
}
  0
INSERT
  5
D11
  8
0
  6
CONTINUOUS
  2
*U20
 10
0.0
 20
0.0
 30
0.0
  0
INSERT
  5
E26
  8
0
  6
CONTINUOUS
  2
*U21
 10
0.0
 20
0.0
 30
0.0
1001
ACAD
1000
DSTYLE
1002
{
1070
   147
1040
1.0
1070
    77
1070
     0
1002
}
  0
INSERT
  5
E27
  8
0
  6
CONTINUOUS
  2
*U22
 10
0.0
 20
0.0
 30
0.0
  0
POLYLINE
  5
E7F
  8
0
  6
CONTINUOUS
 66
     1
 10
0.0
 20
0.0
 30
0.0
 70
   128
  0
VERTEX
  5
13D9
  8
0
  6
CONTINUOUS
 10
270.86068169916632
 20
119.6679883521342
 30
0.0
  0
VERTEX
  5
13DA
  8
0
  6
CONTINUOUS
 10
274.58198285927148
 20
48.423433376883331
 30
0.0
  0
VERTEX
  5
13DB
  8
0
  6
CONTINUOUS
 10
270.54461964354311
 20
46.710505868870221
 30
0.0
  0
VERTEX
  5
13DC
  8
0
  6
CONTINUOUS
 10
278.93231611295118
 20
44.144528965078813
 30
0.0
  0
VERTEX
  5
13DD
  8
0
  6
CONTINUOUS
 10
274.89495289722203
 20
42.43160145706571
 30
0.0
  0
VERTEX
  5
13DE
  8
0
  6
CONTINUOUS
 10
278.61625405732718
 20
-28.812953518185179
 30
0.0
  0
SEQEND
  5
13DF
  8
0
  6
CONTINUOUS
  0
POLYLINE
  5
1224
  8
0
 66
     1
 10
0.0
 20
0.0
 30
0.0
  0
VERTEX
  5
1403
  8
0
 10
277.23219356557422
 20
-2.315024554277179
 30
0.0
  0
VERTEX
  5
1404
  8
0
 10
266.00139992479978
 20
-2.3150245542773851
 30
0.0
 42
-0.2456346270178322
  0
VERTEX
  5
1405
  8
0
 10
263.25047024564901
 20
-0.876800142668742
 30
0.0
  0
VERTEX
  5
1406
  8
0
 10
247.85333173437701
 20
21.27875282173142
 30
0.0
 42
0.1872333579310325
  0
VERTEX
  5
1407
  8
0
 10
245.60364245283299
 20
22.795764716610002
 30
0.0
 42
0.1120160634806734
  0
VERTEX
  5
1408
  8
0
 10
223.47805277209449
 20
22.795764716610002
 30
0.0
 42
0.18723335793104
  0
VERTEX
  5
1409
  8
0
 10
221.22836349055081
 20
21.27875282173142
 30
0.0
  0
VERTEX
  5
140A
  8
0
 10
205.83122497927911
 20
-0.8768001426691967
 30
0.0
 42
-0.2456346270178383
  0
VERTEX
  5
140B
  8
0
 10
203.0802953001286
 20
-2.3150245542778398
 30
0.0
  0
VERTEX
  5
140C
  8
0
 10
178.40074680941129
 20
-2.315024554276476
 30
0.0
 42
-0.0874886635259302
  0
VERTEX
  5
140D
  8
0
 10
177.59699947259591
 20
-2.1733022131233488
 30
0.0
  0
VERTEX
  5
140E
  8
0
 10
174.2628258658458
 20
-0.9597622643900081
 30
0.0
 42
0.0874886635259251
  0
VERTEX
  5
140F
  8
0
 10
173.441977521864
 20
-0.8150245542764764
 30
0.0
  0
VERTEX
  5
1410
  8
0
 10
156.38971770306199
 20
-0.8150245542764764
 30
0.0
 42
0.0874886635259187
  0
VERTEX
  5
1411
  8
0
 10
155.5688693590804
 20
-0.9597622643900081
 30
0.0
  0
VERTEX
  5
1412
  8
0
 10
152.23469575233
 20
-2.1733022131233488
 30
0.0
 42
-0.0874886635259308
  0
VERTEX
  5
1413
  8
0
 10
151.43094841551471
 20
-2.315024554276476
 30
0.0
  0
VERTEX
  5
1414
  8
0
 10
126.4007468094113
 20
-2.315024554276476
 30
0.0
 42
-0.0874886635259302
  0
VERTEX
  5
1415
  8
0
 10
125.5969994725959
 20
-2.1733022131233488
 30
0.0
  0
VERTEX
  5
1416
  8
0
 10
122.2628258658458
 20
-0.9597622643900081
 30
0.0
 42
0.0874886635259251
  0
VERTEX
  5
1417
  8
0
 10
121.441977521864
 20
-0.8150245542764764
 30
0.0
  0
VERTEX
  5
1418
  8
0
 10
104.3897177030619
 20
-0.8150245542764764
 30
0.0
 42
0.0874886635259236
  0
VERTEX
  5
1419
  8
0
 10
103.5688693590804
 20
-0.9597622643900081
 30
0.0
  0
VERTEX
  5
141A
  8
0
 10
100.23469575233
 20
-2.1733022131233488
 30
0.0
 42
-0.0874886635259308
  0
VERTEX
  5
141B
  8
0
 10
99.430948415514763
 20
-2.315024554276476
 30
0.0
  0
VERTEX
  5
141C
  8
0
 10
74.751399924799216
 20
-2.3150245542769312
 30
0.0
 42
-0.2456346270178568
  0
VERTEX
  5
141D
  8
0
 10
72.000470245650035
 20
-0.8768001426691967
 30
0.0
  0
VERTEX
  5
141E
  8
0
 10
56.603331734376297
 20
21.278752821732329
 30
0.0
 42
0.1872333579310333
  0
VERTEX
  5
141F
  8
0
 10
54.353642452832453
 20
22.795764716610449
 30
0.0
 42
0.1120160634806734
  0
VERTEX
  5
1420
  8
0
 10
32.228052772094088
 20
22.795764716610449
 30
0.0
 42
0.1872333579310407
  0
VERTEX
  5
1421
  8
0
 10
29.97836349055012
 20
21.278752821731871
 30
0.0
  0
VERTEX
  5
1422
  8
0
 10
25.328932548613579
 20
14.58850233051095
 30
0.0
 42
0.1989123673796617
  0
VERTEX
  5
1423
  8
0
 10
24.937696130080671
 20
12.793770053667741
 30
0.0
  0
VERTEX
  5
1424
  8
0
 10
24.964939132529711
 20
12.642396077872551
 30
0.0
 42
-0.1989123673796777
  0
VERTEX
  5
1425
  8
0
 10
24.581853472716372
 20
10.88505405679558
 30
0.0
  0
VERTEX
  5
1426
  8
0
 10
23.016744953998121
 20
8.6329573664857548
 30
0.0
  0
VERTEX
  5
1427
  8
0
 10
23.34521416941902
 20
8.4046856544387651
 30
0.0
  0
VERTEX
  5
1428
  8
0
 10
24.910322688137398
 20
10.65678234474904
 30
0.0
 42
0.1989123673796777
  0
VERTEX
  5
1429
  8
0
 10
25.358614417706239
 20
12.71324641196594
 30
0.0
  0
VERTEX
  5
142A
  8
0
 10
25.331371415257198
 20
12.86462038776159
 30
0.0
 42
-0.1989123673796617
  0
VERTEX
  5
142B
  8
0
 10
25.657401764034489
 20
14.36023061846441
 30
0.0
  0
VERTEX
  5
142C
  8
0
 10
30.306832705972511
 20
21.05048110968443
 30
0.0
 42
-0.1872333579310353
  0
VERTEX
  5
142D
  8
0
 10
32.316555130816937
 20
22.40567840244336
 30
0.0
 42
-0.1120160634806734
  0
VERTEX
  5
142E
  8
0
 10
54.265140094109483
 20
22.40567840244336
 30
0.0
 42
-0.1872333579310278
  0
VERTEX
  5
142F
  8
0
 10
56.274862518955501
 20
21.050481109685329
 30
0.0
  0
VERTEX
  5
1430
  8
0
 10
71.672001030229126
 20
-1.105071854715731
 30
0.0
 42
0.245634627017865
  0
VERTEX
  5
1431
  8
0
 10
74.751399924799216
 20
-2.7150245542770222
 30
0.0
  0
VERTEX
  5
1432
  8
0
 10
99.430948415514763
 20
-2.715024554276567
 30
0.0
 42
0.0874886635259215
  0
VERTEX
  5
1433
  8
0
 10
100.3715038096603
 20
-2.5491792614379269
 30
0.0
  0
VERTEX
  5
1434
  8
0
 10
103.70567741641059
 20
-1.335639312704586
 30
0.0
 42
-0.0874886635259214
  0
VERTEX
  5
1435
  8
0
 10
104.3897177030619
 20
-1.215024554276567
 30
0.0
  0
VERTEX
  5
1436
  8
0
 10
121.4419775218641
 20
-1.215024554276567
 30
0.0
 42
-0.0874886635259214
  0
VERTEX
  5
1437
  8
0
 10
122.1260178085155
 20
-1.335639312704586
 30
0.0
  0
VERTEX
  5
1438
  8
0
 10
125.4601914152657
 20
-2.5491792614379269
 30
0.0
 42
0.0874886635259212
  0
VERTEX
  5
1439
  8
0
 10
126.4007468094113
 20
-2.715024554276567
 30
0.0
  0
VERTEX
  5
143A
  8
0
 10
151.43094841551471
 20
-2.715024554276567
 30
0.0
 42
0.0874886635259215
  0
VERTEX
  5
143B
  8
0
 10
152.37150380966031
 20
-2.5491792614379269
 30
0.0
  0
VERTEX
  5
143C
  8
0
 10
155.70567741641059
 20
-1.335639312704586
 30
0.0
 42
-0.0874886635259144
  0
VERTEX
  5
143D
  8
0
 10
156.38971770306199
 20
-1.215024554276567
 30
0.0
  0
VERTEX
  5
143E
  8
0
 10
173.44197752186409
 20
-1.215024554276567
 30
0.0
 42
-0.0874886635259214
  0
VERTEX
  5
143F
  8
0
 10
174.12601780851551
 20
-1.335639312704586
 30
0.0
  0
VERTEX
  5
1440
  8
0
 10
177.46019141526571
 20
-2.5491792614379269
 30
0.0
 42
0.0874886635259212
  0
VERTEX
  5
1441
  8
0
 10
178.40074680941129
 20
-2.715024554276567
 30
0.0
  0
VERTEX
  5
1442
  8
0
 10
203.0802953001286
 20
-2.7150245542779312
 30
0.0
 42
0.2456346270178568
  0
VERTEX
  5
1443
  8
0
 10
206.15969419469999
 20
-1.105071854715731
 30
0.0
  0
VERTEX
  5
1444
  8
0
 10
221.55683270597169
 20
21.050481109684881
 30
0.0
 42
-0.1872333579310353
  0
VERTEX
  5
1445
  8
0
 10
223.56655513081751
 20
22.405678402442899
 30
0.0
 42
-0.1120160634806734
  0
VERTEX
  5
1446
  8
0
 10
245.51514009411011
 20
22.405678402442899
 30
0.0
 42
-0.1872333579310278
  0
VERTEX
  5
1447
  8
0
 10
247.5248625189561
 20
21.050481109684881
 30
0.0
  0
VERTEX
  5
1448
  8
0
 10
262.9220010302281
 20
-1.105071854715276
 30
0.0
 42
0.2456346270178431
  0
VERTEX
  5
1449
  8
0
 10
266.00139992479978
 20
-2.715024554277476
 30
0.0
  0
VERTEX
  5
144A
  8
0
 10
277.25308667753978
 20
-2.7150245542772682
 30
0.0
  0
SEQEND
  5
144B
  8
0
  0
LINE
  5
1225
  8
0
  6
CONTINUOUS
 10
112.40508400400719
 20
-5.2954251513729096
 30
0.0
 11
112.4050840040077
 21
2.3058263393540979
 31
0.0
1001
GENIUS_GENOREF_13
1005
0
  0
LINE
  5
1226
  8
0
  6
CONTINUOUS
 10
116.0050840040076
 20
-5.2954251513729096
 30
0.0
 11
116.005084004008
 21
2.3058263393504599
 31
0.0
1001
GENIUS_GENOREF_13
1005
0
  0
ARC
  5
1227
  8
0
  6
CONTINUOUS
 10
116.4918340040076
 20
-6.4384251513729387
 30
0.0
 40
1.5720000000000021
 50
270.0
 51
0.0
1001
GENIUS_GENOREF_13
1005
0
  0
LINE
  5
1228
  8
0
  6
CONTINUOUS
 10
116.1213340040071
 20
-6.0454251513729096
 30
0.0
 11
118.0638340040073
 21
-6.0454251513729096
 31
0.0
1001
GENIUS_GENOREF_13
1005
0
  0
LINE
  5
1229
  8
0
  6
CONTINUOUS
 10
110.3463340040075
 20
-6.4384251513729387
 30
0.0
 11
118.0638340040073
 21
-6.4384251513729387
 31
0.0
1001
GENIUS_GENOREF_13
1005
0
  0
LINE
  5
122A
  8
0
  6
CONTINUOUS
 10
118.0638340040073
 20
-6.0454251513729096
 30
0.0
 11
118.0638340040073
 21
-6.4384251513729387
 31
0.0
1001
GENIUS_GENOREF_13
1005
0
  0
LINE
  5
122B
  8
0
  6
CONTINUOUS
 10
112.2888340040076
 20
-6.0454251513729096
 30
0.0
 11
116.1213340040071
 21
-6.0454251513729096
 31
0.0
1001
GENIUS_GENOREF_13
1005
0
  0
LINE
  5
122C
  8
0
  6
CONTINUOUS
 10
112.40508400400719
 20
-5.377925151373347
 30
0.0
 11
116.0050840040076
 21
-5.377925151373347
 31
0.0
1001
GENIUS_GENOREF_13
1005
0
  0
LINE
  5
122D
  8
0
  6
CONTINUOUS
 10
111.91833400400721
 20
-8.0104251513730542
 30
0.0
 11
114.2050840040074
 21
-8.0104251513730542
 31
0.0
1001
GENIUS_GENOREF_13
1005
0
  0
LINE
  5
122E
  8
0
  6
CONTINUOUS
 10
116.4918340040076
 20
-8.0104251513730542
 30
0.0
 11
114.2050840040074
 21
-8.0104251513730542
 31
0.0
1001
GENIUS_GENOREF_13
1005
0
  0
LINE
  5
122F
  8
0
  6
CONTINUOUS
 10
116.0050840040076
 20
-5.377925151373347
 30
0.0
 11
116.1213340040071
 21
-6.0454251513729096
 31
0.0
1001
GENIUS_GENOREF_13
1005
0
  0
ARC
  5
1230
  8
0
  6
CONTINUOUS
 10
111.91833400400721
 20
-6.4384251513729387
 30
0.0
 40
1.5720000000000021
 50
180.0
 51
270.0
1001
GENIUS_GENOREF_13
1005
0
  0
LINE
  5
1231
  8
0
  6
CONTINUOUS
 10
112.2888340040076
 20
-6.0454251513729096
 30
0.0
 11
110.3463340040075
 21
-6.0454251513729096
 31
0.0
1001
GENIUS_GENOREF_13
1005
0
  0
LINE
  5
1232
  8
0
  6
CONTINUOUS
 10
112.40508400400719
 20
-5.377925151373347
 30
0.0
 11
112.2888340040076
 21
-6.0454251513729096
 31
0.0
1001
GENIUS_GENOREF_13
1005
0
  0
ARC
  5
1233
  8
0
  6
CONTINUOUS
 10
109.57417948533021
 20
4.4653389349186901
 30
0.0
 40
7.7174999999999994
 50
343.7505244580608
 51
28.948820377006658
1001
GENIUS_GENOREF_13
1005
0
  0
ARC
  5
1234
  8
0
  6
CONTINUOUS
 10
118.83598852268371
 20
4.4653389349186901
 30
0.0
 40
7.7174999999999994
 50
151.0511796229932
 51
196.24947554193909
1001
GENIUS_GENOREF_13
1005
0
  0
LINE
  5
1235
  8
0
  6
CONTINUOUS
 10
111.4267840040082
 20
2.305826339345415
 30
0.0
 11
116.9833840040056
 21
2.305826339345415
 31
0.0
1001
GENIUS_GENOREF_13
1005
0
  0
LINE
  5
1236
  8
0
  6
CONTINUOUS
 10
112.0827715040072
 20
8.2008263393508969
 30
0.0
 11
116.3273965040066
 21
8.2008263393508969
 31
0.0
1001
GENIUS_GENOREF_13
1005
0
  0
LINE
  5
1237
  8
0
 10
110.3463340040075
 20
-6.0454251513729096
 30
0.0
 11
110.3463340040075
 21
-6.4384251513729387
 31
0.0
  0
POLYLINE
  5
1239
  8
0
 66
     1
 10
0.0
 20
0.0
 30
0.0
 70
   128
  0
VERTEX
  5
144C
  8
0
 10
-97.551210984572549
 20
-4.9999999999997442
 30
0.0
  0
VERTEX
  5
144D
  8
0
 10
-17.355592810346021
 20
-4.9999999999997531
 30
0.0
  0
VERTEX
  5
144E
  8
0
 10
-17.355592810346021
 20
95.000000000000256
 30
0.0
  0
VERTEX
  5
144F
  8
0
 10
-102.7744889759895
 20
95.000000000000256
 30
0.0
  0
SEQEND
  5
1450
  8
0
  0
POLYLINE
  5
123A
  8
0
 66
     1
 10
0.0
 20
0.0
 30
0.0
 70
   128
 40
1.0
 41
1.0
  0
VERTEX
  5
1451
  8
0
 10
-97.551210984572549
 20
-4.4999999999997442
 30
0.0
  0
VERTEX
  5
1452
  8
0
 10
-17.855592810346021
 20
-4.4999999999997531
 30
0.0
  0
VERTEX
  5
1453
  8
0
 10
-17.855592810346021
 20
94.50000000000027
 30
0.0
  0
VERTEX
  5
1454
  8
0
 10
-102.7744889759895
 20
94.50000000000027
 30
0.0
  0
SEQEND
  5
1455
  8
0
  0
POLYLINE
  5
123B
  8
0
  6
CONTINUOUS
 66
     1
 10
0.0
 20
0.0
 30
0.0
 70
   128
  0
VERTEX
  5
1456
  8
0
  6
CONTINUOUS
 10
-103.8543198905448
 20
115.6734337389225
 30
0.0
  0
VERTEX
  5
1457
  8
0
  6
CONTINUOUS
 10
-100.44598876839009
 20
50.420710683488977
 30
0.0
  0
VERTEX
  5
1458
  8
0
  6
CONTINUOUS
 10
-107.1749274612702
 20
47.565831503466988
 30
0.0
  0
VERTEX
  5
1459
  8
0
  6
CONTINUOUS
 10
-93.195433345590004
 20
43.289203330481307
 30
0.0
  0
VERTEX
  5
145A
  8
0
  6
CONTINUOUS
 10
-99.924372038472541
 20
40.434324150459616
 30
0.0
  0
VERTEX
  5
145B
  8
0
  6
CONTINUOUS
 10
-96.516040916317849
 20
-24.818398904973431
 30
0.0
  0
SEQEND
  5
145C
  8
0
  6
CONTINUOUS
  0
INSERT
  5
123C
  8
0
  6
CONTINUOUS
  2
*U23
 10
0.0
 20
0.0
 30
0.0
1001
ACAD
1000
DSTYLE
1002
{
1070
   147
1040
1.0
1070
    77
1070
     0
1002
}
  0
INSERT
  5
123D
  8
0
  6
CONTINUOUS
  2
*U24
 10
0.0
 20
0.0
 30
0.0
  0
INSERT
  5
123E
  8
0
  6
CONTINUOUS
  2
*U25
 10
0.0
 20
0.0
 30
0.0
1001
ACAD
1000
DSTYLE
1002
{
1070
   147
1040
1.0
1070
    77
1070
     0
1002
}
  0
INSERT
  5
123F
  8
0
  6
CONTINUOUS
  2
*U26
 10
0.0
 20
0.0
 30
0.0
  0
INSERT
  5
1240
  8
0
  6
CONTINUOUS
  2
*U27
 10
0.0
 20
0.0
 30
0.0
1001
ACAD
1000
DSTYLE
1002
{
1070
   147
1040
1.0
1070
    77
1070
     0
1002
}
  0
INSERT
  5
1241
  8
0
  6
CONTINUOUS
  2
*U28
 10
0.0
 20
0.0
 30
0.0
  0
INSERT
  5
1242
  8
0
  6
CONTINUOUS
  2
*U29
 10
0.0
 20
0.0
 30
0.0
  0
INSERT
  5
1243
  8
0
  6
CONTINUOUS
  2
*U30
 10
0.0
 20
0.0
 30
0.0
1001
ACAD
1000
DSTYLE
1002
{
1070
   147
1040
1.0
1070
    77
1070
     0
1002
}
  0
INSERT
  5
1244
  8
0
  6
CONTINUOUS
  2
*U31
 10
0.0
 20
0.0
 30
0.0
  0
DIMENSION
  5
1245
  8
0
  2
*D16
 10
-17.355592810346021
 20
74.231795606224964
 30
0.0
 11
-2.4626531582425861
 21
93.999417252427804
 31
0.0
 70
     0
  1
10mm min\P25mm max
 13
1.0
 23
-2.9999999999997549
 33
0.0
 14
-17.355592810346021
 24
-4.9999999999997531
 34
0.0
  0
DIMENSION
  5
1247
  8
0
  2
*D17
 10
-26.321545296375231
 20
6.0000000000002442
 30
0.0
 11
-39.406129198148761
 21
5.7126875852662771
 31
0.0
 70
     0
  1
10mm max
 13
-16.355592810346032
 23
-3.9999999999997442
 33
0.0
 14
-16.355592810346032
 24
6.0000000000002398
 34
0.0
 50
90.0
  0
POLYLINE
  5
1248
  8
0
 66
     1
 10
0.0
 20
0.0
 30
0.0
 70
   128
 40
0.3
 41
0.3
  0
VERTEX
  5
14A3
  8
0
 10
-16.355592810346021
 20
6.500000000000254
 30
0.0
  0
VERTEX
  5
14A4
  8
0
 10
0.9999999999999978
 20
6.5000000000002531
 30
0.0
  0
SEQEND
  5
14A5
  8
0
  0
POLYLINE
  5
124A
  8
0
 66
     1
 10
0.0
 20
0.0
 30
0.0
 70
     1
  0
VERTEX
  5
14A6
  8
0
 10
0.9999999999999978
 20
6.0000000000002549
 30
0.0
  0
VERTEX
  5
14A7
  8
0
 10
-15.85559281034603
 20
6.0000000000002549
 30
0.0
  0
VERTEX
  5
14A8
  8
0
 10
-15.85559281034603
 20
-3.9999999999997451
 30
0.0
 42
-0.2342269703209
  0
VERTEX
  5
14A9
  8
0
 10
0.9999999999999955
 20
-3.9999999999997442
 30
0.0
  0
SEQEND
  5
14AA
  8
0
  0
LINE
  5
124B
  8
0
  6
CONTINUOUS
 10
-9.0367987555562195
 20
17.092474089184972
 30
0.0
 11
3.1397791990516448
 21
17.092474089184972
 31
0.0
  0
LINE
  5
124C
  8
0
  6
CONTINUOUS
 10
3.1397791990516448
 20
19.092474089184972
 30
0.0
 11
3.1397791990516448
 21
15.09247408918497
 31
0.0
  0
LINE
  5
127F
  8
0
 10
-16.355592810346021
 20
7.5000000000002496
 30
0.0
 11
-1.355592810346024
 21
28.500000000000249
 31
0.0
1001
ACDBBLOCKREPETAG
1070
     1
1071
        0
1005
127F
  0
LINE
  5
1280
  8
0
 10
-16.355592810346021
 20
28.500000000000249
 30
0.0
 11
-1.355592810346024
 21
7.5000000000002496
 31
0.0
1001
ACDBBLOCKREPETAG
1070
     1
1071
        1
1005
1280
  0
POLYLINE
  5
1281
  8
0
 66
     1
 10
0.0
 20
0.0
 30
0.0
 70
     1
1001
ACDBBLOCKREPETAG
1070
     1
1071
        2
1005
1281
  0
VERTEX
  5
14AB
  8
0
 10
-16.355592810346021
 20
7.5000000000002496
 30
0.0
  0
VERTEX
  5
14AC
  8
0
 10
-1.355592810346024
 20
7.5000000000002496
 30
0.0
  0
VERTEX
  5
14AD
  8
0
 10
-1.355592810346024
 20
28.500000000000249
 30
0.0
  0
VERTEX
  5
14AE
  8
0
 10
-16.355592810346021
 20
28.500000000000249
 30
0.0
  0
SEQEND
  5
14AF
  8
0
  0
POLYLINE
  5
1282
  8
0
 66
     1
 10
0.0
 20
0.0
 30
0.0
 70
     1
 40
1.0
 41
1.0
1001
ACDBBLOCKREPETAG
1070
     1
1071
        3
1005
1282
  0
VERTEX
  5
14B0
  8
0
 10
-15.855592810346019
 20
8.0000000000002505
 30
0.0
  0
VERTEX
  5
14B1
  8
0
 10
-1.855592810346026
 20
8.0000000000002505
 30
0.0
  0
VERTEX
  5
14B2
  8
0
 10
-1.855592810346024
 20
28.000000000000249
 30
0.0
  0
VERTEX
  5
14B3
  8
0
 10
-15.855592810346019
 20
28.000000000000249
 30
0.0
  0
SEQEND
  5
14B4
  8
0
  0
LINE
  5
129E
  8
0
 10
-17.355592810346021
 20
35.462102523517132
 30
0.0
 11
-17.497705077237921
 21
35.292739718897003
 31
0.0
1001
ACAD
1010
0.0
1020
0.0
1030
0.0
  0
LINE
  5
129F
  8
0
 10
-44.436933799200787
 20
3.187817107780631
 30
0.0
 11
-46.885954592106522
 21
0.2691877794973223
 31
0.0
1001
ACAD
1010
0.0
1020
0.0
1030
0.0
  0
LINE
  5
12A0
  8
0
 10
-22.097368568664422
 20
76.422738094360597
 30
0.0
 11
-24.546389361570139
 21
73.50410876607728
 31
0.0
1001
ACAD
1010
0.0
1020
0.0
1030
0.0
  0
LINE
  5
12A1
  8
0
 10
-51.485618083533012
 20
41.399186154960923
 30
0.0
 11
-53.934638876438719
 21
38.480556826677613
 31
0.0
1001
ACAD
1010
0.0
1020
0.0
1030
0.0
  0
LINE
  5
12A2
  8
0
 10
-80.873867598401603
 20
6.3756342155612549
 30
0.0
 11
-83.322888391307316
 21
3.457004887277932
 31
0.0
1001
ACAD
1010
0.0
1020
0.0
1030
0.0
  0
LINE
  5
12A3
  8
0
 10
-58.534302367865223
 20
79.610555202141228
 30
0.0
 11
-60.983323160770929
 21
76.691925873857912
 31
0.0
1001
ACAD
1010
0.0
1020
0.0
1030
0.0
  0
LINE
  5
12A4
  8
0
 10
-87.922551882733785
 20
44.587003262741561
 30
0.0
 11
-90.371572675639513
 21
41.668373934458231
 31
0.0
1001
ACAD
1010
0.0
1020
0.0
1030
0.0
  0
LINE
  5
12A5
  8
0
 10
-94.971236167066024
 20
82.798372309921845
 30
0.0
 11
-97.420256959971738
 21
79.879742981638515
 31
0.0
1001
ACAD
1010
0.0
1020
0.0
1030
0.0
  0
LINE
  5
12A6
  8
0
 10
-44.436817277403676
 20
3.1878084467383441
 30
0.0
 11
-47.473218717187322
 21
3.4534591506331931
 31
0.0
1001
ACAD
1010
0.0
1020
0.0
1030
0.0
  0
LINE
  5
12A7
  8
0
 10
-80.873634554807367
 20
6.3756168934766899
 30
0.0
 11
-83.910035994591027
 21
6.6412675973715389
 31
0.0
1001
ACAD
1010
0.0
1020
0.0
1030
0.0
  0
LINE
  5
12A8
  8
0
 10
-17.355592810346021
 20
38.41316733920835
 30
0.0
 11
-18.084966634917041
 21
38.476979280330852
 31
0.0
1001
ACAD
1010
0.0
1020
0.0
1030
0.0
  0
LINE
  5
12A9
  8
0
 10
-51.485382472537083
 20
41.39913702317434
 30
0.0
 11
-54.521783912320728
 21
41.664787727069189
 31
0.0
1001
ACAD
1010
0.0
1020
0.0
1030
0.0
  0
LINE
  5
12AA
  8
0
 10
-87.922199749940773
 20
44.586945469912678
 30
0.0
 11
-90.958601189724419
 21
44.852596173807527
 31
0.0
1001
ACAD
1010
0.0
1020
0.0
1030
0.0
  0
LINE
  5
12AB
  8
0
 10
-22.097130390266791
 20
76.422657152871992
 30
0.0
 11
-25.13353183005043
 21
76.688307856766841
 31
0.0
1001
ACAD
1010
0.0
1020
0.0
1030
0.0
  0
LINE
  5
12AC
  8
0
 10
-58.533947667670461
 20
79.610465599610336
 30
0.0
 11
-61.570349107454113
 21
79.876116303505185
 31
0.0
1001
ACAD
1010
0.0
1020
0.0
1030
0.0
  0
LINE
  5
12AD
  8
0
 10
-94.970764945074166
 20
82.798274046348681
 30
0.0
 11
-98.007166384857811
 21
83.063924750243515
 31
0.0
1001
ACAD
1010
0.0
1020
0.0
1030
0.0
  0
LINE
  5
12AE
  8
0
 10
-25.132934684868669
 20
76.688438838659209
 30
0.0
 11
-24.545579072999161
 21
73.504155970381731
 31
0.0
1001
ACAD
1010
0.0
1020
0.0
1030
0.0
  0
LINE
  5
12AF
  8
0
 10
-18.08466734243434
 20
38.477044419329609
 30
0.0
 11
-17.497311730564821
 21
35.292761551052124
 31
0.0
1001
ACAD
1010
0.0
1020
0.0
1030
0.0
  0
LINE
  5
12B0
  8
0
 10
-61.569702360494858
 20
79.876495693930451
 30
0.0
 11
-60.982346748625353
 21
76.692212825652973
 31
0.0
1001
ACAD
1010
0.0
1020
0.0
1030
0.0
  0
LINE
  5
12B1
  8
0
 10
-54.521435018060522
 20
41.665101274600843
 30
0.0
 11
-53.934079406191017
 21
38.480818406323372
 31
0.0
1001
ACAD
1010
0.0
1020
0.0
1030
0.0
  0
LINE
  5
12B2
  8
0
 10
-47.473167675626179
 20
3.4537068552712422
 30
0.0
 11
-46.885812063756681
 21
0.2694239869937576
 31
0.0
1001
ACAD
1010
0.0
1020
0.0
1030
0.0
  0
LINE
  5
12B3
  8
0
 10
-98.006470036121044
 20
83.064552549201665
 30
0.0
 11
-97.419114424251561
 21
79.880269680924201
 31
0.0
1001
ACAD
1010
0.0
1020
0.0
1030
0.0
  0
LINE
  5
12B4
  8
0
 10
-90.958202693686715
 20
44.853158129872057
 30
0.0
 11
-90.370847081817203
 21
41.668875261594593
 31
0.0
1001
ACAD
1010
0.0
1020
0.0
1030
0.0
  0
LINE
  5
12B5
  8
0
 10
-83.909935351252386
 20
6.6417637105424561
 30
0.0
 11
-83.322579739382874
 21
3.4574808422649852
 31
0.0
1001
ACAD
1010
0.0
1020
0.0
1030
0.0
  0
LINE
  5
12B6
  8
0
 10
-17.355592810346021
 20
45.002450219559137
 30
0.0
 11
-18.69171693146664
 21
43.60992175945011
 31
0.0
1001
ACAD
1010
0.0
1020
0.0
1030
0.0
  0
LINE
  5
12B7
  8
0
 10
-62.215808178425988
 20
-1.7515344134545781
 30
0.0
 11
-65.332694727713033
 21
-4.9999999999997584
 31
0.0
1001
ACAD
1010
0.0
1020
0.0
1030
0.0
  0
LINE
  5
12B8
  8
0
 10
-68.950789541987206
 20
56.142156088986887
 30
0.0
 11
-72.907525109892632
 21
52.018387345995542
 31
0.0
1001
ACAD
1010
0.0
1020
0.0
1030
0.0
  0
LINE
  5
12B9
  8
0
 10
-19.25294960328139
 20
48.434264758467521
 30
0.0
 11
-18.691702136341299
 21
43.609801028595221
 31
0.0
1001
ACAD
1010
0.0
1020
0.0
1030
0.0
  0
LINE
  5
12BA
  8
0
 10
-73.468766099810225
 20
56.842718338925224
 30
0.0
 11
-72.907518632870151
 21
52.018254609052917
 31
0.0
1001
ACAD
1010
0.0
1020
0.0
1030
0.0
  0
LINE
  5
12BB
  8
0
 10
-66.733796496528853
 20
-1.05084641954231
 30
0.0
 11
-66.274377052691975
 21
-4.9999999999997788
 31
0.0
1001
ACAD
1010
0.0
1020
0.0
1030
0.0
  0
LINE
  5
12BC
  8
0
 10
-62.215815922078207
 20
-1.7514448385391219
 30
0.0
 11
-66.733800582251405
 21
-1.0507319084173889
 31
0.0
1001
ACAD
1010
0.0
1020
0.0
1030
0.0
  0
LINE
  5
12BD
  8
0
 10
-17.355592810346021
 20
48.140033635144512
 30
0.0
 11
-19.25287941946463
 21
48.43429166370214
 31
0.0
1001
ACAD
1010
0.0
1020
0.0
1030
0.0
  0
LINE
  5
12BE
  8
0
 10
-68.950710681369628
 20
56.142133895041297
 30
0.0
 11
-73.468695341542841
 21
56.842846825163029
 31
0.0
1001
ACAD
1010
0.0
1020
0.0
1030
0.0
  0
LINE
  5
12BF
  8
0
 10
-43.402975967076657
 20
12.83310370335249
 30
0.0
 11
-46.959917392031016
 21
11.467721815584889
 31
0.0
1001
ACAD
1010
0.0
1020
0.0
1030
0.0
  0
LINE
  5
12C0
  8
0
 10
-86.086273066528719
 20
-3.5514789498586481
 30
0.0
 11
-89.643214491483093
 21
-4.916860837626249
 31
0.0
1001
ACAD
1010
0.0
1020
0.0
1030
0.0
  0
LINE
  5
12C1
  8
0
 10
-31.042654834701249
 20
49.670790059916143
 30
0.0
 11
-34.59959625965562
 21
48.305408172148532
 31
0.0
1001
ACAD
1010
0.0
1020
0.0
1030
0.0
  0
LINE
  5
12C2
  8
0
 10
-73.725951934153329
 20
33.286207406705003
 30
0.0
 11
-77.282893359107703
 21
31.920825518937399
 31
0.0
1001
ACAD
1010
0.0
1020
0.0
1030
0.0
  0
LINE
  5
12C3
  8
0
 10
-18.682333702325831
 20
86.508476416479766
 30
0.0
 11
-22.239275127280191
 21
85.143094528712155
 31
0.0
1001
ACAD
1010
0.0
1020
0.0
1030
0.0
  0
LINE
  5
12C4
  8
0
 10
-61.365630801777897
 20
70.123893763268626
 30
0.0
 11
-64.922572226732271
 21
68.758511875501014
 31
0.0
1001
ACAD
1010
0.0
1020
0.0
1030
0.0
  0
LINE
  5
12C5
  8
0
 10
-91.688606768854555
 20
90.576997466621137
 30
0.0
 11
-95.245548193808929
 21
89.211615578853525
 31
0.0
1001
ACAD
1010
0.0
1020
0.0
1030
0.0
  0
LINE
  5
12C6
  8
0
 10
-86.086162177075835
 20
-3.5515139497718158
 30
0.0
 11
-88.613068698223643
 21
-1.8470939799930051
 31
0.0
1001
ACAD
1010
0.0
1020
0.0
1030
0.0
  0
LINE
  5
12C7
  8
0
 10
-43.40287825377321
 20
12.83303963734601
 30
0.0
 11
-45.929784774921004
 21
14.53745960712482
 31
0.0
1001
ACAD
1010
0.0
1020
0.0
1030
0.0
  0
LINE
  5
12C8
  8
0
 10
-73.725756507546421
 20
33.286079274692028
 30
0.0
 11
-76.252663028694215
 21
34.99049924447084
 31
0.0
1001
ACAD
1010
0.0
1020
0.0
1030
0.0
  0
LINE
  5
12C9
  8
0
 10
-31.0424725842438
 20
49.670632861809857
 30
0.0
 11
-33.56937910539159
 21
51.375052831588668
 31
0.0
1001
ACAD
1010
0.0
1020
0.0
1030
0.0
  0
LINE
  5
12CA
  8
0
 10
-61.365350838017001
 20
70.123672499155873
 30
0.0
 11
-63.892257359164802
 21
71.828092468934685
 31
0.0
1001
ACAD
1010
0.0
1020
0.0
1030
0.0
  0
LINE
  5
12CB
  8
0
 10
-91.68822909179022
 20
90.576712136501911
 30
0.0
 11
-94.215135612938013
 21
92.281132106280708
 31
0.0
1001
ACAD
1010
0.0
1020
0.0
1030
0.0
  0
LINE
  5
12CC
  8
0
 10
-18.682066914714369
 20
86.508226086273723
 30
0.0
 11
-21.208973435862159
 21
88.212646056052535
 31
0.0
1001
ACAD
1010
0.0
1020
0.0
1030
0.0
  0
LINE
  5
12CD
  8
0
 10
-21.20887538194442
 20
88.212626566257725
 30
0.0
 11
-22.238912125613339
 21
85.142827174327991
 31
0.0
1001
ACAD
1010
0.0
1020
0.0
1030
0.0
  0
LINE
  5
12CE
  8
0
 10
-33.569316305971242
 20
51.375033863101308
 30
0.0
 11
-34.599353049640172
 21
48.30523447117158
 31
0.0
1001
ACAD
1010
0.0
1020
0.0
1030
0.0
  0
LINE
  5
12CF
  8
0
 10
-45.92975722999806
 20
14.537441159944899
 30
0.0
 11
-46.95979397366699
 21
11.46764176801517
 31
0.0
1001
ACAD
1010
0.0
1020
0.0
1030
0.0
  0
LINE
  5
12D0
  8
0
 10
-63.892173535969299
 20
71.828055023046247
 30
0.0
 11
-64.92221027963825
 21
68.758255631116512
 31
0.0
1001
ACAD
1010
0.0
1020
0.0
1030
0.0
  0
LINE
  5
12D1
  8
0
 10
-76.252614459996153
 20
34.990462319889829
 30
0.0
 11
-77.282651203665083
 21
31.920662927960102
 31
0.0
1001
ACAD
1010
0.0
1020
0.0
1030
0.0
  0
LINE
  5
12D2
  8
0
 10
-88.613055384022985
 20
-1.847130383266588
 30
0.0
 11
-89.643092127691915
 21
-4.9169297751963148
 31
0.0
1001
ACAD
1010
0.0
1020
0.0
1030
0.0
  0
LINE
  5
12D3
  8
0
 10
-94.21503076596737
 20
92.281076182991185
 30
0.0
 11
-95.245067509636286
 21
89.211276791061437
 31
0.0
1001
ACAD
1010
0.0
1020
0.0
1030
0.0
  0
LINE
  5
131C
  8
0
 10
-15.85559281034603
 20
5.3576106252503983
 30
0.0
 11
-15.21320343559616
 21
6.0000000000002576
 31
0.0
1001
ACAD
1010
0.0
1020
0.0
1030
0.0
  0
LINE
  5
131D
  8
0
 10
-15.85559281034603
 20
3.9433970628773012
 30
0.0
 11
-13.79898987322307
 21
6.0000000000002558
 31
0.0
1001
ACAD
1010
0.0
1020
0.0
1030
0.0
  0
LINE
  5
131E
  8
0
 10
-15.85559281034603
 20
2.529183500504208
 30
0.0
 11
-12.384776310849981
 21
6.0000000000002558
 31
0.0
1001
ACAD
1010
0.0
1020
0.0
1030
0.0
  0
LINE
  5
131F
  8
0
 10
-15.85559281034603
 20
1.114969938131112
 30
0.0
 11
-10.97056274847688
 21
6.0000000000002567
 31
0.0
1001
ACAD
1010
0.0
1020
0.0
1030
0.0
  0
LINE
  5
1320
  8
0
 10
-15.85559281034603
 20
-0.2992436242419831
 30
0.0
 11
-9.5563491861037893
 21
6.0000000000002558
 31
0.0
1001
ACAD
1010
0.0
1020
0.0
1030
0.0
  0
LINE
  5
1321
  8
0
 10
-15.85559281034603
 20
-1.7134571866150781
 30
0.0
 11
-8.1421356237306952
 21
6.0000000000002549
 31
0.0
1001
ACAD
1010
0.0
1020
0.0
1030
0.0
  0
LINE
  5
1322
  8
0
 10
-15.85559281034603
 20
-3.127670748988173
 30
0.0
 11
-6.7279220613576003
 21
6.0000000000002549
 31
0.0
1001
ACAD
1010
0.0
1020
0.0
1030
0.0
  0
LINE
  5
1323
  8
0
 10
-14.85228303673898
 20
-3.5385745377542208
 30
0.0
 11
-5.3137084989845036
 21
6.0000000000002549
 31
0.0
1001
ACAD
1010
0.0
1020
0.0
1030
0.0
  0
LINE
  5
1324
  8
0
 10
-12.661400276742761
 20
-2.761905340131094
 30
0.0
 11
-3.8994949366114078
 21
6.0000000000002549
 31
0.0
1001
ACAD
1010
0.0
1020
0.0
1030
0.0
  0
LINE
  5
1325
  8
0
 10
-10.81621049794416
 20
-2.33092912370559
 30
0.0
 11
-2.4852813742383142
 21
6.0000000000002549
 31
0.0
1001
ACAD
1010
0.0
1020
0.0
1030
0.0
  0
LINE
  5
1326
  8
0
 10
-9.1779213580530357
 20
-2.1068535461875588
 30
0.0
 11
-1.071067811865219
 21
6.0000000000002549
 31
0.0
1001
ACAD
1010
0.0
1020
0.0
1030
0.0
  0
LINE
  5
1327
  8
0
 10
-7.6845742804875607
 20
-2.0277200309951802
 30
0.0
 11
0.3431457505078761
 21
6.0000000000002549
 31
0.0
1001
ACAD
1010
0.0
1020
0.0
1030
0.0
  0
LINE
  5
1328
  8
0
 10
-6.302042698393179
 20
-2.0594020112738951
 30
0.0
 11
0.9999999999999982
 21
5.2426406871192821
 31
0.0
1001
ACAD
1010
0.0
1020
0.0
1030
0.0
  0
LINE
  5
1329
  8
0
 10
-5.0091636981666241
 20
-2.1807365734204329
 30
0.0
 11
0.9999999999999978
 21
3.8284271247461872
 31
0.0
1001
ACAD
1010
0.0
1020
0.0
1030
0.0
  0
LINE
  5
132A
  8
0
 10
-3.7917743600902929
 20
-2.3775607977171971
 30
0.0
 11
0.9999999999999973
 21
2.4142135623730909
 31
0.0
1001
ACAD
1010
0.0
1020
0.0
1030
0.0
  0
LINE
  5
132B
  8
0
 10
-2.6398872385466992
 20
-2.6398872385466978
 30
0.0
 11
0.9999999999999971
 21
0.9999999999999968
 31
0.0
1001
ACAD
1010
0.0
1020
0.0
1030
0.0
  0
LINE
  5
132C
  8
0
 10
-1.546193697734775
 20
-2.9604072601078699
 30
0.0
 11
0.9999999999999965
 21
-0.4142135623730987
 31
0.0
1001
ACAD
1010
0.0
1020
0.0
1030
0.0
  0
LINE
  5
132D
  8
0
 10
-0.5052038234232138
 20
-3.3336309481694029
 30
0.0
 11
0.9999999999999962
 21
-1.8284271247461941
 31
0.0
1001
ACAD
1010
0.0
1020
0.0
1030
0.0
  0
LINE
  5
132E
  8
0
 10
0.487278913063737
 20
-3.7553617740555478
 30
0.0
 11
0.9999999999999957
 21
-3.2426406871192892
 31
0.0
1001
ACAD
1010
0.0
1020
0.0
1030
0.0
  0
ENDSEC
  0
EOF
