  0
SECTION
  2
HEADER
  9
$ACADVER
  1
AC1009
  9
$INSBASE
 10
0.0
 20
0.0
 30
0.0
  9
$EXTMIN
 10
-896.89186579155955
 20
-1173.3183742078179
 30
-0.0015258207003583
  9
$EXTMAX
 10
298.54992201600629
 20
514.40450253720326
 30
0.0000000349246037
  9
$LIMMIN
 10
0.0
 20
0.0
  9
$LIMMAX
 10
12.0
 20
9.0
  9
$ORTHOMODE
 70
     0
  9
$REGENMODE
 70
     1
  9
$FILLMODE
 70
     1
  9
$QTEXTMODE
 70
     0
  9
$MIRRTEXT
 70
     0
  9
$DRAGMODE
 70
     2
  9
$LTSCALE
 40
0.5
  9
$OSMODE
 70
     0
  9
$ATTMODE
 70
     1
  9
$TEXTSIZE
 40
20.0
  9
$TRACEWID
 40
0.05
  9
$TEXTSTYLE
  7
TEXT_NOTE
  9
$CLAYER
  8
0
  9
$CELTYPE
  6
CONTINUOUS
  9
$CECOLOR
 62
   256
  9
$DIMSCALE
 40
10.0
  9
$DIMASZ
 40
3.0
  9
$DIMEXO
 40
1.5
  9
$DIMDLI
 40
3.75
  9
$DIMRND
 40
0.0
  9
$DIMDLE
 40
0.0
  9
$DIMEXE
 40
1.0
  9
$DIMTP
 40
0.0
  9
$DIMTM
 40
0.000000001
  9
$DIMTXT
 40
2.0
  9
$DIMCEN
 40
0.0
  9
$DIMTSZ
 40
0.0
  9
$DIMTOL
 70
     0
  9
$DIMLIM
 70
     0
  9
$DIMTIH
 70
     0
  9
$DIMTOH
 70
     0
  9
$DIMSE1
 70
     0
  9
$DIMSE2
 70
     0
  9
$DIMTAD
 70
     1
  9
$DIMZIN
 70
     8
  9
$DIMBLK
  1

  9
$DIMASO
 70
     1
  9
$DIMSHO
 70
     1
  9
$DIMPOST
  1

  9
$DIMAPOST
  1

  9
$DIMALT
 70
     0
  9
$DIMALTD
 70
     3
  9
$DIMALTF
 40
0.03937007874016
  9
$DIMLFAC
 40
1.0
  9
$DIMTOFL
 70
     1
  9
$DIMTVP
 40
0.0
  9
$DIMTIX
 70
     0
  9
$DIMSOXD
 70
     0
  9
$DIMSAH
 70
     0
  9
$DIMBLK1
  1

  9
$DIMBLK2
  1

  9
$DIMSTYLE
  2
DL1DS10
  9
$DIMCLRD
 70
     6
  9
$DIMCLRE
 70
     6
  9
$DIMCLRT
 70
     2
  9
$DIMTFAC
 40
0.8
  9
$DIMGAP
 40
1.0
  9
$LUNITS
 70
     2
  9
$LUPREC
 70
     1
  9
$SKETCHINC
 40
0.1
  9
$FILLETRAD
 40
0.0
  9
$AUNITS
 70
     1
  9
$AUPREC
 70
     4
  9
$MENU
  1
.
  9
$ELEVATION
 40
0.0
  9
$PELEVATION
 40
0.0
  9
$THICKNESS
 40
0.0
  9
$LIMCHECK
 70
     0
  9
$BLIPMODE
 70
     0
  9
$CHAMFERA
 40
0.0
  9
$CHAMFERB
 40
0.0
  9
$SKPOLY
 70
     0
  9
$TDCREATE
 40
2452152.6952596069
  9
$TDUPDATE
 40
2455936.52529772
  9
$TDINDWG
 40
19.3238643171
  9
$TDUSRTIMER
 40
19.3238643171
  9
$USRTIMER
 70
     1
  9
$ANGBASE
 50
0.0
  9
$ANGDIR
 70
     0
  9
$PDMODE
 70
     0
  9
$PDSIZE
 40
0.0
  9
$PLINEWID
 40
0.0
  9
$COORDS
 70
     1
  9
$SPLFRAME
 70
     0
  9
$SPLINETYPE
 70
     6
  9
$SPLINESEGS
 70
     8
  9
$ATTDIA
 70
     0
  9
$ATTREQ
 70
     1
  9
$HANDLING
 70
     1
  9
$HANDSEED
  5
BB6
  9
$SURFTAB1
 70
     6
  9
$SURFTAB2
 70
     6
  9
$SURFTYPE
 70
     6
  9
$SURFU
 70
     6
  9
$SURFV
 70
     6
  9
$UCSNAME
  2

  9
$UCSORG
 10
0.0
 20
0.0
 30
0.0
  9
$UCSXDIR
 10
1.0
 20
0.0
 30
0.0
  9
$UCSYDIR
 10
0.0
 20
1.0
 30
0.0
  9
$PUCSNAME
  2

  9
$PUCSORG
 10
0.0
 20
0.0
 30
0.0
  9
$PUCSXDIR
 10
1.0
 20
0.0
 30
0.0
  9
$PUCSYDIR
 10
0.0
 20
1.0
 30
0.0
  9
$USERI1
 70
     0
  9
$USERI2
 70
     0
  9
$USERI3
 70
     0
  9
$USERI4
 70
     0
  9
$USERI5
 70
     0
  9
$USERR1
 40
0.0
  9
$USERR2
 40
0.0
  9
$USERR3
 40
0.0
  9
$USERR4
 40
0.0
  9
$USERR5
 40
0.0
  9
$WORLDVIEW
 70
     1
  9
$SHADEDGE
 70
     3
  9
$SHADEDIF
 70
    70
  9
$TILEMODE
 70
     1
  9
$MAXACTVP
 70
    48
  9
$PLIMCHECK
 70
     0
  9
$PEXTMIN
 10
0.0
 20
0.0
 30
0.0
  9
$PEXTMAX
 10
0.0
 20
0.0
 30
0.0
  9
$PLIMMIN
 10
0.0
 20
0.0
  9
$PLIMMAX
 10
12.0
 20
9.0
  9
$UNITMODE
 70
     0
  9
$VISRETAIN
 70
     1
  9
$PLINEGEN
 70
     1
  9
$PSLTSCALE
 70
     1
  0
ENDSEC
  0
SECTION
  2
TABLES
  0
TABLE
  2
VPORT
 70
     1
  0
VPORT
  2
*ACTIVE
 70
     0
 10
0.0
 20
0.0
 11
1.0
 21
1.0
 12
-299.17097188777672
 22
-329.4569358353076
 13
0.0
 23
0.0
 14
1.0
 24
1.0
 15
50.0
 25
50.0
 16
0.0
 26
0.0
 36
1.0
 17
0.0
 27
0.0
 37
0.0
 40
1697.869507266535
 41
1.908726178535606
 42
50.0
 43
0.0
 44
0.0
 50
0.0
 51
0.0
 71
     0
 72
 20000
 73
     1
 74
     3
 75
     0
 76
     0
 77
     0
 78
     0
  0
ENDTAB
  0
TABLE
  2
LTYPE
 70
     3
  0
LTYPE
  2
CONTINUOUS
 70
     0
  3
Solid line
 72
    65
 73
     0
 40
0.0
  0
LTYPE
  2
CORB-11_SIDE_APRON_2_PIEC$
 70
     0
  3
____ _ ____ _ ____ _ ____ _ ____ _ ____ _ ____ 
 72
    65
 73
     4
 40
50.799999999999997
 49
31.75
 49
-6.3499999999999988
 49
6.3499999999999988
 49
-6.3499999999999988
  0
LTYPE
  2
CORB-11_SIDE_APRON_2_PIEC0
 70
     0
  3
__ __ __ __ __ __ __ __ __ __ __ __ __ __ __ __
 72
    65
 73
     2
 40
9.5249999999999986
 49
6.3499999999999988
 49
-3.1749999999999989
  0
ENDTAB
  0
TABLE
  2
LAYER
 70
     3
  0
LAYER
  2
0
 70
     0
 62
     7
  6
CONTINUOUS
  0
LAYER
  2
DEFPOINTS
 70
     0
 62
   231
  6
CONTINUOUS
  0
ENDTAB
  0
TABLE
  2
STYLE
 70
     6
  0
STYLE
  2
STANDARD
 70
     0
 40
0.0
 41
1.0
 50
0.0
 71
     0
 42
1.5
  3
romans.shx
  4

  0
STYLE
  2
TEXT_NOTE
 70
     0
 40
0.0
 41
1.0
 50
0.0
 71
     0
 42
20.0
  3
txt
  4

  0
STYLE
  2
CORB-11_SIDE_APRON_2_PIEC$
 70
     0
 40
0.0
 41
1.0
 50
0.0
 71
     0
 42
20.0
  3
txt
  4

  0
STYLE
  2
CORB-11_SIDE_APRON_2_PIEC0
 70
     0
 40
0.0
 41
1.0
 50
0.0
 71
     0
 42
20.0
  3
txt
  4

  0
ENDTAB
  0
TABLE
  2
VIEW
 70
     3
  0
VIEW
  2
09
 70
     0
 40
2970.0
 10
19050.0
 20
1485.0
 41
2100.0
 11
0.0
 21
0.0
 31
1.0
 12
0.0
 22
0.0
 32
0.0
 42
50.0
 43
0.0
 44
0.0
 50
0.0
 71
     0
  0
VIEW
  2
COMM-04
 70
     1
 40
477.26027331217421
 10
194.21746115522001
 20
180.60494410563541
 41
755.81685306636155
 11
0.0
 21
0.0
 31
1.0
 12
0.0
 22
0.0
 32
0.0
 42
50.0
 43
0.0
 44
0.0
 50
0.0
 71
     0
  0
ENDTAB
  0
TABLE
  2
UCS
 70
     0
  0
ENDTAB
  0
TABLE
  2
APPID
 70
    26
  0
APPID
  2
ACAD
 70
     0
  0
APPID
  2
RAK
 70
     0
  0
APPID
  2
GENIUS_GENODEF_13
 70
     0
  0
APPID
  2
GENIUS_GENREC_14
 70
     0
  0
APPID
  2
GENIUS_GENOBJ-N-REC_13
 70
     0
  0
APPID
  2
ACAD_MLEADERVER
 70
     0
  0
APPID
  2
ACAD_DSTYLE_DIMEXT_ENABLED
 70
     0
  0
APPID
  2
ACAD_DSTYLE_DIMEXT_LENGTH
 70
     0
  0
APPID
  2
GENIUS_GENSCREG_15
 70
     0
  0
APPID
  2
GENIUS_GENOBJ-N-SDF_13
 70
     0
  0
APPID
  2
PE_URL
 70
     0
  0
APPID
  2
GENIUS_GENCFG_13
 70
     0
  0
APPID
  2
GENIUS_GENCFG0_13
 70
     0
  0
APPID
  2
ACAD_PSEXT
 70
     0
  0
APPID
  2
ACAECLAYERSTANDARD
 70
     0
  0
APPID
  2
ACDBDYNAMICBLOCKGUID
 70
     0
  0
APPID
  2
ACCMTRANSPARENCY
 70
     0
  0
APPID
  2
ACAD_EXEMPT_FROM_CAD_STANDARDS
 70
     0
  0
APPID
  2
ACADANNOPO
 70
     0
  0
APPID
  2
ADESKUNDERLAYLAYEROVERRIDEDATA
 70
     0
  0
APPID
  2
URBANX
 70
     0
  0
APPID
  2
GRADIENTCOLOR1ACI
 70
     0
  0
APPID
  2
GRADIENTCOLOR2ACI
 70
     0
  0
APPID
  2
ACAD_NAV_VCDISPLAY
 70
     0
  0
APPID
  2
ACADANNOTATIVE
 70
     0
  0
APPID
  2
ACAD_DSTYLE_DIMJOGGED_JOGA
 70
     0
  0
ENDTAB
  0
TABLE
  2
DIMSTYLE
 70
     7
  0
DIMSTYLE
  2
DL1DS10
 70
     0
  3

  4

  5

  6

  7

 40
10.0
 41
3.0
 42
1.5
 43
3.75
 44
1.0
 45
0.0
 46
0.0
 47
0.0
 48
0.000000001
140
2.0
141
0.0
142
0.0
143
0.03937007874016
144
1.0
145
0.0
146
0.8
147
1.0
 71
     0
 72
     0
 73
     0
 74
     0
 75
     0
 76
     0
 77
     1
 78
     8
170
     0
171
     3
172
     1
173
     0
174
     0
175
     0
176
     6
177
     6
178
     2
  0
DIMSTYLE
  2
CORB-11_SIDE_APRON_2_PIEC$
 70
     0
  3

  4

  5
CORB-11_SIDE_APRON_2_PIEC$
  6

  7

 40
10.0
 41
2.0
 42
2.0
 43
6.0
 44
1.5
 45
0.0
 46
1.5
 47
0.0
 48
0.0
140
2.0
141
2.0
142
0.0
143
0.0394
144
1.0
145
0.0
146
1.0
147
1.0
 71
     0
 72
     0
 73
     0
 74
     0
 75
     0
 76
     0
 77
     0
 78
     0
170
     0
171
     2
172
     1
173
     0
174
     1
175
     0
176
     0
177
     0
178
     0
  0
DIMSTYLE
  2
CORB-11_SIDE_APRON_2_PIEC0
 70
     0
  3

  4

  5
CORB-11_SIDE_APRON_2_PIEC$
  6

  7

 40
10.0
 41
2.0
 42
2.0
 43
6.0
 44
2.0
 45
0.0
 46
2.0
 47
0.0
 48
0.0
140
2.0
141
2.0
142
0.0
143
0.0394
144
1.0
145
0.0
146
1.0
147
1.0
 71
     0
 72
     0
 73
     0
 74
     0
 75
     0
 76
     0
 77
     1
 78
     0
170
     0
171
     2
172
     0
173
     0
174
     0
175
     0
176
   256
177
   256
178
   256
  0
ENDTAB
  0
ENDSEC
  0
SECTION
  2
BLOCKS
  0
BLOCK
  8
0
  2
$MODEL_SPACE
 70
     0
 10
0.0
 20
0.0
 30
0.0
  3
$MODEL_SPACE
  1

  0
ENDBLK
  5
D
  8
0
  0
BLOCK
 67
     1
  8
0
  2
$PAPER_SPACE
 70
     0
 10
0.0
 20
0.0
 30
0.0
  3
$PAPER_SPACE
  1

  0
ENDBLK
  5
897
 67
     1
  8
0
  0
BLOCK
  8
0
  2
CORB-11_SIDE_APRON_2_PIEC$
 70
     0
 10
0.0
 20
0.0
 30
0.0
  3
CORB-11_SIDE_APRON_2_PIEC$
  1

  0
POLYLINE
  5
649
  8
0
  6
BYBLOCK
 62
     0
 66
     1
 10
0.0
 20
0.0
 30
0.0
 40
0.15
 41
0.15
  0
VERTEX
  5
96E
  8
0
  6
BYBLOCK
 62
     0
 10
-0.5
 20
-0.5
 30
0.0
  0
VERTEX
  5
96F
  8
0
  6
BYBLOCK
 62
     0
 10
0.5
 20
0.5
 30
0.0
  0
SEQEND
  5
970
  8
0
  6
BYBLOCK
 62
     0
  0
ENDBLK
  5
64A
  8
0
  0
BLOCK
  8
0
  2
*D12
 70
     1
 10
0.0
 20
0.0
 30
0.0
  3
*D12
  1

  0
LINE
  5
8C7
  8
0
  6
CONTINUOUS
 10
-236.67073515365621
 20
-787.94418554577533
 30
0.0
 11
-306.67073515365621
 21
-787.94418554577521
 31
0.0
  0
LINE
  5
8C8
  8
0
  6
CONTINUOUS
 10
-236.67073515365621
 20
-762.94418554577248
 30
0.0
 11
-306.67073515365621
 21
-762.94418554577248
 31
0.0
  0
LINE
  5
8C9
  8
0
  6
CONTINUOUS
 10
-286.67073515365621
 20
-807.9441855457751
 30
0.0
 11
-286.67073515365621
 21
-742.94418554577237
 31
0.0
  0
LINE
  5
8CA
  8
0
  6
CONTINUOUS
 10
-286.6707351536561
 20
-624.97046040562464
 30
0.0
 11
-286.67073515365621
 21
-762.94418554577248
 31
0.0
  0
INSERT
  5
8CB
  8
0
  6
CONTINUOUS
  2
*U62
 10
0.0
 20
0.0
 30
0.0
  0
INSERT
  5
8CC
  8
0
  6
CONTINUOUS
  2
CORB-11_SIDE_APRON_2_PIEC$
 10
-286.67073515365621
 20
-787.94418554577521
 30
0.0
 41
20.0
 42
20.0
 43
20.0
 50
270.0
  0
INSERT
  5
8CD
  8
0
  6
CONTINUOUS
  2
CORB-11_SIDE_APRON_2_PIEC$
 10
-286.67073515365621
 20
-762.94418554577248
 30
0.0
 41
20.0
 42
20.0
 43
20.0
 50
90.0
  0
POINT
  5
8CE
  8
DEFPOINTS
  6
CONTINUOUS
 62
     0
 10
-206.6811708838668
 20
-787.94418554577533
 30
0.0
  0
POINT
  5
8CF
  8
DEFPOINTS
  6
CONTINUOUS
 62
     0
 10
-58.908762381717217
 20
-762.94418554577248
 30
0.0
  0
POINT
  5
8D0
  8
DEFPOINTS
  6
CONTINUOUS
 62
     0
 10
-286.67073515365621
 20
-762.94418554577248
 30
0.0
  0
ENDBLK
  5
814
  8
0
  0
BLOCK
  8
0
  2
*D13
 70
     1
 10
0.0
 20
0.0
 30
0.0
  3
*D13
  1

  0
LINE
  5
8BE
  8
0
  6
CONTINUOUS
 10
145.3289707793154
 20
-762.94418554577248
 30
0.0
 11
215.32897077931551
 21
-762.94418554577248
 31
0.0
  0
LINE
  5
8BF
  8
0
  6
CONTINUOUS
 10
145.32897077931551
 20
-687.73393728270912
 30
0.0
 11
215.32897077931551
 21
-687.73393728270912
 31
0.0
  0
LINE
  5
8C0
  8
0
  6
CONTINUOUS
 10
195.3289707793154
 20
-782.9441855457726
 30
0.0
 11
195.32897077931551
 21
-667.73393728270912
 31
0.0
  0
INSERT
  5
8C1
  8
0
  6
CONTINUOUS
  2
*U61
 10
0.0
 20
0.0
 30
0.0
  0
INSERT
  5
8C2
  8
0
  6
CONTINUOUS
  2
CORB-11_SIDE_APRON_2_PIEC$
 10
195.3289707793154
 20
-762.94418554577248
 30
0.0
 41
20.0
 42
20.0
 43
20.0
 50
270.0
  0
INSERT
  5
8C3
  8
0
  6
CONTINUOUS
  2
CORB-11_SIDE_APRON_2_PIEC$
 10
195.32897077931551
 20
-687.73393728270912
 30
0.0
 41
20.0
 42
20.0
 43
20.0
 50
90.0
  0
POINT
  5
8C4
  8
DEFPOINTS
  6
CONTINUOUS
 62
     0
 10
-58.908762381717217
 20
-762.94418554577248
 30
0.0
  0
POINT
  5
8C5
  8
DEFPOINTS
  6
CONTINUOUS
 62
     0
 10
-39.63206537492124
 20
-687.73393728270912
 30
0.0
  0
POINT
  5
8C6
  8
DEFPOINTS
  6
CONTINUOUS
 62
     0
 10
195.32897077931551
 20
-687.73393728270912
 30
0.0
  0
ENDBLK
  5
821
  8
0
  0
BLOCK
  8
0
  2
*D14
 70
     1
 10
0.0
 20
0.0
 30
0.0
  3
*D14
  1

  0
LINE
  5
8B5
  8
0
  6
CONTINUOUS
 10
145.32897077931551
 20
-659.23410073316882
 30
0.0
 11
215.32897077931551
 21
-659.23410073316882
 31
0.0
  0
LINE
  5
8B6
  8
0
  6
CONTINUOUS
 10
145.3289707793154
 20
-584.02385247010625
 30
0.0
 11
215.32897077931551
 21
-584.02385247010625
 31
0.0
  0
LINE
  5
8B7
  8
0
  6
CONTINUOUS
 10
195.3289707793154
 20
-679.23410073316882
 30
0.0
 11
195.32897077931551
 21
-564.02385247010625
 31
0.0
  0
INSERT
  5
8B8
  8
0
  6
CONTINUOUS
  2
*U60
 10
0.0
 20
0.0
 30
0.0
  0
INSERT
  5
8B9
  8
0
  6
CONTINUOUS
  2
CORB-11_SIDE_APRON_2_PIEC$
 10
195.3289707793154
 20
-659.23410073316882
 30
0.0
 41
20.0
 42
20.0
 43
20.0
 50
270.0
  0
INSERT
  5
8BA
  8
0
  6
CONTINUOUS
  2
CORB-11_SIDE_APRON_2_PIEC$
 10
195.3289707793154
 20
-584.02385247010625
 30
0.0
 41
20.0
 42
20.0
 43
20.0
 50
90.0
  0
POINT
  5
8BB
  8
DEFPOINTS
  6
CONTINUOUS
 62
     0
 10
-23.999999999998181
 20
-659.23410073316882
 30
0.0
  0
POINT
  5
8BC
  8
DEFPOINTS
  6
CONTINUOUS
 62
     0
 10
-9.9999999999990905
 20
-584.02385247010625
 30
0.0
  0
POINT
  5
8BD
  8
DEFPOINTS
  6
CONTINUOUS
 62
     0
 10
195.3289707793154
 20
-584.02385247010625
 30
0.0
  0
ENDBLK
  5
82D
  8
0
  0
BLOCK
  8
0
  2
*D15
 70
     1
 10
0.0
 20
0.0
 30
0.0
  3
*D15
  1

  0
LINE
  5
8AB
  8
0
  6
CONTINUOUS
 10
-236.6707351536561
 20
84.399999999998755
 30
0.0
 11
-306.6707351536561
 21
84.399999999998755
 31
0.0
  0
LINE
  5
8AC
  8
0
  6
CONTINUOUS
 10
-236.6707351536561
 20
109.4000000000015
 30
0.0
 11
-306.6707351536561
 21
109.4000000000015
 31
0.0
  0
LINE
  5
8AD
  8
0
  6
CONTINUOUS
 10
-286.6707351536561
 20
64.399999999998741
 30
0.0
 11
-286.6707351536561
 21
129.40000000000151
 31
0.0
  0
LINE
  5
8AE
  8
0
  6
CONTINUOUS
 10
-286.6707351536561
 20
235.36997715169889
 30
0.0
 11
-286.6707351536561
 21
109.4000000000015
 31
0.0
  0
INSERT
  5
8AF
  8
0
  6
CONTINUOUS
  2
*U59
 10
0.0
 20
0.0
 30
0.0
  0
INSERT
  5
8B0
  8
0
  6
CONTINUOUS
  2
CORB-11_SIDE_APRON_2_PIEC$
 10
-286.6707351536561
 20
84.399999999998755
 30
0.0
 41
20.0
 42
20.0
 43
20.0
 50
270.0
  0
INSERT
  5
8B1
  8
0
  6
CONTINUOUS
  2
CORB-11_SIDE_APRON_2_PIEC$
 10
-286.6707351536561
 20
109.4000000000015
 30
0.0
 41
20.0
 42
20.0
 43
20.0
 50
90.0
  0
POINT
  5
8B2
  8
DEFPOINTS
  6
CONTINUOUS
 62
     0
 10
-206.6811708838668
 20
84.399999999998727
 30
0.0
  0
POINT
  5
8B3
  8
DEFPOINTS
  6
CONTINUOUS
 62
     0
 10
-58.908762381717679
 20
109.4000000000014
 30
0.0
  0
POINT
  5
8B4
  8
DEFPOINTS
  6
CONTINUOUS
 62
     0
 10
-286.6707351536561
 20
109.4000000000015
 30
0.0
  0
ENDBLK
  5
839
  8
0
  0
BLOCK
  8
0
  2
*D16
 70
     1
 10
0.0
 20
0.0
 30
0.0
  3
*D16
  1

  0
LINE
  5
8A2
  8
0
  6
CONTINUOUS
 10
145.32897077931551
 20
109.4000000000014
 30
0.0
 11
215.3289707793156
 21
109.4000000000014
 31
0.0
  0
LINE
  5
8A3
  8
0
  6
CONTINUOUS
 10
145.32897077931551
 20
184.61024826306479
 30
0.0
 11
215.3289707793156
 21
184.61024826306479
 31
0.0
  0
LINE
  5
8A4
  8
0
  6
CONTINUOUS
 10
195.32897077931551
 20
89.400000000001384
 30
0.0
 11
195.3289707793156
 21
204.6102482630649
 31
0.0
  0
INSERT
  5
8A5
  8
0
  6
CONTINUOUS
  2
*U58
 10
0.0
 20
0.0
 30
0.0
  0
INSERT
  5
8A6
  8
0
  6
CONTINUOUS
  2
CORB-11_SIDE_APRON_2_PIEC$
 10
195.32897077931551
 20
109.4000000000014
 30
0.0
 41
20.0
 42
20.0
 43
20.0
 50
270.0
  0
INSERT
  5
8A7
  8
0
  6
CONTINUOUS
  2
CORB-11_SIDE_APRON_2_PIEC$
 10
195.32897077931551
 20
184.61024826306479
 30
0.0
 41
20.0
 42
20.0
 43
20.0
 50
90.0
  0
POINT
  5
8A8
  8
DEFPOINTS
  6
CONTINUOUS
 62
     0
 10
-58.908762381717679
 20
109.4000000000014
 30
0.0
  0
POINT
  5
8A9
  8
DEFPOINTS
  6
CONTINUOUS
 62
     0
 10
-39.63206537492124
 20
184.6102482630649
 30
0.0
  0
POINT
  5
8AA
  8
DEFPOINTS
  6
CONTINUOUS
 62
     0
 10
195.32897077931551
 20
184.61024826306479
 30
0.0
  0
ENDBLK
  5
846
  8
0
  0
BLOCK
  8
0
  2
*D17
 70
     1
 10
0.0
 20
0.0
 30
0.0
  3
*D17
  1

  0
LINE
  5
899
  8
0
  6
CONTINUOUS
 10
145.3289707793156
 20
213.11008481260521
 30
0.0
 11
215.3289707793156
 21
213.11008481260521
 31
0.0
  0
LINE
  5
89A
  8
0
  6
CONTINUOUS
 10
145.3289707793156
 20
288.3203330756678
 30
0.0
 11
215.3289707793156
 21
288.3203330756678
 31
0.0
  0
LINE
  5
89B
  8
0
  6
CONTINUOUS
 10
195.3289707793156
 20
193.11008481260521
 30
0.0
 11
195.3289707793156
 21
308.3203330756678
 31
0.0
  0
INSERT
  5
89C
  8
0
  6
CONTINUOUS
  2
*U57
 10
0.0
 20
0.0
 30
0.0
  0
INSERT
  5
89D
  8
0
  6
CONTINUOUS
  2
CORB-11_SIDE_APRON_2_PIEC$
 10
195.3289707793156
 20
213.11008481260521
 30
0.0
 41
20.0
 42
20.0
 43
20.0
 50
270.0
  0
INSERT
  5
89E
  8
0
  6
CONTINUOUS
  2
CORB-11_SIDE_APRON_2_PIEC$
 10
195.3289707793156
 20
288.3203330756678
 30
0.0
 41
20.0
 42
20.0
 43
20.0
 50
90.0
  0
POINT
  5
89F
  8
DEFPOINTS
  6
CONTINUOUS
 62
     0
 10
-23.999999999998181
 20
213.11008481260521
 30
0.0
  0
POINT
  5
8A0
  8
DEFPOINTS
  6
CONTINUOUS
 62
     0
 10
-9.9999999999990905
 20
288.3203330756678
 30
0.0
  0
POINT
  5
8A1
  8
DEFPOINTS
  6
CONTINUOUS
 62
     0
 10
195.3289707793156
 20
288.3203330756678
 30
0.0
  0
ENDBLK
  5
852
  8
0
  0
BLOCK
  8
0
  2
*U19
 70
     1
 10
0.0
 20
0.0
 30
0.0
  3
*U19
  1

  0
SOLID
  5
988
  8
0
  6
CONTINUOUS
 10
-477.3080344484253
 20
-882.17378778969623
 30
0.0
 11
-459.57416767218632
 21
-872.34418554577405
 31
0.0
 12
-473.16146794897821
 22
-887.39398229853475
 32
0.0
 13
-473.16146794897821
 23
-887.39398229853475
 33
0.0
  0
POLYLINE
  5
989
  8
0
  6
CONTINUOUS
 66
     1
 10
0.0
 20
0.0
 30
0.0
  0
VERTEX
  5
98A
  8
0
  6
CONTINUOUS
 10
-475.2347511987017
 20
-884.78388504411555
 30
0.0
  0
VERTEX
  5
98B
  8
0
  6
CONTINUOUS
 10
-565.0
 20
-956.08727668283416
 30
0.0
  0
VERTEX
  5
98C
  8
0
  6
CONTINUOUS
 10
-585.0
 20
-956.08727668283416
 30
0.0
  0
SEQEND
  5
98D
  8
0
  6
CONTINUOUS
  0
ENDBLK
  5
98F
  8
0
  0
BLOCK
  8
0
  2
*U20
 70
     1
 10
0.0
 20
0.0
 30
0.0
  3
*U20
  1

  0
TEXT
  5
991
  8
0
  6
CONTINUOUS
 10
-664.50886766712142
 20
-965.92356590520808
 30
0.0
 40
20.0
  1
Purlin
  7
CORB-11_SIDE_APRON_2_PIEC$
  0
ENDBLK
  5
993
  8
0
  0
BLOCK
  8
0
  2
*U21
 70
     1
 10
0.0
 20
0.0
 30
0.0
  3
*U21
  1

  0
SOLID
  5
9AE
  8
0
  6
CONTINUOUS
 10
-57.997120800140351
 20
-414.52218549402289
 30
0.0
 11
-37.999999999999538
 21
-417.87274825506569
 31
0.0
 12
-58.002864355065547
 22
-421.18884968655732
 32
0.0
 13
-58.002864355065547
 23
-421.18884968655732
 33
0.0
  0
POLYLINE
  5
9AF
  8
0
  6
CONTINUOUS
 66
     1
 10
0.0
 20
0.0
 30
0.0
  0
VERTEX
  5
9B0
  8
0
  6
CONTINUOUS
 10
-57.999992577602953
 20
-417.85551759029011
 30
0.0
  0
VERTEX
  5
9B1
  8
0
  6
CONTINUOUS
 10
-206.67073515365701
 20
-417.72743275639181
 30
0.0
  0
SEQEND
  5
9B2
  8
0
  6
CONTINUOUS
  0
ENDBLK
  5
9B4
  8
0
  0
BLOCK
  8
0
  2
*U22
 70
     1
 10
0.0
 20
0.0
 30
0.0
  3
*U22
  1

  0
TEXT
  5
9B6
  8
0
  6
CONTINUOUS
 10
-380.96814306634462
 20
-424.7874600415214
 30
0.0
 40
20.0
  1
Wall cladding
  7
CORB-11_SIDE_APRON_2_PIEC$
  0
ENDBLK
  5
9B8
  8
0
  0
BLOCK
  8
0
  2
*U23
 70
     1
 10
0.0
 20
0.0
 30
0.0
  3
*U23
  1

  0
SOLID
  5
9BA
  8
0
  6
CONTINUOUS
 10
120.9933904285604
 20
-962.94179577872376
 30
0.0
 11
104.0
 21
-951.88124457846152
 31
0.0
 12
123.662034578453
 22
-956.83255827755477
 32
0.0
 13
123.662034578453
 23
-956.83255827755477
 33
0.0
  0
POLYLINE
  5
9BB
  8
0
  6
CONTINUOUS
 66
     1
 10
0.0
 20
0.0
 30
0.0
  0
VERTEX
  5
9BC
  8
0
  6
CONTINUOUS
 10
122.3277125035067
 20
-959.88717702813926
 30
0.0
  0
VERTEX
  5
9BD
  8
0
  6
CONTINUOUS
 10
183.32926484634299
 20
-986.5339452644256
 30
0.0
  0
VERTEX
  5
9BE
  8
0
  6
CONTINUOUS
 10
203.32926484634299
 20
-986.5339452644256
 30
0.0
  0
SEQEND
  5
9BF
  8
0
  6
CONTINUOUS
  0
ENDBLK
  5
9C1
  8
0
  0
BLOCK
  8
0
  2
*U24
 70
     1
 10
0.0
 20
0.0
 30
0.0
  3
*U24
  1

  0
TEXT
  5
9C3
  8
0
  6
CONTINUOUS
 10
212.07414888454221
 20
-996.5339452644256
 30
0.0
 40
20.0
  1
Stud
  7
CORB-11_SIDE_APRON_2_PIEC$
  0
ENDBLK
  5
9C5
  8
0
  0
BLOCK
  8
0
  2
*U25
 70
     1
 10
0.0
 20
0.0
 30
0.0
  3
*U25
  1

  0
SOLID
  5
9DA
  8
0
  6
CONTINUOUS
 10
-468.44692940675958
 20
-797.39930476414077
 30
0.0
 11
-454.7443147097801
 21
-812.34418554577394
 31
0.0
 12
-472.55323589285803
 22
-802.65122741081689
 32
0.0
 13
-472.55323589285803
 23
-802.65122741081689
 33
0.0
  0
POLYLINE
  5
9DB
  8
0
  6
CONTINUOUS
 66
     1
 10
0.0
 20
0.0
 30
0.0
  0
VERTEX
  5
9DC
  8
0
  6
CONTINUOUS
 10
-470.5000826498088
 20
-800.02526608747894
 30
0.0
  0
VERTEX
  5
9DD
  8
0
  6
CONTINUOUS
 10
-565.0
 20
-726.13887254045403
 30
0.0
  0
VERTEX
  5
9DE
  8
0
  6
CONTINUOUS
 10
-585.0
 20
-726.13887254045403
 30
0.0
  0
SEQEND
  5
9DF
  8
0
  6
CONTINUOUS
  0
ENDBLK
  5
9E1
  8
0
  0
BLOCK
  8
0
  2
*U26
 70
     1
 10
0.0
 20
0.0
 30
0.0
  3
*U26
  1

  0
TEXT
  5
9E3
  8
0
  6
CONTINUOUS
 10
-706.56889495225107
 20
-733.19889982558368
 30
0.0
 40
20.0
  1
Underlay
  7
CORB-11_SIDE_APRON_2_PIEC$
  0
ENDBLK
  5
9E5
  8
0
  0
BLOCK
  8
0
  2
*U27
 70
     1
 10
0.0
 20
0.0
 30
0.0
  3
*U27
  1

  0
SOLID
  5
9E7
  8
0
  6
CONTINUOUS
 10
-361.17870424961649
 20
-778.73608265347127
 30
0.0
 11
-347.01237717725422
 21
-793.24216028975752
 31
0.0
 12
-365.11763066828439
 22
-784.11467941403657
 32
0.0
 13
-365.11763066828439
 23
-784.11467941403657
 33
0.0
  0
POLYLINE
  5
9E8
  8
0
  6
CONTINUOUS
 66
     1
 10
0.0
 20
0.0
 30
0.0
  0
VERTEX
  5
9E9
  8
0
  6
CONTINUOUS
 10
-363.14816745895052
 20
-781.42538103375398
 30
0.0
  0
VERTEX
  5
9EA
  8
0
  6
CONTINUOUS
 10
-565.0
 20
-633.60252848570872
 30
0.0
  0
VERTEX
  5
9EB
  8
0
  6
CONTINUOUS
 10
-585.0
 20
-633.60252848570872
 30
0.0
  0
SEQEND
  5
9EC
  8
0
  6
CONTINUOUS
  0
ENDBLK
  5
9EE
  8
0
  0
BLOCK
  8
0
  2
*U28
 70
     1
 10
0.0
 20
0.0
 30
0.0
  3
*U28
  1

  0
TEXT
  5
9F0
  8
0
  6
CONTINUOUS
 10
-858.75170532060031
 20
-623.9890678217705
 30
0.0
 40
20.0
  1
Steel & Tube Custom
  7
CORB-11_SIDE_APRON_2_PIEC$
  0
TEXT
  5
9F1
  8
0
  6
CONTINUOUS
 10
-816.75989085948174
 20
-657.67710783996063
 30
0.0
 40
20.0
  1
Orb profile roofing
  7
CORB-11_SIDE_APRON_2_PIEC$
  0
ENDBLK
  5
9F3
  8
0
  0
BLOCK
  8
0
  2
*U29
 70
     1
 10
0.0
 20
0.0
 30
0.0
  3
*U29
  1

  0
SOLID
  5
9FA
  8
0
  6
CONTINUOUS
 10
10.857468967205071
 20
-813.89475263117833
 30
0.0
 11
-6.9204807498967957
 21
-804.1451057161712
 31
0.0
 12
13.05854636033702
 22
-807.60192315995573
 32
0.0
 13
13.05854636033702
 23
-807.60192315995573
 33
0.0
  0
POLYLINE
  5
9FB
  8
0
  6
CONTINUOUS
 66
     1
 10
0.0
 20
0.0
 30
0.0
  0
VERTEX
  5
9FC
  8
0
  6
CONTINUOUS
 10
11.958007663771051
 20
-810.74833789556703
 30
0.0
  0
VERTEX
  5
9FD
  8
0
  6
CONTINUOUS
 10
183.3292648463439
 20
-870.68980011731026
 30
0.0
  0
VERTEX
  5
9FE
  8
0
  6
CONTINUOUS
 10
203.3292648463439
 20
-870.68980011731026
 30
0.0
  0
SEQEND
  5
9FF
  8
0
  6
CONTINUOUS
  0
ENDBLK
  5
A01
  8
0
  0
BLOCK
  8
0
  2
*U30
 70
     1
 10
0.0
 20
0.0
 30
0.0
  3
*U30
  1

  0
TEXT
  5
A03
  8
0
  6
CONTINUOUS
 10
211.173739607599
 20
-880.52608933968406
 30
0.0
 40
20.0
  1
Packer
  7
CORB-11_SIDE_APRON_2_PIEC$
  0
ENDBLK
  5
A05
  8
0
  0
BLOCK
  8
0
  2
*U31
 70
     1
 10
0.0
 20
0.0
 30
0.0
  3
*U31
  1

  0
SOLID
  5
A07
  8
0
  6
CONTINUOUS
 10
0.6687056106203322
 20
-462.80268598990932
 30
0.0
 11
-18.99999999999682
 21
-467.72743275639272
 31
0.0
 12
-1.991682833137371
 22
-456.6898488603299
 32
0.0
 13
-1.991682833137371
 23
-456.6898488603299
 33
0.0
  0
POLYLINE
  5
A08
  8
0
  6
CONTINUOUS
 66
     1
 10
0.0
 20
0.0
 30
0.0
  0
VERTEX
  5
A09
  8
0
  6
CONTINUOUS
 10
-0.6614886112585197
 20
-459.74626742511958
 30
0.0
  0
VERTEX
  5
A0A
  8
0
  6
CONTINUOUS
 10
153.32926484634299
 20
-392.72743275639192
 30
0.0
  0
VERTEX
  5
A0B
  8
0
  6
CONTINUOUS
 10
173.32926484634299
 20
-392.72743275639192
 30
0.0
  0
SEQEND
  5
A0C
  8
0
  6
CONTINUOUS
  0
ENDBLK
  5
A0E
  8
0
  0
BLOCK
  8
0
  2
*U32
 70
     1
 10
0.0
 20
0.0
 30
0.0
  3
*U32
  1

  0
TEXT
  5
A10
  8
0
  6
CONTINUOUS
 10
181.28288012601561
 20
-383.28450415248102
 30
0.0
 40
20.0
  1
Building
  7
CORB-11_SIDE_APRON_2_PIEC$
  0
TEXT
  5
A11
  8
0
  6
CONTINUOUS
 10
181.4875185980483
 20
-416.61783748581428
 30
0.0
 40
20.0
  1
paper
  7
CORB-11_SIDE_APRON_2_PIEC$
  0
ENDBLK
  5
A13
  8
0
  0
BLOCK
  8
0
  2
*U33
 70
     1
 10
0.0
 20
0.0
 30
0.0
  3
*U33
  1

  0
SOLID
  5
A69
  8
0
  6
CONTINUOUS
 10
-138.37824825412389
 20
-775.20520474147565
 30
0.0
 11
-122.60391850041189
 21
-787.94418554577351
 31
0.0
 12
-141.65714312288469
 22
-781.00979713750644
 32
0.0
 13
-141.65714312288469
 23
-781.00979713750644
 33
0.0
  0
POLYLINE
  5
A6A
  8
0
  6
CONTINUOUS
 66
     1
 10
0.0
 20
0.0
 30
0.0
  0
VERTEX
  5
A6B
  8
0
  6
CONTINUOUS
 10
-140.01769568850429
 20
-778.10750093949105
 30
0.0
  0
VERTEX
  5
A6C
  8
0
  6
CONTINUOUS
 10
-565.0
 20
-538.04373731088981
 30
0.0
  0
VERTEX
  5
A6D
  8
0
  6
CONTINUOUS
 10
-585.0
 20
-538.04373731088981
 30
0.0
  0
SEQEND
  5
A6E
  8
0
  6
CONTINUOUS
  0
ENDBLK
  5
A70
  8
0
  0
BLOCK
  8
0
  2
*U34
 70
     1
 10
0.0
 20
0.0
 30
0.0
  3
*U34
  1

  0
TEXT
  5
A72
  8
0
  6
CONTINUOUS
 10
-730.14324693042295
 20
-528.47802562375932
 30
0.0
 40
20.0
  1
Minimum 2
  7
CORB-11_SIDE_APRON_2_PIEC$
  0
TEXT
  5
A73
  8
0
  6
CONTINUOUS
 10
-858.15143246930415
 20
-561.81135895709269
 30
0.0
 40
20.0
  1
corrugations side lap.
  7
CORB-11_SIDE_APRON_2_PIEC$
  0
ENDBLK
  5
A75
  8
0
  0
BLOCK
  8
0
  2
*U35
 70
     1
 10
0.0
 20
0.0
 30
0.0
  3
*U35
  1

  0
TEXT
  5
A77
  8
0
  6
CONTINUOUS
 10
-563.20175099171195
 20
-1133.6579629234091
 30
0.0
 40
20.0
  1
VERY HIGH WIND ZONES WHERE PITCH    10°
  7
CORB-11_SIDE_APRON_2_PIEC$
  0
TEXT
  5
A78
  8
0
  6
CONTINUOUS
 10
-511.54417936824677
 20
-1167.346002941599
 30
0.0
 40
20.0
  1
ALL WIND ZONES WHERE PITCH < 10°
  7
CORB-11_SIDE_APRON_2_PIEC$
  0
ENDBLK
  5
A7A
  8
0
  0
BLOCK
  8
0
  2
*U36
 70
     1
 10
0.0
 20
0.0
 30
0.0
  3
*U36
  1

  0
SOLID
  5
AAB
  8
0
  6
CONTINUOUS
 10
-57.997120800140351
 20
457.8220000517511
 30
0.0
 11
-37.999999999999538
 21
454.4714372907082
 31
0.0
 12
-58.002864355065547
 22
451.15533585921662
 32
0.0
 13
-58.002864355065547
 23
451.15533585921662
 33
0.0
  0
POLYLINE
  5
AAC
  8
0
  6
CONTINUOUS
 66
     1
 10
0.0
 20
0.0
 30
0.0
  0
VERTEX
  5
AAD
  8
0
  6
CONTINUOUS
 10
-57.999992577602953
 20
454.48866795548389
 30
0.0
  0
VERTEX
  5
AAE
  8
0
  6
CONTINUOUS
 10
-206.67073515365701
 20
454.61675278938208
 30
0.0
  0
SEQEND
  5
AAF
  8
0
  6
CONTINUOUS
  0
ENDBLK
  5
AB1
  8
0
  0
BLOCK
  8
0
  2
*U37
 70
     1
 10
0.0
 20
0.0
 30
0.0
  3
*U37
  1

  0
TEXT
  5
AB3
  8
0
  6
CONTINUOUS
 10
-380.96814306634462
 20
447.5567255042526
 30
0.0
 40
20.0
  1
Wall cladding
  7
CORB-11_SIDE_APRON_2_PIEC$
  0
ENDBLK
  5
AB5
  8
0
  0
BLOCK
  8
0
  2
*U38
 70
     1
 10
0.0
 20
0.0
 30
0.0
  3
*U38
  1

  0
SOLID
  5
AB7
  8
0
  6
CONTINUOUS
 10
120.9933904285604
 20
-90.597610232949705
 30
0.0
 11
104.0
 21
-79.537059032687466
 31
0.0
 12
123.662034578453
 22
-84.488372731780814
 32
0.0
 13
123.662034578453
 23
-84.488372731780814
 33
0.0
  0
POLYLINE
  5
AB8
  8
0
  6
CONTINUOUS
 66
     1
 10
0.0
 20
0.0
 30
0.0
  0
VERTEX
  5
AB9
  8
0
  6
CONTINUOUS
 10
122.3277125035067
 20
-87.542991482365267
 30
0.0
  0
VERTEX
  5
ABA
  8
0
  6
CONTINUOUS
 10
183.32926484634299
 20
-114.1897597186516
 30
0.0
  0
VERTEX
  5
ABB
  8
0
  6
CONTINUOUS
 10
203.32926484634299
 20
-114.1897597186516
 30
0.0
  0
SEQEND
  5
ABC
  8
0
  6
CONTINUOUS
  0
ENDBLK
  5
ABE
  8
0
  0
BLOCK
  8
0
  2
*U39
 70
     1
 10
0.0
 20
0.0
 30
0.0
  3
*U39
  1

  0
TEXT
  5
AC0
  8
0
  6
CONTINUOUS
 10
212.07414888454221
 20
-124.1897597186516
 30
0.0
 40
20.0
  1
Stud
  7
CORB-11_SIDE_APRON_2_PIEC$
  0
ENDBLK
  5
AC2
  8
0
  0
BLOCK
  8
0
  2
*U40
 70
     1
 10
0.0
 20
0.0
 30
0.0
  3
*U40
  1

  0
SOLID
  5
AD7
  8
0
  6
CONTINUOUS
 10
-468.44692940675958
 20
74.944880781633302
 30
0.0
 11
-454.7443147097801
 21
60.0
 31
0.0
 12
-472.55323589285803
 22
69.692958134957081
 32
0.0
 13
-472.55323589285803
 23
69.692958134957081
 33
0.0
  0
POLYLINE
  5
AD8
  8
0
  6
CONTINUOUS
 66
     1
 10
0.0
 20
0.0
 30
0.0
  0
VERTEX
  5
AD9
  8
0
  6
CONTINUOUS
 10
-470.5000826498088
 20
72.318919458295184
 30
0.0
  0
VERTEX
  5
ADA
  8
0
  6
CONTINUOUS
 10
-565.0
 20
146.20531300531999
 30
0.0
  0
VERTEX
  5
ADB
  8
0
  6
CONTINUOUS
 10
-585.0
 20
146.20531300531999
 30
0.0
  0
SEQEND
  5
ADC
  8
0
  6
CONTINUOUS
  0
ENDBLK
  5
ADE
  8
0
  0
BLOCK
  8
0
  2
*U41
 70
     1
 10
0.0
 20
0.0
 30
0.0
  3
*U41
  1

  0
TEXT
  5
AE0
  8
0
  6
CONTINUOUS
 10
-706.56889495225107
 20
139.1452857201904
 30
0.0
 40
20.0
  1
Underlay
  7
CORB-11_SIDE_APRON_2_PIEC$
  0
ENDBLK
  5
AE2
  8
0
  0
BLOCK
  8
0
  2
*U42
 70
     1
 10
0.0
 20
0.0
 30
0.0
  3
*U42
  1

  0
SOLID
  5
AE4
  8
0
  6
CONTINUOUS
 10
-361.99768649918099
 20
92.760415191777014
 30
0.0
 11
-347.01237717725422
 21
79.102025256016532
 31
0.0
 12
-365.61741786635048
 22
87.162023523273135
 32
0.0
 13
-365.61741786635048
 23
87.162023523273135
 33
0.0
  0
POLYLINE
  5
AE5
  8
0
  6
CONTINUOUS
 66
     1
 10
0.0
 20
0.0
 30
0.0
  0
VERTEX
  5
AE6
  8
0
  6
CONTINUOUS
 10
-363.80755218276579
 20
89.961219357525067
 30
0.0
  0
VERTEX
  5
AE7
  8
0
  6
CONTINUOUS
 10
-565.0
 20
220.04547521600821
 30
0.0
  0
VERTEX
  5
AE8
  8
0
  6
CONTINUOUS
 10
-585.0
 20
220.04547521600821
 30
0.0
  0
SEQEND
  5
AE9
  8
0
  6
CONTINUOUS
  0
ENDBLK
  5
AEB
  8
0
  0
BLOCK
  8
0
  2
*U43
 70
     1
 10
0.0
 20
0.0
 30
0.0
  3
*U43
  1

  0
TEXT
  5
AED
  8
0
  6
CONTINUOUS
 10
-858.75170532060031
 20
229.65893587994631
 30
0.0
 40
20.0
  1
Steel & Tube Custom
  7
CORB-11_SIDE_APRON_2_PIEC$
  0
TEXT
  5
AEE
  8
0
  6
CONTINUOUS
 10
-816.75989085948174
 20
195.97089586175619
 30
0.0
 40
20.0
  1
Orb profile roofing
  7
CORB-11_SIDE_APRON_2_PIEC$
  0
ENDBLK
  5
AF0
  8
0
  0
BLOCK
  8
0
  2
*U44
 70
     1
 10
0.0
 20
0.0
 30
0.0
  3
*U44
  1

  0
SOLID
  5
AF7
  8
0
  6
CONTINUOUS
 10
10.857468967205071
 20
58.449432914595683
 30
0.0
 11
-6.9204807498967957
 21
68.199079829602852
 31
0.0
 12
13.05854636033702
 22
64.742262385818293
 32
0.0
 13
13.05854636033702
 23
64.742262385818293
 33
0.0
  0
POLYLINE
  5
AF8
  8
0
  6
CONTINUOUS
 66
     1
 10
0.0
 20
0.0
 30
0.0
  0
VERTEX
  5
AF9
  8
0
  6
CONTINUOUS
 10
11.958007663771051
 20
61.595847650206991
 30
0.0
  0
VERTEX
  5
AFA
  8
0
  6
CONTINUOUS
 10
183.3292648463439
 20
1.654385428463683
 30
0.0
  0
VERTEX
  5
AFB
  8
0
  6
CONTINUOUS
 10
203.3292648463439
 20
1.654385428463683
 30
0.0
  0
SEQEND
  5
AFC
  8
0
  6
CONTINUOUS
  0
ENDBLK
  5
AFE
  8
0
  0
BLOCK
  8
0
  2
*U45
 70
     1
 10
0.0
 20
0.0
 30
0.0
  3
*U45
  1

  0
TEXT
  5
B00
  8
0
  6
CONTINUOUS
 10
211.173739607599
 20
-8.1819037939101218
 30
0.0
 40
20.0
  1
Packer
  7
CORB-11_SIDE_APRON_2_PIEC$
  0
ENDBLK
  5
B02
  8
0
  0
BLOCK
  8
0
  2
*U46
 70
     1
 10
0.0
 20
0.0
 30
0.0
  3
*U46
  1

  0
SOLID
  5
B04
  8
0
  6
CONTINUOUS
 10
-70.091583033874599
 20
189.17496238099869
 30
0.0
 11
-54.170735153656089
 21
176.61957652925949
 31
0.0
 12
-73.303013694967404
 22
183.33277464407709
 32
0.0
 13
-73.303013694967404
 23
183.33277464407709
 33
0.0
  0
POLYLINE
  5
B05
  8
0
  6
CONTINUOUS
 66
     1
 10
0.0
 20
0.0
 30
0.0
  0
VERTEX
  5
B06
  8
0
  6
CONTINUOUS
 10
-71.697298364421002
 20
186.25386851253791
 30
0.0
  0
VERTEX
  5
B07
  8
0
  6
CONTINUOUS
 10
-565.0
 20
457.42068008562183
 30
0.0
  0
VERTEX
  5
B08
  8
0
  6
CONTINUOUS
 10
-585.0
 20
457.42068008562183
 30
0.0
  0
SEQEND
  5
B09
  8
0
  6
CONTINUOUS
  0
ENDBLK
  5
B0B
  8
0
  0
BLOCK
  8
0
  2
*U47
 70
     1
 10
0.0
 20
0.0
 30
0.0
  3
*U47
  1

  0
TEXT
  5
B0D
  8
0
  6
CONTINUOUS
 10
-896.85538881309674
 20
480.965473173389
 30
0.0
 40
20.0
  1
Hidden apron flashing to
  7
CORB-11_SIDE_APRON_2_PIEC$
  0
TEXT
  5
B0E
  8
0
  6
CONTINUOUS
 10
-842.61255115961808
 20
447.55028445124248
 30
0.0
 40
20.0
  1
have 50yr durability.
  7
CORB-11_SIDE_APRON_2_PIEC$
  0
TEXT
  5
B0F
  8
0
  6
CONTINUOUS
 10
-751.0027285129604
 20
413.87588699785471
 30
0.0
 40
20.0
  1
See Table 1.
  7
CORB-11_SIDE_APRON_2_PIEC$
  0
ENDBLK
  5
B11
  8
0
  0
BLOCK
  8
0
  2
*U48
 70
     1
 10
0.0
 20
0.0
 30
0.0
  3
*U48
  1

  0
SOLID
  5
B13
  8
0
  6
CONTINUOUS
 10
0.6687056106203322
 20
409.54149955586462
 30
0.0
 11
-18.99999999999682
 21
404.61675278938122
 31
0.0
 12
-1.991682833137371
 22
415.65433668544409
 32
0.0
 13
-1.991682833137371
 23
415.65433668544409
 33
0.0
  0
POLYLINE
  5
B14
  8
0
  6
CONTINUOUS
 66
     1
 10
0.0
 20
0.0
 30
0.0
  0
VERTEX
  5
B15
  8
0
  6
CONTINUOUS
 10
-0.6614886112585197
 20
412.59791812065441
 30
0.0
  0
VERTEX
  5
B16
  8
0
  6
CONTINUOUS
 10
153.32926484634299
 20
479.61675278938208
 30
0.0
  0
VERTEX
  5
B17
  8
0
  6
CONTINUOUS
 10
173.32926484634299
 20
479.61675278938208
 30
0.0
  0
SEQEND
  5
B18
  8
0
  6
CONTINUOUS
  0
ENDBLK
  5
B1A
  8
0
  0
BLOCK
  8
0
  2
*U49
 70
     1
 10
0.0
 20
0.0
 30
0.0
  3
*U49
  1

  0
TEXT
  5
B1C
  8
0
  6
CONTINUOUS
 10
181.28288012601561
 20
489.05968139329309
 30
0.0
 40
20.0
  1
Building
  7
CORB-11_SIDE_APRON_2_PIEC$
  0
TEXT
  5
B1D
  8
0
  6
CONTINUOUS
 10
181.4875185980483
 20
455.72634805995978
 30
0.0
 40
20.0
  1
paper
  7
CORB-11_SIDE_APRON_2_PIEC$
  0
ENDBLK
  5
B1F
  8
0
  0
BLOCK
  8
0
  2
*U50
 70
     1
 10
0.0
 20
0.0
 30
0.0
  3
*U50
  1

  0
SOLID
  5
B5B
  8
0
  6
CONTINUOUS
 10
-142.4201427414512
 20
95.256468960022886
 30
0.0
 11
-126.7414209507233
 21
82.399999999998727
 31
0.0
 12
-145.7423098749332
 22
89.476533840866566
 32
0.0
 13
-145.7423098749332
 23
89.476533840866566
 33
0.0
  0
POLYLINE
  5
B5C
  8
0
  6
CONTINUOUS
 66
     1
 10
0.0
 20
0.0
 30
0.0
  0
VERTEX
  5
B5D
  8
0
  6
CONTINUOUS
 10
-144.08122630819221
 20
92.366501400444719
 30
0.0
  0
VERTEX
  5
B5E
  8
0
  6
CONTINUOUS
 10
-565.0
 20
334.30044823488419
 30
0.0
  0
VERTEX
  5
B5F
  8
0
  6
CONTINUOUS
 10
-585.0
 20
334.30044823488419
 30
0.0
  0
SEQEND
  5
B60
  8
0
  6
CONTINUOUS
  0
ENDBLK
  5
B62
  8
0
  0
BLOCK
  8
0
  2
*U51
 70
     1
 10
0.0
 20
0.0
 30
0.0
  3
*U51
  1

  0
TEXT
  5
B64
  8
0
  6
CONTINUOUS
 10
-746.03683492496589
 20
343.86615992201467
 30
0.0
 40
20.0
  1
Minimum1.5
  7
CORB-11_SIDE_APRON_2_PIEC$
  0
TEXT
  5
B65
  8
0
  6
CONTINUOUS
 10
-858.15143246930415
 20
310.53282658868142
 30
0.0
 40
20.0
  1
corrugations side lap.
  7
CORB-11_SIDE_APRON_2_PIEC$
  0
ENDBLK
  5
B67
  8
0
  0
BLOCK
  8
0
  2
*U52
 70
     1
 10
0.0
 20
0.0
 30
0.0
  3
*U52
  1

  0
SOLID
  5
B69
  8
0
  6
CONTINUOUS
 10
-477.3080344484253
 20
-9.8296022439221282
 30
0.0
 11
-459.57416767218632
 21
0.0
 31
0.0
 12
-473.16146794897821
 22
-15.04979675276059
 32
0.0
 13
-473.16146794897821
 23
-15.04979675276059
 33
0.0
  0
POLYLINE
  5
B6A
  8
0
  6
CONTINUOUS
 66
     1
 10
0.0
 20
0.0
 30
0.0
  0
VERTEX
  5
B6B
  8
0
  6
CONTINUOUS
 10
-475.2347511987017
 20
-12.43969949834136
 30
0.0
  0
VERTEX
  5
B6C
  8
0
  6
CONTINUOUS
 10
-565.0
 20
-83.743091137060219
 30
0.0
  0
VERTEX
  5
B6D
  8
0
  6
CONTINUOUS
 10
-585.0
 20
-83.743091137060219
 30
0.0
  0
SEQEND
  5
B6E
  8
0
  6
CONTINUOUS
  0
ENDBLK
  5
B70
  8
0
  0
BLOCK
  8
0
  2
*U53
 70
     1
 10
0.0
 20
0.0
 30
0.0
  3
*U53
  1

  0
TEXT
  5
B72
  8
0
  6
CONTINUOUS
 10
-664.50886766712142
 20
-93.579380359434026
 30
0.0
 40
20.0
  1
Purlin
  7
CORB-11_SIDE_APRON_2_PIEC$
  0
ENDBLK
  5
B74
  8
0
  0
BLOCK
  8
0
  2
*U54
 70
     1
 10
0.0
 20
0.0
 30
0.0
  3
*U54
  1

  0
TEXT
  5
B76
  8
0
  6
CONTINUOUS
 10
-633.99984103263955
 20
-230.35355564303731
 30
0.0
 40
20.0
  1
LOW / MEDIUM / HIGH WIND ZONES WHERE PITCH    10°
  7
CORB-11_SIDE_APRON_2_PIEC$
  0
ENDBLK
  5
B78
  8
0
  0
BLOCK
  8
0
  2
*U55
 70
     1
 10
0.0
 20
0.0
 30
0.0
  3
*U55
  1

  0
SOLID
  5
B8C
  8
0
  6
CONTINUOUS
 10
-70.091583033874755
 20
-662.84746008144384
 30
0.0
 11
-54.170735153656253
 21
-675.40284593318302
 31
0.0
 12
-73.303013694967547
 22
-668.68964781836542
 32
0.0
 13
-73.303013694967547
 23
-668.68964781836542
 33
0.0
  0
POLYLINE
  5
B8D
  8
0
  6
CONTINUOUS
 66
     1
 10
0.0
 20
0.0
 30
0.0
  0
VERTEX
  5
B8E
  8
0
  6
CONTINUOUS
 10
-71.697298364421144
 20
-665.76855394990457
 30
0.0
  0
VERTEX
  5
B8F
  8
0
  6
CONTINUOUS
 10
-565.00000000000011
 20
-394.60174237682082
 30
0.0
  0
VERTEX
  5
B90
  8
0
  6
CONTINUOUS
 10
-585.00000000000011
 20
-394.60174237682082
 30
0.0
  0
SEQEND
  5
B91
  8
0
  6
CONTINUOUS
  0
ENDBLK
  5
B93
  8
0
  0
BLOCK
  8
0
  2
*U56
 70
     1
 10
0.0
 20
0.0
 30
0.0
  3
*U56
  1

  0
TEXT
  5
B95
  8
0
  6
CONTINUOUS
 10
-896.85538881309685
 20
-371.05694928905359
 30
0.0
 40
20.0
  1
Hidden apron flashing to
  7
CORB-11_SIDE_APRON_2_PIEC$
  0
TEXT
  5
B96
  8
0
  6
CONTINUOUS
 10
-842.61255115961808
 20
-404.47213801119989
 30
0.0
 40
20.0
  1
have 50yr durability.
  7
CORB-11_SIDE_APRON_2_PIEC$
  0
TEXT
  5
B97
  8
0
  6
CONTINUOUS
 10
-751.00272851296052
 20
-438.14653546458788
 30
0.0
 40
20.0
  1
See Table 1.
  7
CORB-11_SIDE_APRON_2_PIEC$
  0
ENDBLK
  5
B99
  8
0
  0
BLOCK
  8
0
  2
*U57
 70
     1
 10
0.0
 20
0.0
 30
0.0
  3
*U57
  1

  0
TEXT
  5
B9F
  8
0
  6
CONTINUOUS
 10
184.987906659261
 20
235.0740083984339
 30
0.0
 40
20.0
  1
75
 50
90.0
  7
CORB-11_SIDE_APRON_2_PIEC0
  0
ENDBLK
  5
BA1
  8
0
  0
BLOCK
  8
0
  2
*U58
 70
     1
 10
0.0
 20
0.0
 30
0.0
  3
*U58
  1

  0
TEXT
  5
BA3
  8
0
  6
CONTINUOUS
 10
184.987906659261
 20
139.8637601353708
 30
0.0
 40
20.0
  1
75
 50
90.0
  7
CORB-11_SIDE_APRON_2_PIEC0
  0
ENDBLK
  5
BA5
  8
0
  0
BLOCK
  8
0
  2
*U59
 70
     1
 10
0.0
 20
0.0
 30
0.0
  3
*U59
  1

  0
TEXT
  5
BA7
  8
0
  6
CONTINUOUS
 10
-297.05272696811721
 20
195.41090484610541
 30
0.0
 40
20.0
  1
25
 50
90.0
  7
CORB-11_SIDE_APRON_2_PIEC0
  0
ENDBLK
  5
BA9
  8
0
  0
BLOCK
  8
0
  2
*U60
 70
     1
 10
0.0
 20
0.0
 30
0.0
  3
*U60
  1

  0
TEXT
  5
BAB
  8
0
  6
CONTINUOUS
 10
184.987906659261
 20
-637.27017714734006
 30
0.0
 40
20.0
  1
75
 50
90.0
  7
CORB-11_SIDE_APRON_2_PIEC0
  0
ENDBLK
  5
BAD
  8
0
  0
BLOCK
  8
0
  2
*U61
 70
     1
 10
0.0
 20
0.0
 30
0.0
  3
*U61
  1

  0
TEXT
  5
BAF
  8
0
  6
CONTINUOUS
 10
184.987906659261
 20
-732.4804254104032
 30
0.0
 40
20.0
  1
75
 50
90.0
  7
CORB-11_SIDE_APRON_2_PIEC0
  0
ENDBLK
  5
BB1
  8
0
  0
BLOCK
  8
0
  2
*U62
 70
     1
 10
0.0
 20
0.0
 30
0.0
  3
*U62
  1

  0
TEXT
  5
BB3
  8
0
  6
CONTINUOUS
 10
-297.05272696811733
 20
-664.92953271121826
 30
0.0
 40
20.0
  1
25
 50
90.0
  7
CORB-11_SIDE_APRON_2_PIEC0
  0
ENDBLK
  5
BB5
  8
0
  0
ENDSEC
  0
SECTION
  2
ENTITIES
  0
POLYLINE
  5
765
  8
0
  6
CONTINUOUS
 66
     1
 10
0.0
 20
0.0
 30
0.0
  0
VERTEX
  5
971
  8
0
  6
CONTINUOUS
 10
-119.00494115756101
 20
-798.80235840871501
 30
0.0
  0
VERTEX
  5
972
  8
0
  6
CONTINUOUS
 10
-134.03423328479491
 20
-808.81886369520362
 30
0.0
 42
-0.3026996289851631
  0
VERTEX
  5
973
  8
0
  6
CONTINUOUS
 10
-157.32677488710669
 20
-808.81886369520362
 30
0.0
  0
VERTEX
  5
974
  8
0
  6
CONTINUOUS
 10
-172.3560670143406
 20
-798.80235840871501
 30
0.0
 42
0.3026996289851622
  0
VERTEX
  5
975
  8
0
  6
CONTINUOUS
 10
-195.2049411575608
 20
-798.80235840871501
 30
0.0
  0
VERTEX
  5
976
  8
0
  6
CONTINUOUS
 10
-210.23423328479481
 20
-808.81886369520362
 30
0.0
 42
-0.3026996289851618
  0
VERTEX
  5
977
  8
0
  6
CONTINUOUS
 10
-233.52677488710651
 20
-808.81886369520362
 30
0.0
  0
VERTEX
  5
978
  8
0
  6
CONTINUOUS
 10
-248.55606701434041
 20
-798.80235840871501
 30
0.0
 42
0.3026996289851622
  0
VERTEX
  5
979
  8
0
  6
CONTINUOUS
 10
-271.4049411575607
 20
-798.80235840871501
 30
0.0
  0
VERTEX
  5
97A
  8
0
  6
CONTINUOUS
 10
-286.43423328479457
 20
-808.81886369520362
 30
0.0
 42
-0.3026996289851631
  0
VERTEX
  5
97B
  8
0
  6
CONTINUOUS
 10
-309.72677488710627
 20
-808.81886369520362
 30
0.0
  0
VERTEX
  5
97C
  8
0
  6
CONTINUOUS
 10
-324.7560670143402
 20
-798.80235840871501
 30
0.0
 42
0.3026996289851622
  0
VERTEX
  5
97D
  8
0
  6
CONTINUOUS
 10
-347.60494115756052
 20
-798.80235840871501
 30
0.0
  0
VERTEX
  5
97E
  8
0
  6
CONTINUOUS
 10
-362.6342332847953
 20
-808.81886369520362
 30
0.0
 42
-0.3026996289851626
  0
VERTEX
  5
97F
  8
0
  6
CONTINUOUS
 10
-385.926774887107
 20
-808.81886369520362
 30
0.0
  0
VERTEX
  5
980
  8
0
  6
CONTINUOUS
 10
-400.95606701434087
 20
-798.80235840871501
 30
0.0
 42
0.3026996289851622
  0
VERTEX
  5
981
  8
0
  6
CONTINUOUS
 10
-423.80494115756028
 20
-798.80235840871501
 30
0.0
  0
VERTEX
  5
982
  8
0
  6
CONTINUOUS
 10
-438.83423328479512
 20
-808.81886369520362
 30
0.0
 42
-0.3026996289851623
  0
VERTEX
  5
983
  8
0
  6
CONTINUOUS
 10
-462.12677488710682
 20
-808.81886369520362
 30
0.0
  0
VERTEX
  5
984
  8
0
  6
CONTINUOUS
 10
-477.15606701434081
 20
-798.80235840871501
 30
0.0
 42
0.3026996289851622
  0
VERTEX
  5
985
  8
0
  6
CONTINUOUS
 10
-500.00494115756089
 20
-798.80235840871501
 30
0.0
  0
SEQEND
  5
986
  8
0
  6
CONTINUOUS
  0
INSERT
  5
766
  8
0
  6
CONTINUOUS
  2
*U19
 10
0.0
 20
0.0
 30
0.0
1001
ACAD
1000
DSTYLE
1002
{
1070
   176
1070
   256
1070
    77
1070
     0
1070
   147
1040
1.0
1070
   342
1005
0
1002
}
  0
INSERT
  5
767
  8
0
  6
CONTINUOUS
  2
*U20
 10
0.0
 20
0.0
 30
0.0
  0
POLYLINE
  5
768
  8
0
  6
CONTINUOUS
 66
     1
 10
0.0
 20
0.0
 30
0.0
 70
   128
1001
GENIUS_GENREC_14
1002
{
1000
PYDIR
1011
4.0
1021
0.0
1031
0.0
1021
-1043.129226175238
1031
0.0
1002
}
1002
{
1000
PXDIR
1011
104.0
1021
0.0
1031
0.0
1021
-365.65545605015541
1031
0.0
1002
}
1002
{
1000
PORI
1011
4.0
1021
0.0
1031
0.0
1021
-365.65545605015541
1031
0.0
1002
}
1002
{
1000
PINS
1011
4.0
1021
0.0
1031
0.0
1021
-365.65545605015541
1031
0.0
1002
}
1002
{
1000
PINS2
1011
104.0
1021
0.0
1031
0.0
1021
-1043.129226175238
1031
0.0
1002
}
1002
{
1000
C
1070
     1
1002
}
1001
GENIUS_GENODEF_13
1002
{
1000
HIER
1070
     0
1002
}
1002
{
1000
MANEDIT
1070
     0
1002
}
1002
{
1000
NOSEL
1070
     0
1002
}
1002
{
1000
BEHIND
1070
     0
1002
}
1002
{
1000
OTHER
1070
     0
1002
}
1002
{
1000
REACTOR
1002
}
1001
GENIUS_GENOBJ-N-REC_13
1002
{
1000
OWNER
1000
GEN
1002
}
  0
VERTEX
  5
994
  8
0
  6
CONTINUOUS
 10
104.0
 20
-365.65545605015541
 30
0.0
  0
VERTEX
  5
995
  8
0
  6
CONTINUOUS
 10
104.0
 20
-1043.129226175238
 30
0.0
  0
SEQEND
  5
996
  8
0
  6
CONTINUOUS
  0
POLYLINE
  5
769
  8
0
  6
CONTINUOUS
 66
     1
 10
0.0
 20
0.0
 30
0.0
 70
   128
1001
GENIUS_GENREC_14
1002
{
1000
PYDIR
1011
4.0
1021
0.0
1031
0.0
1021
-1043.129226175238
1031
0.0
1002
}
1002
{
1000
PXDIR
1011
104.0
1021
0.0
1031
0.0
1021
-365.65545605015541
1031
0.0
1002
}
1002
{
1000
PORI
1011
4.0
1021
0.0
1031
0.0
1021
-365.65545605015541
1031
0.0
1002
}
1002
{
1000
PINS
1011
4.0
1021
0.0
1031
0.0
1021
-365.65545605015541
1031
0.0
1002
}
1002
{
1000
PINS2
1011
104.0
1021
0.0
1031
0.0
1021
-1043.129226175238
1031
0.0
1002
}
1002
{
1000
C
1070
     1
1002
}
1001
GENIUS_GENODEF_13
1002
{
1000
HIER
1070
     0
1002
}
1002
{
1000
MANEDIT
1070
     0
1002
}
1002
{
1000
NOSEL
1070
     0
1002
}
1002
{
1000
BEHIND
1070
     0
1002
}
1002
{
1000
OTHER
1070
     0
1002
}
1002
{
1000
REACTOR
1002
}
1001
GENIUS_GENOBJ-N-REC_13
1002
{
1000
OWNER
1000
GEN
1002
}
  0
VERTEX
  5
997
  8
0
  6
CONTINUOUS
 10
4.0
 20
-1043.129226175238
 30
0.0
  0
VERTEX
  5
998
  8
0
  6
CONTINUOUS
 10
4.0
 20
-365.65545605015541
 30
0.0
  0
SEQEND
  5
999
  8
0
  6
CONTINUOUS
  0
POLYLINE
  5
76A
  8
0
  6
CONTINUOUS
 66
     1
 10
0.0
 20
0.0
 30
0.0
 70
   128
  0
VERTEX
  5
99A
  8
0
  6
CONTINUOUS
 10
-16.0
 20
-1043.129226175238
 30
0.0
  0
VERTEX
  5
99B
  8
0
  6
CONTINUOUS
 10
49.0
 20
-1043.129226175238
 30
0.0
  0
VERTEX
  5
99C
  8
0
  6
CONTINUOUS
 10
51.5
 20
-1049.9979197238731
 30
0.0
  0
VERTEX
  5
99D
  8
0
  6
CONTINUOUS
 10
56.5
 20
-1036.2605326265971
 30
0.0
  0
VERTEX
  5
99E
  8
0
  6
CONTINUOUS
 10
59.0
 20
-1043.129226175238
 30
0.0
  0
VERTEX
  5
99F
  8
0
  6
CONTINUOUS
 10
124.0
 20
-1043.129226175238
 30
0.0
  0
SEQEND
  5
9A0
  8
0
  6
CONTINUOUS
  0
POLYLINE
  5
76B
  8
0
  6
CONTINUOUS
 66
     1
 10
0.0
 20
0.0
 30
0.0
 70
   128
  0
VERTEX
  5
9A1
  8
0
  6
CONTINUOUS
 10
-45.0
 20
-365.65545605015541
 30
0.0
  0
VERTEX
  5
9A2
  8
0
  6
CONTINUOUS
 10
45.0
 20
-365.65545605015541
 30
0.0
  0
VERTEX
  5
9A3
  8
0
  6
CONTINUOUS
 10
47.5
 20
-372.5241495987957
 30
0.0
  0
VERTEX
  5
9A4
  8
0
  6
CONTINUOUS
 10
52.5
 20
-358.78676250152421
 30
0.0
  0
VERTEX
  5
9A5
  8
0
  6
CONTINUOUS
 10
55.0
 20
-365.65545605015541
 30
0.0
  0
VERTEX
  5
9A6
  8
0
  6
CONTINUOUS
 10
120.0
 20
-365.65545605015541
 30
0.0
  0
SEQEND
  5
9A7
  8
0
  6
CONTINUOUS
  0
POLYLINE
  5
76C
  8
0
  6
CONTINUOUS
 66
     1
 10
0.0
 20
0.0
 30
0.0
 70
   128
1001
GENIUS_GENREC_14
1002
{
1000
PYDIR
1011
-23.999999999998181
1021
0.0
1031
0.0
1021
-659.23410073316882
1031
0.0
1002
}
1002
{
1000
PXDIR
1011
-36.0
1021
0.0
1031
0.0
1021
-255.26469362146139
1031
0.0
1002
}
1002
{
1000
PORI
1011
-24.0
1021
0.0
1031
0.0
1021
-255.26469362146139
1031
0.0
1002
}
1002
{
1000
PINS
1011
-24.0
1021
0.0
1031
0.0
1021
-255.26469362146139
1031
0.0
1002
}
1002
{
1000
PINS2
1011
-37.999999999998181
1021
0.0
1031
0.0
1021
-659.23410073316882
1031
0.0
1002
}
1002
{
1000
C
1070
     1
1002
}
1001
GENIUS_GENOBJ-N-REC_13
1002
{
1000
OWNER
1000
GEN
1002
}
1001
GENIUS_GENODEF_13
1002
{
1000
HIER
1070
     0
1002
}
1002
{
1000
MANEDIT
1070
     0
1002
}
1002
{
1000
NOSEL
1070
     0
1002
}
1002
{
1000
BEHIND
1070
     0
1002
}
1002
{
1000
OTHER
1070
     0
1002
}
1002
{
1000
REACTOR
1002
}
  0
VERTEX
  5
9A8
  8
0
  6
CONTINUOUS
 10
-38.0
 20
-365.65545605015541
 30
0.0
  0
VERTEX
  5
9A9
  8
0
  6
CONTINUOUS
 10
-37.999999999998181
 20
-659.23410073316882
 30
0.0
  0
VERTEX
  5
9AA
  8
0
  6
CONTINUOUS
 10
-23.999999999998181
 20
-659.23410073316882
 30
0.0
  0
VERTEX
  5
9AB
  8
0
  6
CONTINUOUS
 10
-24.0
 20
-365.65545605015541
 30
0.0
  0
SEQEND
  5
9AC
  8
0
  6
CONTINUOUS
  0
INSERT
  5
76D
  8
0
  6
CONTINUOUS
  2
*U21
 10
0.0
 20
0.0
 30
0.0
1001
ACAD
1000
DSTYLE
1002
{
1070
   176
1070
   256
1070
    77
1070
     0
1070
   147
1040
1.0
1070
   342
1005
0
1002
}
  0
INSERT
  5
76E
  8
0
  6
CONTINUOUS
  2
*U22
 10
0.0
 20
0.0
 30
0.0
  0
INSERT
  5
76F
  8
0
  6
CONTINUOUS
  2
*U23
 10
0.0
 20
0.0
 30
0.0
1001
ACAD
1000
DSTYLE
1002
{
1070
   176
1070
   256
1070
    77
1070
     0
1070
   147
1040
1.0
1070
   342
1005
0
1002
}
  0
INSERT
  5
770
  8
0
  6
CONTINUOUS
  2
*U24
 10
0.0
 20
0.0
 30
0.0
  0
LINE
  5
771
  8
0
  6
CONTINUOUS
 10
-188.28050408595021
 20
-777.94418554577624
 30
0.0
 11
-190.78050408595109
 21
-778.4441855457743
 31
0.0
  0
LINE
  5
772
  8
0
  6
CONTINUOUS
 10
-179.280504085953
 20
-777.94418554577442
 30
0.0
 11
-188.2805040859493
 21
-777.94418554577442
 31
0.0
  0
LINE
  5
773
  8
0
  6
CONTINUOUS
 10
-186.03050408594979
 20
-777.94418554577442
 30
0.0
 11
-186.03050408594979
 21
-774.26561411720195
 31
0.0
  0
LINE
  5
774
  8
0
  6
CONTINUOUS
 10
-181.53050408595431
 20
-777.94418554577442
 30
0.0
 11
-181.53050408595249
 21
-774.26561411720195
 31
0.0
  0
LINE
  5
775
  8
0
  6
CONTINUOUS
 10
-179.280504085953
 20
-777.94418554577442
 30
0.0
 11
-179.280504085953
 21
-774.26561411720195
 31
0.0
  0
LINE
  5
776
  8
0
  6
CONTINUOUS
 10
-188.2805040859493
 20
-777.94418554577442
 30
0.0
 11
-188.28050408595161
 21
-774.26561411720195
 31
0.0
  0
LINE
  5
777
  8
0
  6
CONTINUOUS
 10
-176.78050408595121
 20
-779.94418554577351
 30
0.0
 11
-190.78050408595109
 21
-779.94418554577351
 31
0.0
  0
ARC
  5
778
  8
0
  6
CONTINUOUS
 10
-183.78050408595391
 20
-781.97989983148727
 30
0.0
 40
8.0357142857142811
 50
73.739795291652612
 51
106.2602047083473
  0
ARC
  5
779
  8
0
  6
CONTINUOUS
 10
-187.15550408595249
 20
-776.07364983148716
 30
0.0
 40
2.1294642857139432
 50
58.10920819816608
 51
121.8907918018339
  0
ARC
  5
77A
  8
0
  6
CONTINUOUS
 10
-180.40550408595161
 20
-776.07364983148716
 30
0.0
 40
2.1294642857139432
 50
58.10920819816608
 51
121.8907918018339
  0
LINE
  5
77B
  8
0
  6
CONTINUOUS
 10
-187.15550408595249
 20
-773.94418554577351
 30
0.0
 11
-180.40550408595161
 21
-773.9441855457743
 31
0.0
  0
LINE
  5
77C
  8
0
  6
CONTINUOUS
 10
-176.78050408595121
 20
-778.44418554577351
 30
0.0
 11
-179.28050408595209
 21
-777.94418554577442
 31
0.0
  0
LINE
  5
77D
  8
0
  6
CONTINUOUS
 10
-190.78050408595109
 20
-779.94418554577351
 30
0.0
 11
-190.78050408595109
 21
-778.4441855457743
 31
0.0
  0
LINE
  5
77E
  8
0
  6
CONTINUOUS
 10
-176.78050408595121
 20
-779.94418554577351
 30
0.0
 11
-176.78050408595121
 21
-778.44418554577351
 31
0.0
  0
LINE
  5
77F
  8
0
  6
CONTINUOUS
 10
-186.33050408595221
 20
-798.43376738478935
 30
0.0
 11
-181.23050408595279
 21
-795.73782460419625
 31
0.0
  0
LINE
  5
780
  8
0
  6
CONTINUOUS
 10
-186.33050408595221
 20
-803.25685284854887
 30
0.0
 11
-181.2305040859523
 21
-800.56091006795577
 31
0.0
  0
LINE
  5
781
  8
0
  6
CONTINUOUS
 10
-186.33050408595221
 20
-808.07993831230851
 30
0.0
 11
-181.2305040859523
 21
-805.3839955317153
 31
0.0
  0
LINE
  5
782
  8
0
  6
CONTINUOUS
 10
-186.33050408595221
 20
-812.90302377606804
 30
0.0
 11
-181.2305040859523
 21
-810.20708099547562
 31
0.0
  0
LINE
  5
783
  8
0
  6
CONTINUOUS
 10
-186.33050408595221
 20
-817.72610923982666
 30
0.0
 11
-181.2305040859523
 21
-815.03016645923435
 31
0.0
  0
LINE
  5
784
  8
0
  6
CONTINUOUS
 10
-186.33050408595221
 20
-822.54919470358709
 30
0.0
 11
-181.2305040859523
 21
-819.85325192299388
 31
0.0
  0
LINE
  5
785
  8
0
  6
CONTINUOUS
 10
-186.33050408595221
 20
-827.37228016734662
 30
0.0
 11
-181.23050408595191
 21
-824.67633738675329
 31
0.0
  0
LINE
  5
786
  8
0
  6
CONTINUOUS
 10
-186.33050408595221
 20
-832.19536563110614
 30
0.0
 11
-181.23050408595191
 21
-829.49942285051281
 31
0.0
  0
LINE
  5
787
  8
0
  6
CONTINUOUS
 10
-186.33050408595221
 20
-837.01845109486464
 30
0.0
 11
-181.23050408595191
 21
-834.32250831427245
 31
0.0
  0
LINE
  5
788
  8
0
  6
CONTINUOUS
 10
-181.53050408595249
 20
-782.94418554577339
 30
0.0
 11
-181.53050408595249
 21
-794.94418554577351
 31
0.0
  0
LINE
  5
789
  8
0
  6
CONTINUOUS
 10
-186.03050408595249
 20
-782.94418554577339
 30
0.0
 11
-186.03050408595249
 21
-794.94418554577351
 31
0.0
  0
LINE
  5
78A
  8
0
  6
CONTINUOUS
 10
-183.78050408595249
 20
-845.84678863597856
 30
0.0
 11
-186.33050408595221
 21
-840.34678863597856
 31
0.0
  0
LINE
  5
78B
  8
0
  6
CONTINUOUS
 10
-183.78050408595249
 20
-845.84678863597856
 30
0.0
 11
-181.23050408595191
 21
-840.34678863597583
 31
0.0
  0
LINE
  5
78C
  8
0
  6
CONTINUOUS
 10
-176.78050408595121
 20
-778.44418554577351
 30
0.0
 11
-190.78050408595109
 21
-778.44418554577351
 31
0.0
  0
LINE
  5
78D
  8
0
  6
CONTINUOUS
 10
-186.33050408595221
 20
-794.94418554577351
 30
0.0
 11
-186.33050408595221
 21
-840.34678863597856
 31
0.0
  0
LINE
  5
78E
  8
0
  6
CONTINUOUS
 10
-181.2305040859523
 20
-794.94418554577351
 30
0.0
 11
-181.23050408595191
 21
-840.34678863597583
 31
0.0
  0
LINE
  5
78F
  8
0
  6
CONTINUOUS
 10
-178.28050408595109
 20
-782.94418554577339
 30
0.0
 11
-189.28050408595121
 21
-782.94418554577339
 31
0.0
  0
LINE
  5
790
  8
0
  6
CONTINUOUS
 10
-178.28050408595109
 20
-779.94418554577351
 30
0.0
 11
-178.28050408595109
 21
-782.94418554577339
 31
0.0
  0
LINE
  5
791
  8
0
  6
CONTINUOUS
 10
-189.28050408595121
 20
-779.94418554577351
 30
0.0
 11
-189.28050408595121
 21
-782.94418554577339
 31
0.0
  0
LINE
  5
792
  8
0
  6
CONTINUOUS
 10
-181.2305040859523
 20
-794.94418554577351
 30
0.0
 11
-186.33050408595221
 21
-794.94418554577351
 31
0.0
  0
LINE
  5
793
  8
0
  6
CONTINUOUS
 10
-185.77390024146999
 20
-841.5473067319208
 30
0.0
 11
-181.23050408595191
 21
-839.14559377803096
 31
0.0
  0
SOLID
  5
794
  8
0
  6
CONTINUOUS
 10
-178.28050408595109
 20
-782.94418554577339
 30
0.0
 11
-178.28050408595109
 21
-779.94418554577351
 31
0.0
 12
-189.28050408595121
 22
-782.94418554577339
 32
0.0
 13
-189.28050408595121
 23
-779.94418554577351
 33
0.0
  0
POLYLINE
  5
795
  8
0
  6
CONTINUOUS
 66
     1
 10
0.0
 20
0.0
 30
0.0
 70
   128
1001
GENIUS_GENREC_14
1002
{
1000
PYDIR
1011
-500.0
1021
0.0
1031
0.0
1021
-822.34418554577405
1031
0.0
1002
}
1002
{
1000
PXDIR
1011
0.0
1021
0.0
1031
0.0
1021
-872.34418554577405
1031
0.0
1002
}
1002
{
1000
PORI
1011
-500.0
1021
0.0
1031
0.0
1021
-872.34418554577405
1031
0.0
1002
}
1002
{
1000
PINS
1011
-500.0
1021
0.0
1031
0.0
1021
-872.34418554577405
1031
0.0
1002
}
1002
{
1000
PINS2
1011
0.0
1021
0.0
1031
0.0
1021
-822.34418554577405
1031
0.0
1002
}
1002
{
1000
C
1070
     1
1002
}
1001
GENIUS_GENODEF_13
1002
{
1000
HIER
1070
     0
1002
}
1002
{
1000
MANEDIT
1070
     0
1002
}
1002
{
1000
NOSEL
1070
     0
1002
}
1002
{
1000
BEHIND
1070
     0
1002
}
1002
{
1000
OTHER
1070
     0
1002
}
1002
{
1000
REACTOR
1002
}
1001
GENIUS_GENOBJ-N-REC_13
1002
{
1000
OWNER
1000
GEN
1002
}
  0
VERTEX
  5
9C6
  8
0
  6
CONTINUOUS
 10
-500.0
 20
-872.34418554577405
 30
0.0
  0
VERTEX
  5
9C7
  8
0
  6
CONTINUOUS
 10
0.0
 20
-872.34418554577405
 30
0.0
  0
VERTEX
  5
9C8
  8
0
  6
CONTINUOUS
 10
0.0
 20
-822.34418554577405
 30
0.0
  0
VERTEX
  5
9C9
  8
0
  6
CONTINUOUS
 10
-500.0
 20
-822.34418554577405
 30
0.0
  0
SEQEND
  5
9CA
  8
0
  6
CONTINUOUS
  0
POLYLINE
  5
796
  8
0
  6
CORB-11_SIDE_APRON_2_PIEC0
 66
     1
 10
0.0
 20
0.0
 30
0.0
 70
   128
  0
VERTEX
  5
9CB
  8
0
  6
CORB-11_SIDE_APRON_2_PIEC0
 10
-1.0
 20
-696.80757426881326
 30
0.0
  0
VERTEX
  5
9CC
  8
0
  6
CORB-11_SIDE_APRON_2_PIEC0
 10
-1.0000000000040921
 20
-807.34418554577405
 30
0.0
 42
-0.414213562373093
  0
VERTEX
  5
9CD
  8
0
  6
CORB-11_SIDE_APRON_2_PIEC0
 10
-11.000000000004089
 20
-817.34418554577405
 30
0.0
  0
VERTEX
  5
9CE
  8
0
  6
CORB-11_SIDE_APRON_2_PIEC0
 10
-70.0
 20
-817.34418554577405
 30
0.0
  0
VERTEX
  5
9CF
  8
0
  6
CORB-11_SIDE_APRON_2_PIEC0
 10
-120.0
 20
-817.34418554577405
 30
0.0
  0
VERTEX
  5
9D0
  8
0
  6
CORB-11_SIDE_APRON_2_PIEC0
 10
-497.4558252589722
 20
-817.34418554577405
 30
0.0
  0
SEQEND
  5
9D1
  8
0
  6
CORB-11_SIDE_APRON_2_PIEC0
  0
POLYLINE
  5
797
  8
0
  6
CORB-11_SIDE_APRON_2_PIEC$
 66
     1
 10
0.0
 20
0.0
 30
0.0
 70
   128
  0
VERTEX
  5
9D2
  8
0
  6
CORB-11_SIDE_APRON_2_PIEC$
 10
-500.0
 20
-892.34418554577405
 30
0.0
  0
VERTEX
  5
9D3
  8
0
  6
CORB-11_SIDE_APRON_2_PIEC$
 10
-500.0
 20
-839.32625395539253
 30
0.0
  0
VERTEX
  5
9D4
  8
0
  6
CORB-11_SIDE_APRON_2_PIEC$
 10
-493.13130645135971
 20
-836.82625395539242
 30
0.0
  0
VERTEX
  5
9D5
  8
0
  6
CORB-11_SIDE_APRON_2_PIEC$
 10
-506.86869354864029
 20
-831.82625395539253
 30
0.0
  0
VERTEX
  5
9D6
  8
0
  6
CORB-11_SIDE_APRON_2_PIEC$
 10
-500.0
 20
-829.32625395539253
 30
0.0
  0
VERTEX
  5
9D7
  8
0
  6
CORB-11_SIDE_APRON_2_PIEC$
 10
-500.0
 20
-776.3083223650101
 30
0.0
  0
SEQEND
  5
9D8
  8
0
  6
CORB-11_SIDE_APRON_2_PIEC$
  0
INSERT
  5
798
  8
0
  6
CONTINUOUS
  2
*U25
 10
0.0
 20
0.0
 30
0.0
1001
ACAD
1000
DSTYLE
1002
{
1070
   176
1070
   256
1070
    77
1070
     0
1070
   147
1040
1.0
1070
   342
1005
0
1002
}
  0
INSERT
  5
799
  8
0
  6
CONTINUOUS
  2
*U26
 10
0.0
 20
0.0
 30
0.0
  0
INSERT
  5
79A
  8
0
  6
CONTINUOUS
  2
*U27
 10
0.0
 20
0.0
 30
0.0
1001
ACAD
1000
DSTYLE
1002
{
1070
   176
1070
   256
1070
    77
1070
     0
1070
   147
1040
1.0
1070
   342
1005
0
1002
}
  0
INSERT
  5
79B
  8
0
  6
CONTINUOUS
  2
*U28
 10
0.0
 20
0.0
 30
0.0
  0
POLYLINE
  5
79C
  8
0
  6
CONTINUOUS
 66
     1
 10
0.0
 20
0.0
 30
0.0
 70
   129
1001
GENIUS_GENREC_14
1002
{
1000
PYDIR
1011
-50.0
1021
0.0
1031
0.0
1021
-972.34418554577405
1031
0.0
1002
}
1002
{
1000
PXDIR
1011
0.0
1021
0.0
1031
0.0
1021
-872.34418554577405
1031
0.0
1002
}
1002
{
1000
PORI
1011
-50.0
1021
0.0
1031
0.0
1021
-872.34418554577405
1031
0.0
1002
}
1002
{
1000
PINS
1011
-50.0
1021
0.0
1031
0.0
1021
-872.34418554577405
1031
0.0
1002
}
1002
{
1000
PINS2
1011
0.0
1021
0.0
1031
0.0
1021
-972.34418554577405
1031
0.0
1002
}
1002
{
1000
C
1070
     1
1002
}
1001
GENIUS_GENODEF_13
1002
{
1000
HIER
1070
     0
1002
}
1002
{
1000
MANEDIT
1070
     0
1002
}
1002
{
1000
NOSEL
1070
     0
1002
}
1002
{
1000
BEHIND
1070
     0
1002
}
1002
{
1000
OTHER
1070
     0
1002
}
1002
{
1000
REACTOR
1002
}
1001
GENIUS_GENOBJ-N-REC_13
1002
{
1000
OWNER
1000
GEN
1002
}
  0
VERTEX
  5
9F4
  8
0
  6
CONTINUOUS
 10
-50.0
 20
-872.34418554577405
 30
0.0
  0
VERTEX
  5
9F5
  8
0
  6
CONTINUOUS
 10
0.0
 20
-872.34418554577405
 30
0.0
  0
VERTEX
  5
9F6
  8
0
  6
CONTINUOUS
 10
0.0
 20
-972.34418554577405
 30
0.0
  0
VERTEX
  5
9F7
  8
0
  6
CONTINUOUS
 10
-50.0
 20
-972.34418554577405
 30
0.0
  0
SEQEND
  5
9F8
  8
0
  6
CONTINUOUS
  0
LINE
  5
79D
  8
0
  6
CONTINUOUS
 10
0.0
 20
-972.34418554577405
 30
0.0
 11
-50.0
 21
-872.34418554577405
 31
0.0
  0
LINE
  5
79E
  8
0
  6
CONTINUOUS
 10
-50.0
 20
-972.34418554577405
 30
0.0
 11
0.0
 21
-872.34418554577405
 31
0.0
  0
DIMENSION
  5
79F
  8
0
  6
CONTINUOUS
  2
*D12
 10
-286.67073515365621
 20
-762.94418554577248
 30
0.0
 11
-282.25171768564093
 21
-649.54071961435602
 31
0.0
 70
   128
 13
-206.6811708838668
 23
-787.94418554577533
 33
0.0
 14
-58.908762381717217
 24
-762.94418554577248
 34
0.0
 50
90.0
  0
INSERT
  5
7A0
  8
0
  6
CONTINUOUS
  2
*U29
 10
0.0
 20
0.0
 30
0.0
1001
ACAD
1000
DSTYLE
1002
{
1070
   176
1070
   256
1070
    77
1070
     0
1070
   147
1040
1.0
1070
   342
1005
0
1002
}
  0
INSERT
  5
7A1
  8
0
  6
CONTINUOUS
  2
*U30
 10
0.0
 20
0.0
 30
0.0
  0
INSERT
  5
7A2
  8
0
  6
CONTINUOUS
  2
*U31
 10
0.0
 20
0.0
 30
0.0
1001
ACAD
1000
DSTYLE
1002
{
1070
   176
1070
   256
1070
    77
1070
     0
1070
   147
1040
1.0
1070
   342
1005
0
1002
}
  0
INSERT
  5
7A3
  8
0
  6
CONTINUOUS
  2
*U32
 10
0.0
 20
0.0
 30
0.0
  0
POLYLINE
  5
7A4
  8
0
  6
CONTINUOUS
 66
     1
 10
0.0
 20
0.0
 30
0.0
  0
VERTEX
  5
A14
  8
0
  6
CONTINUOUS
 10
-500.22677488710627
 20
-798.46950739634485
 30
0.0
 42
-0.3026996289851615
  0
VERTEX
  5
A15
  8
0
  6
CONTINUOUS
 10
-476.93423328479452
 20
-798.46950739634485
 30
0.0
  0
VERTEX
  5
A16
  8
0
  6
CONTINUOUS
 10
-461.90494115756059
 20
-808.48601268283346
 30
0.0
 42
0.302699628985159
  0
VERTEX
  5
A17
  8
0
  6
CONTINUOUS
 10
-439.05606701434039
 20
-808.48601268283346
 30
0.0
  0
VERTEX
  5
A18
  8
0
  6
CONTINUOUS
 10
-424.0267748871064
 20
-798.46950739634485
 30
0.0
 42
-0.3026996289851651
  0
VERTEX
  5
A19
  8
0
  6
CONTINUOUS
 10
-400.7342332847947
 20
-798.46950739634485
 30
0.0
  0
VERTEX
  5
A1A
  8
0
  6
CONTINUOUS
 10
-385.70494115756082
 20
-808.48601268283346
 30
0.0
 42
0.3026996289851599
  0
VERTEX
  5
A1B
  8
0
  6
CONTINUOUS
 10
-362.85606701434062
 20
-808.48601268283346
 30
0.0
  0
VERTEX
  5
A1C
  8
0
  6
CONTINUOUS
 10
-347.82677488710669
 20
-798.46950739634485
 30
0.0
 42
-0.3026996289851595
  0
VERTEX
  5
A1D
  8
0
  6
CONTINUOUS
 10
-324.53423328479499
 20
-798.46950739634485
 30
0.0
  0
VERTEX
  5
A1E
  8
0
  6
CONTINUOUS
 10
-309.50494115756101
 20
-808.48601268283346
 30
0.0
 42
0.3026996289851599
  0
VERTEX
  5
A1F
  8
0
  6
CONTINUOUS
 10
-286.65606701434081
 20
-808.48601268283346
 30
0.0
  0
VERTEX
  5
A20
  8
0
  6
CONTINUOUS
 10
-271.62677488710602
 20
-798.46950739634485
 30
0.0
 42
-0.302699628985166
  0
VERTEX
  5
A21
  8
0
  6
CONTINUOUS
 10
-248.33423328479421
 20
-798.46950739634485
 30
0.0
  0
VERTEX
  5
A22
  8
0
  6
CONTINUOUS
 10
-233.30494115756031
 20
-808.48601268283346
 30
0.0
 42
0.3026996289851595
  0
VERTEX
  5
A23
  8
0
  6
CONTINUOUS
 10
-210.45606701434099
 20
-808.48601268283346
 30
0.0
  0
VERTEX
  5
A24
  8
0
  6
CONTINUOUS
 10
-195.426774887107
 20
-798.46950739634485
 30
0.0
 42
-0.3026996289851595
  0
VERTEX
  5
A25
  8
0
  6
CONTINUOUS
 10
-172.1342332847953
 20
-798.46950739634485
 30
0.0
  0
VERTEX
  5
A26
  8
0
  6
CONTINUOUS
 10
-157.1049411575604
 20
-808.48601268283346
 30
0.0
 42
0.3026996289851634
  0
VERTEX
  5
A27
  8
0
  6
CONTINUOUS
 10
-134.2560670143402
 20
-808.48601268283346
 30
0.0
  0
VERTEX
  5
A28
  8
0
  6
CONTINUOUS
 10
-119.2267748871063
 20
-798.46950739634485
 30
0.0
  0
SEQEND
  5
A29
  8
0
  6
CONTINUOUS
  0
LINE
  5
7A5
  8
0
  6
CONTINUOUS
 10
-29.586964539937981
 20
-804.1451057161712
 30
0.0
 11
-29.586964539931611
 21
-696.80757426881326
 31
0.0
  0
LINE
  5
7A6
  8
0
  6
CONTINUOUS
 10
-6.9204807498940681
 20
-696.80757426881326
 30
0.0
 11
-6.9204807498967957
 21
-804.1451057161712
 31
0.0
  0
LINE
  5
7A7
  8
0
  6
CONTINUOUS
 10
-29.586964539931611
 20
-696.80757426881326
 30
0.0
 11
-6.9204807498940681
 21
-696.80757426881326
 31
0.0
  0
LINE
  5
7A8
  8
0
  6
CONTINUOUS
 10
-29.586964539937981
 20
-804.1451057161712
 30
0.0
 11
-6.9204807498967957
 21
-804.1451057161712
 31
0.0
  0
LINE
  5
7A9
  8
0
  6
CONTINUOUS
 10
-29.586964539937981
 20
-804.1451057161712
 30
0.0
 11
-6.9204807498940681
 21
-696.80757426881326
 31
0.0
  0
LINE
  5
7AA
  8
0
  6
CONTINUOUS
 10
-29.586964539931611
 20
-696.80757426881326
 30
0.0
 11
-6.9204807498967957
 21
-804.1451057161712
 31
0.0
  0
DIMENSION
  5
7AB
  8
0
  6
CONTINUOUS
  2
*D13
 10
195.32897077931551
 20
-687.73393728270912
 30
0.0
 11
195.32897077931551
 21
-716.83922486470055
 31
0.0
 70
   128
  1
75
 13
-58.908762381717217
 23
-762.94418554577248
 33
0.0
 14
-39.63206537492124
 24
-687.73393728270912
 34
0.0
 50
90.0
  0
LINE
  5
7AC
  8
0
  6
CORB-11_SIDE_APRON_2_PIEC0
 10
-18.999999999995001
 20
-659.23410073316882
 30
0.0
 11
-18.999999999998181
 21
-365.65545605015541
 31
0.0
  0
POLYLINE
  5
7AD
  8
0
  6
CONTINUOUS
 66
     1
 10
0.0
 20
0.0
 30
0.0
  0
VERTEX
  5
A2A
  8
0
  6
CONTINUOUS
 10
-42.804941157560272
 20
-798.80235840871501
 30
0.0
  0
VERTEX
  5
A2B
  8
0
  6
CONTINUOUS
 10
-57.834233284794209
 20
-808.81886369520362
 30
0.0
 42
-0.3026996289851631
  0
VERTEX
  5
A2C
  8
0
  6
CONTINUOUS
 10
-81.126774887105967
 20
-808.81886369520362
 30
0.0
  0
VERTEX
  5
A2D
  8
0
  6
CONTINUOUS
 10
-96.156067014339897
 20
-798.80235840871501
 30
0.0
 42
0.3026996289851622
  0
VERTEX
  5
A2E
  8
0
  6
CONTINUOUS
 10
-119.0049411575601
 20
-798.80235840871501
 30
0.0
  0
VERTEX
  5
A2F
  8
0
  6
CONTINUOUS
 10
-134.034233284794
 20
-808.81886369520362
 30
0.0
 42
-0.3026996289851618
  0
VERTEX
  5
A30
  8
0
  6
CONTINUOUS
 10
-157.32677488710581
 20
-808.81886369520362
 30
0.0
  0
VERTEX
  5
A31
  8
0
  6
CONTINUOUS
 10
-172.35606701433969
 20
-798.80235840871501
 30
0.0
 42
0.3026996289851622
  0
VERTEX
  5
A32
  8
0
  6
CONTINUOUS
 10
-195.20494115755989
 20
-798.80235840871501
 30
0.0
  0
VERTEX
  5
A33
  8
0
  6
CONTINUOUS
 10
-210.2342332847939
 20
-808.81886369520362
 30
0.0
 42
-0.3026996289851631
  0
VERTEX
  5
A34
  8
0
  6
CONTINUOUS
 10
-233.5267748871056
 20
-808.81886369520362
 30
0.0
  0
VERTEX
  5
A35
  8
0
  6
CONTINUOUS
 10
-248.5560670143395
 20
-798.80235840871501
 30
0.0
 42
0.3026996289851622
  0
VERTEX
  5
A36
  8
0
  6
CONTINUOUS
 10
-271.40494115755968
 20
-798.80235840871501
 30
0.0
  0
VERTEX
  5
A37
  8
0
  6
CONTINUOUS
 10
-286.43423328479457
 20
-808.81886369520362
 30
0.0
 42
-0.3026996289851626
  0
VERTEX
  5
A38
  8
0
  6
CONTINUOUS
 10
-309.72677488710627
 20
-808.81886369520362
 30
0.0
  0
VERTEX
  5
A39
  8
0
  6
CONTINUOUS
 10
-324.7560670143402
 20
-798.80235840871501
 30
0.0
 42
0.3026996289851622
  0
VERTEX
  5
A3A
  8
0
  6
CONTINUOUS
 10
-347.60494115755949
 20
-798.80235840871501
 30
0.0
  0
VERTEX
  5
A3B
  8
0
  6
CONTINUOUS
 10
-362.63423328479439
 20
-808.81886369520362
 30
0.0
 42
-0.3026996289851623
  0
VERTEX
  5
A3C
  8
0
  6
CONTINUOUS
 10
-385.92677488710621
 20
-808.81886369520362
 30
0.0
  0
VERTEX
  5
A3D
  8
0
  6
CONTINUOUS
 10
-400.95606701434002
 20
-798.80235840871501
 30
0.0
 42
0.3026996289851622
  0
VERTEX
  5
A3E
  8
0
  6
CONTINUOUS
 10
-423.80494115756028
 20
-798.80235840871501
 30
0.0
  0
SEQEND
  5
A3F
  8
0
  6
CONTINUOUS
  0
POLYLINE
  5
7AE
  8
0
  6
CONTINUOUS
 66
     1
 10
0.0
 20
0.0
 30
0.0
  0
VERTEX
  5
A40
  8
0
  6
CONTINUOUS
 10
-424.0267748871056
 20
-798.46950739634485
 30
0.0
 42
-0.3026996289851615
  0
VERTEX
  5
A41
  8
0
  6
CONTINUOUS
 10
-400.73423328479379
 20
-798.46950739634485
 30
0.0
  0
VERTEX
  5
A42
  8
0
  6
CONTINUOUS
 10
-385.70494115755992
 20
-808.48601268283346
 30
0.0
 42
0.302699628985159
  0
VERTEX
  5
A43
  8
0
  6
CONTINUOUS
 10
-362.85606701433971
 20
-808.48601268283346
 30
0.0
  0
VERTEX
  5
A44
  8
0
  6
CONTINUOUS
 10
-347.82677488710578
 20
-798.46950739634485
 30
0.0
 42
-0.3026996289851651
  0
VERTEX
  5
A45
  8
0
  6
CONTINUOUS
 10
-324.53423328479403
 20
-798.46950739634485
 30
0.0
  0
VERTEX
  5
A46
  8
0
  6
CONTINUOUS
 10
-309.5049411575601
 20
-808.48601268283346
 30
0.0
 42
0.3026996289851599
  0
VERTEX
  5
A47
  8
0
  6
CONTINUOUS
 10
-286.6560670143399
 20
-808.48601268283346
 30
0.0
  0
VERTEX
  5
A48
  8
0
  6
CONTINUOUS
 10
-271.62677488710602
 20
-798.46950739634485
 30
0.0
 42
-0.3026996289851595
  0
VERTEX
  5
A49
  8
0
  6
CONTINUOUS
 10
-248.33423328479421
 20
-798.46950739634485
 30
0.0
  0
VERTEX
  5
A4A
  8
0
  6
CONTINUOUS
 10
-233.30494115756031
 20
-808.48601268283346
 30
0.0
 42
0.3026996289851599
  0
VERTEX
  5
A4B
  8
0
  6
CONTINUOUS
 10
-210.45606701434011
 20
-808.48601268283346
 30
0.0
  0
VERTEX
  5
A4C
  8
0
  6
CONTINUOUS
 10
-195.42677488710521
 20
-798.46950739634485
 30
0.0
 42
-0.302699628985166
  0
VERTEX
  5
A4D
  8
0
  6
CONTINUOUS
 10
-172.13423328479351
 20
-798.46950739634485
 30
0.0
  0
VERTEX
  5
A4E
  8
0
  6
CONTINUOUS
 10
-157.10494115755949
 20
-808.48601268283346
 30
0.0
 42
0.3026996289851595
  0
VERTEX
  5
A4F
  8
0
  6
CONTINUOUS
 10
-134.2560670143402
 20
-808.48601268283346
 30
0.0
  0
VERTEX
  5
A50
  8
0
  6
CONTINUOUS
 10
-119.2267748871063
 20
-798.46950739634485
 30
0.0
 42
-0.3026996289851595
  0
VERTEX
  5
A51
  8
0
  6
CONTINUOUS
 10
-95.934233284794587
 20
-798.46950739634485
 30
0.0
  0
VERTEX
  5
A52
  8
0
  6
CONTINUOUS
 10
-80.904941157559733
 20
-808.48601268283346
 30
0.0
 42
0.3026996289851634
  0
VERTEX
  5
A53
  8
0
  6
CONTINUOUS
 10
-58.056067014339533
 20
-808.48601268283346
 30
0.0
  0
VERTEX
  5
A54
  8
0
  6
CONTINUOUS
 10
-43.026774887105603
 20
-798.46950739634485
 30
0.0
  0
SEQEND
  5
A55
  8
0
  6
CONTINUOUS
  0
POLYLINE
  5
7AF
  8
0
  6
CONTINUOUS
 66
     1
 10
0.0
 20
0.0
 30
0.0
 70
   128
 40
0.5
 41
0.5
  0
VERTEX
  5
A56
  8
0
  6
CONTINUOUS
 10
-219.1630838477445
 20
-796.26295040374305
 30
0.0
  0
VERTEX
  5
A57
  8
0
  6
CONTINUOUS
 10
-207.1849402736226
 20
-788.27993048392432
 30
0.0
 42
-0.1480331623319995
  0
VERTEX
  5
A58
  8
0
  6
CONTINUOUS
 10
-206.07577162589399
 20
-787.94418554577533
 30
0.0
  0
VERTEX
  5
A59
  8
0
  6
CONTINUOUS
 10
-39.13206537492988
 20
-787.94418554577169
 30
0.0
 42
0.4142135623730951
  0
VERTEX
  5
A5A
  8
0
  6
CONTINUOUS
 10
-37.13206537492988
 20
-785.94418554577169
 30
0.0
  0
VERTEX
  5
A5B
  8
0
  6
CONTINUOUS
 10
-37.132065374874863
 20
-690.73393728273459
 30
0.0
 42
0.9999999999999998
  0
VERTEX
  5
A5C
  8
0
  6
CONTINUOUS
 10
-43.132065374920828
 20
-690.73393728273004
 30
0.0
  0
VERTEX
  5
A5D
  8
0
  6
CONTINUOUS
 10
-43.132065374928523
 20
-703.54542582962404
 30
0.0
  0
SEQEND
  5
A5E
  8
0
  6
CONTINUOUS
  0
POLYLINE
  5
7B0
  8
0
  6
CONTINUOUS
 66
     1
 10
0.0
 20
0.0
 30
0.0
 70
   128
 40
0.5
 41
0.5
  0
VERTEX
  5
A5F
  8
0
  6
CONTINUOUS
 10
-9.9999999999990905
 20
-584.02385247010625
 30
0.0
  0
VERTEX
  5
A60
  8
0
  6
CONTINUOUS
 10
-9.999999999998181
 20
-663.66180300675114
 30
0.0
 42
-0.3888787318529981
  0
VERTEX
  5
A61
  8
0
  6
CONTINUOUS
 10
-11.82568851450287
 20
-665.65419240293431
 30
0.0
  0
VERTEX
  5
A62
  8
0
  6
CONTINUOUS
 10
-45.480688345920392
 20
-668.59862335914954
 30
0.0
 42
0.388878731852998
  0
VERTEX
  5
A63
  8
0
  6
CONTINUOUS
 10
-49.13206537492988
 20
-672.58340215151645
 30
0.0
  0
VERTEX
  5
A64
  8
0
  6
CONTINUOUS
 10
-49.132065374929432
 20
-752.33906137843223
 30
0.0
 42
-0.198912367379658
  0
VERTEX
  5
A65
  8
0
  6
CONTINUOUS
 10
-49.717851812556333
 20
-753.75327494080534
 30
0.0
  0
VERTEX
  5
A66
  8
0
  6
CONTINUOUS
 10
-58.908762381717217
 20
-762.94418554577248
 30
0.0
  0
SEQEND
  5
A67
  8
0
  6
CONTINUOUS
  0
DIMENSION
  5
7B1
  8
0
  6
CONTINUOUS
  2
*D14
 10
195.3289707793154
 20
-584.02385247010625
 30
0.0
 11
195.32897077931551
 21
-621.62897660163753
 31
0.0
 70
   128
  1
75
 13
-23.999999999998181
 23
-659.23410073316882
 33
0.0
 14
-9.9999999999990905
 24
-584.02385247010625
 34
0.0
 50
90.0
  0
INSERT
  5
7B2
  8
0
  6
CONTINUOUS
  2
*U33
 10
0.0
 20
0.0
 30
0.0
1001
ACAD
1000
DSTYLE
1002
{
1070
   176
1070
   256
1070
    77
1070
     0
1070
   147
1040
1.0
1070
   342
1005
0
1002
}
  0
INSERT
  5
7B3
  8
0
  6
CONTINUOUS
  2
*U34
 10
0.0
 20
0.0
 30
0.0
  0
INSERT
  5
7B4
  8
0
  6
CONTINUOUS
  2
*U35
 10
0.0
 20
0.0
 30
0.0
  0
LINE
  5
7B5
  8
0
 10
-563.35581227252624
 20
-1139.192868555388
 30
0.0
 11
51.285070771478793
 21
-1139.192868555388
 31
0.0
  0
LINE
  5
7B6
  8
0
 10
-511.69954226146729
 20
-1172.83598690658
 30
0.0
 11
-0.1268346898468735
 21
-1172.83598690658
 31
0.0
  0
POLYLINE
  5
7B7
  8
0
  6
CONTINUOUS
 66
     1
 10
0.0
 20
0.0
 30
0.0
  0
VERTEX
  5
A7B
  8
0
  6
CONTINUOUS
 10
-126.5195872211775
 20
68.53357449381474
 30
0.0
  0
VERTEX
  5
A7C
  8
0
  6
CONTINUOUS
 10
-134.03423328479491
 20
63.525321850570428
 30
0.0
 42
-0.3026996289851631
  0
VERTEX
  5
A7D
  8
0
  6
CONTINUOUS
 10
-157.32677488710669
 20
63.525321850570428
 30
0.0
  0
VERTEX
  5
A7E
  8
0
  6
CONTINUOUS
 10
-172.3560670143406
 20
73.541827137059045
 30
0.0
 42
0.3026996289851622
  0
VERTEX
  5
A7F
  8
0
  6
CONTINUOUS
 10
-195.2049411575608
 20
73.541827137059045
 30
0.0
  0
VERTEX
  5
A80
  8
0
  6
CONTINUOUS
 10
-210.23423328479481
 20
63.525321850570428
 30
0.0
 42
-0.3026996289851618
  0
VERTEX
  5
A81
  8
0
  6
CONTINUOUS
 10
-233.52677488710651
 20
63.525321850570428
 30
0.0
  0
VERTEX
  5
A82
  8
0
  6
CONTINUOUS
 10
-248.55606701434041
 20
73.541827137059045
 30
0.0
 42
0.3026996289851622
  0
VERTEX
  5
A83
  8
0
  6
CONTINUOUS
 10
-271.4049411575607
 20
73.541827137059045
 30
0.0
  0
VERTEX
  5
A84
  8
0
  6
CONTINUOUS
 10
-286.43423328479457
 20
63.525321850570428
 30
0.0
 42
-0.3026996289851631
  0
VERTEX
  5
A85
  8
0
  6
CONTINUOUS
 10
-309.72677488710627
 20
63.525321850570428
 30
0.0
  0
VERTEX
  5
A86
  8
0
  6
CONTINUOUS
 10
-324.7560670143402
 20
73.541827137059045
 30
0.0
 42
0.3026996289851622
  0
VERTEX
  5
A87
  8
0
  6
CONTINUOUS
 10
-347.60494115756052
 20
73.541827137059045
 30
0.0
  0
VERTEX
  5
A88
  8
0
  6
CONTINUOUS
 10
-362.6342332847953
 20
63.525321850570428
 30
0.0
 42
-0.3026996289851626
  0
VERTEX
  5
A89
  8
0
  6
CONTINUOUS
 10
-385.926774887107
 20
63.525321850570428
 30
0.0
  0
VERTEX
  5
A8A
  8
0
  6
CONTINUOUS
 10
-400.95606701434087
 20
73.541827137059045
 30
0.0
 42
0.3026996289851622
  0
VERTEX
  5
A8B
  8
0
  6
CONTINUOUS
 10
-423.80494115756028
 20
73.541827137059045
 30
0.0
  0
VERTEX
  5
A8C
  8
0
  6
CONTINUOUS
 10
-438.83423328479512
 20
63.525321850570428
 30
0.0
 42
-0.3026996289851623
  0
VERTEX
  5
A8D
  8
0
  6
CONTINUOUS
 10
-462.12677488710682
 20
63.525321850570428
 30
0.0
  0
VERTEX
  5
A8E
  8
0
  6
CONTINUOUS
 10
-477.15606701434081
 20
73.541827137059045
 30
0.0
 42
0.3026996289851622
  0
VERTEX
  5
A8F
  8
0
  6
CONTINUOUS
 10
-500.00494115756089
 20
73.541827137059045
 30
0.0
  0
SEQEND
  5
A90
  8
0
  6
CONTINUOUS
  0
POLYLINE
  5
7B8
  8
0
  6
CONTINUOUS
 66
     1
 10
0.0
 20
0.0
 30
0.0
 70
   128
1001
GENIUS_GENREC_14
1002
{
1000
PYDIR
1011
4.0
1021
0.0
1031
0.0
1021
-170.78504062946459
1031
0.0
1002
}
1002
{
1000
PXDIR
1011
104.0
1021
0.0
1031
0.0
1021
506.68872949561859
1031
0.0
1002
}
1002
{
1000
PORI
1011
4.0
1021
0.0
1031
0.0
1021
506.68872949561859
1031
0.0
1002
}
1002
{
1000
PINS
1011
4.0
1021
0.0
1031
0.0
1021
506.68872949561859
1031
0.0
1002
}
1002
{
1000
PINS2
1011
104.0
1021
0.0
1031
0.0
1021
-170.78504062946459
1031
0.0
1002
}
1002
{
1000
C
1070
     1
1002
}
1001
GENIUS_GENODEF_13
1002
{
1000
HIER
1070
     0
1002
}
1002
{
1000
MANEDIT
1070
     0
1002
}
1002
{
1000
NOSEL
1070
     0
1002
}
1002
{
1000
BEHIND
1070
     0
1002
}
1002
{
1000
OTHER
1070
     0
1002
}
1002
{
1000
REACTOR
1002
}
1001
GENIUS_GENOBJ-N-REC_13
1002
{
1000
OWNER
1000
GEN
1002
}
  0
VERTEX
  5
A91
  8
0
  6
CONTINUOUS
 10
104.0
 20
506.68872949561859
 30
0.0
  0
VERTEX
  5
A92
  8
0
  6
CONTINUOUS
 10
104.0
 20
-170.78504062946459
 30
0.0
  0
SEQEND
  5
A93
  8
0
  6
CONTINUOUS
  0
POLYLINE
  5
7B9
  8
0
  6
CONTINUOUS
 66
     1
 10
0.0
 20
0.0
 30
0.0
 70
   128
1001
GENIUS_GENREC_14
1002
{
1000
PYDIR
1011
4.0
1021
0.0
1031
0.0
1021
-170.78504062946459
1031
0.0
1002
}
1002
{
1000
PXDIR
1011
104.0
1021
0.0
1031
0.0
1021
506.68872949561859
1031
0.0
1002
}
1002
{
1000
PORI
1011
4.0
1021
0.0
1031
0.0
1021
506.68872949561859
1031
0.0
1002
}
1002
{
1000
PINS
1011
4.0
1021
0.0
1031
0.0
1021
506.68872949561859
1031
0.0
1002
}
1002
{
1000
PINS2
1011
104.0
1021
0.0
1031
0.0
1021
-170.78504062946459
1031
0.0
1002
}
1002
{
1000
C
1070
     1
1002
}
1001
GENIUS_GENODEF_13
1002
{
1000
HIER
1070
     0
1002
}
1002
{
1000
MANEDIT
1070
     0
1002
}
1002
{
1000
NOSEL
1070
     0
1002
}
1002
{
1000
BEHIND
1070
     0
1002
}
1002
{
1000
OTHER
1070
     0
1002
}
1002
{
1000
REACTOR
1002
}
1001
GENIUS_GENOBJ-N-REC_13
1002
{
1000
OWNER
1000
GEN
1002
}
  0
VERTEX
  5
A94
  8
0
  6
CONTINUOUS
 10
4.0
 20
-170.78504062946459
 30
0.0
  0
VERTEX
  5
A95
  8
0
  6
CONTINUOUS
 10
4.0
 20
506.68872949561859
 30
0.0
  0
SEQEND
  5
A96
  8
0
  6
CONTINUOUS
  0
POLYLINE
  5
7BA
  8
0
  6
CONTINUOUS
 66
     1
 10
0.0
 20
0.0
 30
0.0
 70
   128
  0
VERTEX
  5
A97
  8
0
  6
CONTINUOUS
 10
-16.0
 20
-170.78504062946459
 30
0.0
  0
VERTEX
  5
A98
  8
0
  6
CONTINUOUS
 10
49.0
 20
-170.78504062946459
 30
0.0
  0
VERTEX
  5
A99
  8
0
  6
CONTINUOUS
 10
51.5
 20
-177.65373417809951
 30
0.0
  0
VERTEX
  5
A9A
  8
0
  6
CONTINUOUS
 10
56.5
 20
-163.91634708082341
 30
0.0
  0
VERTEX
  5
A9B
  8
0
  6
CONTINUOUS
 10
59.0
 20
-170.78504062946459
 30
0.0
  0
VERTEX
  5
A9C
  8
0
  6
CONTINUOUS
 10
124.0
 20
-170.78504062946459
 30
0.0
  0
SEQEND
  5
A9D
  8
0
  6
CONTINUOUS
  0
POLYLINE
  5
7BB
  8
0
  6
CONTINUOUS
 66
     1
 10
0.0
 20
0.0
 30
0.0
 70
   128
  0
VERTEX
  5
A9E
  8
0
  6
CONTINUOUS
 10
-45.0
 20
506.68872949561859
 30
0.0
  0
VERTEX
  5
A9F
  8
0
  6
CONTINUOUS
 10
45.0
 20
506.68872949561859
 30
0.0
  0
VERTEX
  5
AA0
  8
0
  6
CONTINUOUS
 10
47.5
 20
499.82003594697829
 30
0.0
  0
VERTEX
  5
AA1
  8
0
  6
CONTINUOUS
 10
52.5
 20
513.55742304424984
 30
0.0
  0
VERTEX
  5
AA2
  8
0
  6
CONTINUOUS
 10
55.0
 20
506.68872949561859
 30
0.0
  0
VERTEX
  5
AA3
  8
0
  6
CONTINUOUS
 10
120.0
 20
506.68872949561859
 30
0.0
  0
SEQEND
  5
AA4
  8
0
  6
CONTINUOUS
  0
POLYLINE
  5
7BC
  8
0
  6
CONTINUOUS
 66
     1
 10
0.0
 20
0.0
 30
0.0
 70
   128
1001
GENIUS_GENREC_14
1002
{
1000
PYDIR
1011
-23.999999999998181
1021
0.0
1031
0.0
1021
213.11008481260521
1031
0.0
1002
}
1002
{
1000
PXDIR
1011
-36.0
1021
0.0
1031
0.0
1021
617.07949192431249
1031
0.0
1002
}
1002
{
1000
PORI
1011
-24.0
1021
0.0
1031
0.0
1021
617.07949192431249
1031
0.0
1002
}
1002
{
1000
PINS
1011
-24.0
1021
0.0
1031
0.0
1021
617.07949192431249
1031
0.0
1002
}
1002
{
1000
PINS2
1011
-37.999999999998181
1021
0.0
1031
0.0
1021
213.11008481260521
1031
0.0
1002
}
1002
{
1000
C
1070
     1
1002
}
1001
GENIUS_GENOBJ-N-REC_13
1002
{
1000
OWNER
1000
GEN
1002
}
1001
GENIUS_GENODEF_13
1002
{
1000
HIER
1070
     0
1002
}
1002
{
1000
MANEDIT
1070
     0
1002
}
1002
{
1000
NOSEL
1070
     0
1002
}
1002
{
1000
BEHIND
1070
     0
1002
}
1002
{
1000
OTHER
1070
     0
1002
}
1002
{
1000
REACTOR
1002
}
  0
VERTEX
  5
AA5
  8
0
  6
CONTINUOUS
 10
-38.0
 20
506.68872949561859
 30
0.0
  0
VERTEX
  5
AA6
  8
0
  6
CONTINUOUS
 10
-37.999999999998181
 20
213.11008481260521
 30
0.0
  0
VERTEX
  5
AA7
  8
0
  6
CONTINUOUS
 10
-23.999999999998181
 20
213.11008481260521
 30
0.0
  0
VERTEX
  5
AA8
  8
0
  6
CONTINUOUS
 10
-24.0
 20
506.68872949561859
 30
0.0
  0
SEQEND
  5
AA9
  8
0
  6
CONTINUOUS
  0
INSERT
  5
7BD
  8
0
  6
CONTINUOUS
  2
*U36
 10
0.0
 20
0.0
 30
0.0
1001
ACAD
1000
DSTYLE
1002
{
1070
   176
1070
   256
1070
    77
1070
     0
1070
   147
1040
1.0
1070
   342
1005
0
1002
}
  0
INSERT
  5
7BE
  8
0
  6
CONTINUOUS
  2
*U37
 10
0.0
 20
0.0
 30
0.0
  0
INSERT
  5
7BF
  8
0
  6
CONTINUOUS
  2
*U38
 10
0.0
 20
0.0
 30
0.0
1001
ACAD
1000
DSTYLE
1002
{
1070
   176
1070
   256
1070
    77
1070
     0
1070
   147
1040
1.0
1070
   342
1005
0
1002
}
  0
INSERT
  5
7C0
  8
0
  6
CONTINUOUS
  2
*U39
 10
0.0
 20
0.0
 30
0.0
  0
LINE
  5
7C1
  8
0
  6
CONTINUOUS
 10
-188.28050408595021
 20
94.399999999997817
 30
0.0
 11
-190.78050408595109
 21
93.900000000000546
 31
0.0
  0
LINE
  5
7C2
  8
0
  6
CONTINUOUS
 10
-179.280504085953
 20
94.399999999999636
 30
0.0
 11
-188.2805040859493
 21
94.399999999999636
 31
0.0
  0
LINE
  5
7C3
  8
0
  6
CONTINUOUS
 10
-186.03050408594979
 20
94.399999999999636
 30
0.0
 11
-186.03050408594979
 21
98.078571428571195
 31
0.0
  0
LINE
  5
7C4
  8
0
  6
CONTINUOUS
 10
-181.53050408595431
 20
94.399999999999636
 30
0.0
 11
-181.53050408595249
 21
98.078571428571195
 31
0.0
  0
LINE
  5
7C5
  8
0
  6
CONTINUOUS
 10
-179.280504085953
 20
94.399999999999636
 30
0.0
 11
-179.280504085953
 21
98.078571428571195
 31
0.0
  0
LINE
  5
7C6
  8
0
  6
CONTINUOUS
 10
-188.2805040859493
 20
94.399999999999636
 30
0.0
 11
-188.28050408595161
 21
98.078571428571195
 31
0.0
  0
LINE
  5
7C7
  8
0
  6
CONTINUOUS
 10
-176.78050408595121
 20
92.400000000000546
 30
0.0
 11
-190.78050408595109
 21
92.400000000000546
 31
0.0
  0
ARC
  5
7C8
  8
0
  6
CONTINUOUS
 10
-183.78050408595391
 20
90.364285714286765
 30
0.0
 40
8.0357142857142811
 50
73.739795291652612
 51
106.2602047083473
  0
ARC
  5
7C9
  8
0
  6
CONTINUOUS
 10
-187.15550408595249
 20
96.27053571428678
 30
0.0
 40
2.1294642857139432
 50
58.10920819816608
 51
121.8907918018339
  0
ARC
  5
7CA
  8
0
  6
CONTINUOUS
 10
-180.40550408595161
 20
96.27053571428678
 30
0.0
 40
2.1294642857139432
 50
58.10920819816608
 51
121.8907918018339
  0
LINE
  5
7CB
  8
0
  6
CONTINUOUS
 10
-187.15550408595249
 20
98.400000000000546
 30
0.0
 11
-180.40550408595161
 21
98.400000000000546
 31
0.0
  0
LINE
  5
7CC
  8
0
  6
CONTINUOUS
 10
-176.78050408595121
 20
93.900000000000546
 30
0.0
 11
-179.28050408595209
 21
94.399999999999636
 31
0.0
  0
LINE
  5
7CD
  8
0
  6
CONTINUOUS
 10
-190.78050408595109
 20
92.400000000000546
 30
0.0
 11
-190.78050408595109
 21
93.900000000000546
 31
0.0
  0
LINE
  5
7CE
  8
0
  6
CONTINUOUS
 10
-176.78050408595121
 20
92.400000000000546
 30
0.0
 11
-176.78050408595121
 21
93.900000000000546
 31
0.0
  0
LINE
  5
7CF
  8
0
  6
CONTINUOUS
 10
-186.33050408595221
 20
73.910418160984591
 30
0.0
 11
-181.23050408595279
 21
76.606360941576895
 31
0.0
  0
LINE
  5
7D0
  8
0
  6
CONTINUOUS
 10
-186.33050408595221
 20
69.087332697225065
 30
0.0
 11
-181.2305040859523
 21
71.783275477818279
 31
0.0
  0
LINE
  5
7D1
  8
0
  6
CONTINUOUS
 10
-186.33050408595221
 20
64.264247233465539
 30
0.0
 11
-181.2305040859523
 21
66.960190014058753
 31
0.0
  0
LINE
  5
7D2
  8
0
  6
CONTINUOUS
 10
-186.33050408595221
 20
59.441161769706007
 30
0.0
 11
-181.2305040859523
 21
62.13710455029922
 31
0.0
  0
LINE
  5
7D3
  8
0
  6
CONTINUOUS
 10
-186.33050408595221
 20
54.618076305947397
 30
0.0
 11
-181.2305040859523
 21
57.314019086538792
 31
0.0
  0
LINE
  5
7D4
  8
0
  6
CONTINUOUS
 10
-186.33050408595221
 20
49.794990842186962
 30
0.0
 11
-181.2305040859523
 21
52.490933622780169
 31
0.0
  0
LINE
  5
7D5
  8
0
  6
CONTINUOUS
 10
-186.33050408595221
 20
44.971905378427429
 30
0.0
 11
-181.23050408595191
 21
47.667848159019726
 31
0.0
  0
LINE
  5
7D6
  8
0
  6
CONTINUOUS
 10
-186.33050408595221
 20
40.148819914667911
 30
0.0
 11
-181.23050408595191
 21
42.844762695261117
 31
0.0
  0
LINE
  5
7D7
  8
0
  6
CONTINUOUS
 10
-186.33050408595221
 20
35.325734450909302
 30
0.0
 11
-181.23050408595191
 21
38.021677231501599
 31
0.0
  0
LINE
  5
7D8
  8
0
  6
CONTINUOUS
 10
-181.53050408595249
 20
89.400000000000546
 30
0.0
 11
-181.53050408595249
 21
77.400000000000546
 31
0.0
  0
LINE
  5
7D9
  8
0
  6
CONTINUOUS
 10
-186.03050408595249
 20
89.400000000000546
 30
0.0
 11
-186.03050408595249
 21
77.400000000000546
 31
0.0
  0
LINE
  5
7DA
  8
0
  6
CONTINUOUS
 10
-183.78050408595249
 20
26.497396909794588
 30
0.0
 11
-186.33050408595221
 21
31.997396909796411
 31
0.0
  0
LINE
  5
7DB
  8
0
  6
CONTINUOUS
 10
-183.78050408595249
 20
26.497396909794588
 30
0.0
 11
-181.23050408595191
 21
31.99739690979823
 31
0.0
  0
LINE
  5
7DC
  8
0
  6
CONTINUOUS
 10
-176.78050408595121
 20
93.900000000000546
 30
0.0
 11
-190.78050408595109
 21
93.900000000000546
 31
0.0
  0
LINE
  5
7DD
  8
0
  6
CONTINUOUS
 10
-186.33050408595221
 20
77.400000000000546
 30
0.0
 11
-186.33050408595221
 21
31.997396909796411
 31
0.0
  0
LINE
  5
7DE
  8
0
  6
CONTINUOUS
 10
-181.2305040859523
 20
77.400000000000546
 30
0.0
 11
-181.23050408595191
 21
31.99739690979823
 31
0.0
  0
LINE
  5
7DF
  8
0
  6
CONTINUOUS
 10
-178.28050408595109
 20
89.400000000000546
 30
0.0
 11
-189.28050408595121
 21
89.400000000000546
 31
0.0
  0
LINE
  5
7E0
  8
0
  6
CONTINUOUS
 10
-178.28050408595109
 20
92.400000000000546
 30
0.0
 11
-178.28050408595109
 21
89.400000000000546
 31
0.0
  0
LINE
  5
7E1
  8
0
  6
CONTINUOUS
 10
-189.28050408595121
 20
92.400000000000546
 30
0.0
 11
-189.28050408595121
 21
89.400000000000546
 31
0.0
  0
LINE
  5
7E2
  8
0
  6
CONTINUOUS
 10
-181.2305040859523
 20
77.400000000000546
 30
0.0
 11
-186.33050408595221
 21
77.400000000000546
 31
0.0
  0
LINE
  5
7E3
  8
0
  6
CONTINUOUS
 10
-185.77390024146999
 20
30.796878813853251
 30
0.0
 11
-181.23050408595191
 21
33.198591767742982
 31
0.0
  0
SOLID
  5
7E4
  8
0
  6
CONTINUOUS
 10
-178.28050408595109
 20
89.400000000000546
 30
0.0
 11
-178.28050408595109
 21
92.400000000000546
 31
0.0
 12
-189.28050408595121
 22
89.400000000000546
 32
0.0
 13
-189.28050408595121
 23
92.400000000000546
 33
0.0
  0
POLYLINE
  5
7E5
  8
0
  6
CONTINUOUS
 66
     1
 10
0.0
 20
0.0
 30
0.0
 70
   128
1001
GENIUS_GENREC_14
1002
{
1000
PYDIR
1011
-500.0
1021
0.0
1031
0.0
1021
50.0
1031
0.0
1002
}
1002
{
1000
PXDIR
1011
0.0
1021
0.0
1031
0.0
1021
0.0
1031
0.0
1002
}
1002
{
1000
PORI
1011
-500.0
1021
0.0
1031
0.0
1021
0.0
1031
0.0
1002
}
1002
{
1000
PINS
1011
-500.0
1021
0.0
1031
0.0
1021
0.0
1031
0.0
1002
}
1002
{
1000
PINS2
1011
0.0
1021
0.0
1031
0.0
1021
50.0
1031
0.0
1002
}
1002
{
1000
C
1070
     1
1002
}
1001
GENIUS_GENODEF_13
1002
{
1000
HIER
1070
     0
1002
}
1002
{
1000
MANEDIT
1070
     0
1002
}
1002
{
1000
NOSEL
1070
     0
1002
}
1002
{
1000
BEHIND
1070
     0
1002
}
1002
{
1000
OTHER
1070
     0
1002
}
1002
{
1000
REACTOR
1002
}
1001
GENIUS_GENOBJ-N-REC_13
1002
{
1000
OWNER
1000
GEN
1002
}
  0
VERTEX
  5
AC3
  8
0
  6
CONTINUOUS
 10
-500.0
 20
0.0
 30
0.0
  0
VERTEX
  5
AC4
  8
0
  6
CONTINUOUS
 10
0.0
 20
0.0
 30
0.0
  0
VERTEX
  5
AC5
  8
0
  6
CONTINUOUS
 10
0.0
 20
50.0
 30
0.0
  0
VERTEX
  5
AC6
  8
0
  6
CONTINUOUS
 10
-500.0
 20
50.0
 30
0.0
  0
SEQEND
  5
AC7
  8
0
  6
CONTINUOUS
  0
POLYLINE
  5
7E6
  8
0
  6
CORB-11_SIDE_APRON_2_PIEC0
 66
     1
 10
0.0
 20
0.0
 30
0.0
 70
   128
  0
VERTEX
  5
AC8
  8
0
  6
CORB-11_SIDE_APRON_2_PIEC0
 10
-1.0
 20
175.53661127696071
 30
0.0
  0
VERTEX
  5
AC9
  8
0
  6
CORB-11_SIDE_APRON_2_PIEC0
 10
-1.0000000000040921
 20
65.0
 30
0.0
 42
-0.414213562373093
  0
VERTEX
  5
ACA
  8
0
  6
CORB-11_SIDE_APRON_2_PIEC0
 10
-11.000000000004089
 20
55.0
 30
0.0
  0
VERTEX
  5
ACB
  8
0
  6
CORB-11_SIDE_APRON_2_PIEC0
 10
-70.0
 20
55.0
 30
0.0
  0
VERTEX
  5
ACC
  8
0
  6
CORB-11_SIDE_APRON_2_PIEC0
 10
-120.0
 20
55.0
 30
0.0
  0
VERTEX
  5
ACD
  8
0
  6
CORB-11_SIDE_APRON_2_PIEC0
 10
-497.4558252589722
 20
55.0
 30
0.0
  0
SEQEND
  5
ACE
  8
0
  6
CORB-11_SIDE_APRON_2_PIEC0
  0
POLYLINE
  5
7E7
  8
0
  6
CORB-11_SIDE_APRON_2_PIEC$
 66
     1
 10
0.0
 20
0.0
 30
0.0
 70
   128
  0
VERTEX
  5
ACF
  8
0
  6
CORB-11_SIDE_APRON_2_PIEC$
 10
-500.0
 20
-20.0
 30
0.0
  0
VERTEX
  5
AD0
  8
0
  6
CORB-11_SIDE_APRON_2_PIEC$
 10
-500.0
 20
33.017931590381522
 30
0.0
  0
VERTEX
  5
AD1
  8
0
  6
CORB-11_SIDE_APRON_2_PIEC$
 10
-493.13130645135971
 20
35.517931590381522
 30
0.0
  0
VERTEX
  5
AD2
  8
0
  6
CORB-11_SIDE_APRON_2_PIEC$
 10
-506.86869354864029
 20
40.517931590381522
 30
0.0
  0
VERTEX
  5
AD3
  8
0
  6
CORB-11_SIDE_APRON_2_PIEC$
 10
-500.0
 20
43.017931590381522
 30
0.0
  0
VERTEX
  5
AD4
  8
0
  6
CORB-11_SIDE_APRON_2_PIEC$
 10
-500.0
 20
96.035863180763954
 30
0.0
  0
SEQEND
  5
AD5
  8
0
  6
CORB-11_SIDE_APRON_2_PIEC$
  0
INSERT
  5
7E8
  8
0
  6
CONTINUOUS
  2
*U40
 10
0.0
 20
0.0
 30
0.0
1001
ACAD
1000
DSTYLE
1002
{
1070
   176
1070
   256
1070
    77
1070
     0
1070
   147
1040
1.0
1070
   342
1005
0
1002
}
  0
INSERT
  5
7E9
  8
0
  6
CONTINUOUS
  2
*U41
 10
0.0
 20
0.0
 30
0.0
  0
INSERT
  5
7EA
  8
0
  6
CONTINUOUS
  2
*U42
 10
0.0
 20
0.0
 30
0.0
1001
ACAD
1000
DSTYLE
1002
{
1070
   176
1070
   256
1070
    77
1070
     0
1070
   147
1040
1.0
1070
   342
1005
0
1002
}
  0
INSERT
  5
7EB
  8
0
  6
CONTINUOUS
  2
*U43
 10
0.0
 20
0.0
 30
0.0
  0
POLYLINE
  5
7EC
  8
0
  6
CONTINUOUS
 66
     1
 10
0.0
 20
0.0
 30
0.0
 70
   129
1001
GENIUS_GENREC_14
1002
{
1000
PYDIR
1011
-50.0
1021
0.0
1031
0.0
1021
-100.0
1031
0.0
1002
}
1002
{
1000
PXDIR
1011
0.0
1021
0.0
1031
0.0
1021
0.0
1031
0.0
1002
}
1002
{
1000
PORI
1011
-50.0
1021
0.0
1031
0.0
1021
0.0
1031
0.0
1002
}
1002
{
1000
PINS
1011
-50.0
1021
0.0
1031
0.0
1021
0.0
1031
0.0
1002
}
1002
{
1000
PINS2
1011
0.0
1021
0.0
1031
0.0
1021
-100.0
1031
0.0
1002
}
1002
{
1000
C
1070
     1
1002
}
1001
GENIUS_GENODEF_13
1002
{
1000
HIER
1070
     0
1002
}
1002
{
1000
MANEDIT
1070
     0
1002
}
1002
{
1000
NOSEL
1070
     0
1002
}
1002
{
1000
BEHIND
1070
     0
1002
}
1002
{
1000
OTHER
1070
     0
1002
}
1002
{
1000
REACTOR
1002
}
1001
GENIUS_GENOBJ-N-REC_13
1002
{
1000
OWNER
1000
GEN
1002
}
  0
VERTEX
  5
AF1
  8
0
  6
CONTINUOUS
 10
-50.0
 20
0.0
 30
0.0
  0
VERTEX
  5
AF2
  8
0
  6
CONTINUOUS
 10
0.0
 20
0.0
 30
0.0
  0
VERTEX
  5
AF3
  8
0
  6
CONTINUOUS
 10
0.0
 20
-100.0
 30
0.0
  0
VERTEX
  5
AF4
  8
0
  6
CONTINUOUS
 10
-50.0
 20
-100.0
 30
0.0
  0
SEQEND
  5
AF5
  8
0
  6
CONTINUOUS
  0
LINE
  5
7ED
  8
0
  6
CONTINUOUS
 10
0.0
 20
-100.0
 30
0.0
 11
-50.0
 21
0.0
 31
0.0
  0
LINE
  5
7EE
  8
0
  6
CONTINUOUS
 10
-50.0
 20
-100.0
 30
0.0
 11
0.0
 21
0.0
 31
0.0
  0
DIMENSION
  5
7EF
  8
0
  6
CONTINUOUS
  2
*D15
 10
-286.6707351536561
 20
109.4000000000015
 30
0.0
 11
-286.6707351536561
 21
210.79971794296759
 31
0.0
 70
   128
 13
-206.6811708838668
 23
84.399999999998727
 33
0.0
 14
-58.908762381717679
 24
109.4000000000014
 34
0.0
 50
90.0
  0
INSERT
  5
7F0
  8
0
  6
CONTINUOUS
  2
*U44
 10
0.0
 20
0.0
 30
0.0
1001
ACAD
1000
DSTYLE
1002
{
1070
   176
1070
   256
1070
    77
1070
     0
1070
   147
1040
1.0
1070
   342
1005
0
1002
}
  0
INSERT
  5
7F1
  8
0
  6
CONTINUOUS
  2
*U45
 10
0.0
 20
0.0
 30
0.0
  0
INSERT
  5
7F2
  8
0
  6
CONTINUOUS
  2
*U46
 10
0.0
 20
0.0
 30
0.0
1001
ACAD
1000
DSTYLE
1002
{
1070
   176
1070
   256
1070
    77
1070
     0
1070
   147
1040
1.0
1070
   342
1005
0
1002
}
  0
INSERT
  5
7F3
  8
0
  6
CONTINUOUS
  2
*U47
 10
0.0
 20
0.0
 30
0.0
  0
INSERT
  5
7F4
  8
0
  6
CONTINUOUS
  2
*U48
 10
0.0
 20
0.0
 30
0.0
1001
ACAD
1000
DSTYLE
1002
{
1070
   176
1070
   256
1070
    77
1070
     0
1070
   147
1040
1.0
1070
   342
1005
0
1002
}
  0
INSERT
  5
7F5
  8
0
  6
CONTINUOUS
  2
*U49
 10
0.0
 20
0.0
 30
0.0
  0
POLYLINE
  5
7F6
  8
0
  6
CONTINUOUS
 66
     1
 10
0.0
 20
0.0
 30
0.0
  0
VERTEX
  5
B20
  8
0
  6
CONTINUOUS
 10
-500.22677488710627
 20
73.874678149429201
 30
0.0
 42
-0.3026996289851615
  0
VERTEX
  5
B21
  8
0
  6
CONTINUOUS
 10
-476.93423328479452
 20
73.874678149429201
 30
0.0
  0
VERTEX
  5
B22
  8
0
  6
CONTINUOUS
 10
-461.90494115756059
 20
63.858172862940592
 30
0.0
 42
0.302699628985159
  0
VERTEX
  5
B23
  8
0
  6
CONTINUOUS
 10
-439.05606701434039
 20
63.858172862940592
 30
0.0
  0
VERTEX
  5
B24
  8
0
  6
CONTINUOUS
 10
-424.0267748871064
 20
73.874678149429201
 30
0.0
 42
-0.3026996289851651
  0
VERTEX
  5
B25
  8
0
  6
CONTINUOUS
 10
-400.7342332847947
 20
73.874678149429201
 30
0.0
  0
VERTEX
  5
B26
  8
0
  6
CONTINUOUS
 10
-385.70494115756082
 20
63.858172862940592
 30
0.0
 42
0.3026996289851599
  0
VERTEX
  5
B27
  8
0
  6
CONTINUOUS
 10
-362.85606701434062
 20
63.858172862940592
 30
0.0
  0
VERTEX
  5
B28
  8
0
  6
CONTINUOUS
 10
-347.82677488710669
 20
73.874678149429201
 30
0.0
 42
-0.3026996289851595
  0
VERTEX
  5
B29
  8
0
  6
CONTINUOUS
 10
-324.53423328479499
 20
73.874678149429201
 30
0.0
  0
VERTEX
  5
B2A
  8
0
  6
CONTINUOUS
 10
-309.50494115756101
 20
63.858172862940592
 30
0.0
 42
0.3026996289851599
  0
VERTEX
  5
B2B
  8
0
  6
CONTINUOUS
 10
-286.65606701434081
 20
63.858172862940592
 30
0.0
  0
VERTEX
  5
B2C
  8
0
  6
CONTINUOUS
 10
-271.62677488710602
 20
73.874678149429201
 30
0.0
 42
-0.302699628985166
  0
VERTEX
  5
B2D
  8
0
  6
CONTINUOUS
 10
-248.33423328479421
 20
73.874678149429201
 30
0.0
  0
VERTEX
  5
B2E
  8
0
  6
CONTINUOUS
 10
-233.30494115756031
 20
63.858172862940592
 30
0.0
 42
0.3026996289851595
  0
VERTEX
  5
B2F
  8
0
  6
CONTINUOUS
 10
-210.45606701434099
 20
63.858172862940592
 30
0.0
  0
VERTEX
  5
B30
  8
0
  6
CONTINUOUS
 10
-195.426774887107
 20
73.874678149429201
 30
0.0
 42
-0.3026996289851595
  0
VERTEX
  5
B31
  8
0
  6
CONTINUOUS
 10
-172.1342332847953
 20
73.874678149429201
 30
0.0
  0
VERTEX
  5
B32
  8
0
  6
CONTINUOUS
 10
-157.1049411575604
 20
63.858172862940592
 30
0.0
 42
0.3026996289851634
  0
VERTEX
  5
B33
  8
0
  6
CONTINUOUS
 10
-134.2560670143402
 20
63.858172862940592
 30
0.0
  0
VERTEX
  5
B34
  8
0
  6
CONTINUOUS
 10
-126.7414209507233
 20
68.866425506184896
 30
0.0
  0
SEQEND
  5
B35
  8
0
  6
CONTINUOUS
  0
LINE
  5
7F7
  8
0
  6
CONTINUOUS
 10
-29.586964539937981
 20
68.199079829602852
 30
0.0
 11
-29.586964539931611
 21
175.53661127696071
 31
0.0
  0
LINE
  5
7F8
  8
0
  6
CONTINUOUS
 10
-6.9204807498940681
 20
175.53661127696071
 30
0.0
 11
-6.9204807498967957
 21
68.199079829602852
 31
0.0
  0
LINE
  5
7F9
  8
0
  6
CONTINUOUS
 10
-29.586964539931611
 20
175.53661127696071
 30
0.0
 11
-6.9204807498940681
 21
175.53661127696071
 31
0.0
  0
LINE
  5
7FA
  8
0
  6
CONTINUOUS
 10
-29.586964539937981
 20
68.199079829602852
 30
0.0
 11
-6.9204807498967957
 21
68.199079829602852
 31
0.0
  0
LINE
  5
7FB
  8
0
  6
CONTINUOUS
 10
-29.586964539937981
 20
68.199079829602852
 30
0.0
 11
-6.9204807498940681
 21
175.53661127696071
 31
0.0
  0
LINE
  5
7FC
  8
0
  6
CONTINUOUS
 10
-29.586964539931611
 20
175.53661127696071
 30
0.0
 11
-6.9204807498967957
 21
68.199079829602852
 31
0.0
  0
DIMENSION
  5
7FD
  8
0
  6
CONTINUOUS
  2
*D16
 10
195.32897077931551
 20
184.61024826306479
 30
0.0
 11
195.32897077931551
 21
155.50496068107341
 31
0.0
 70
   128
  1
75
 13
-58.908762381717679
 23
109.4000000000014
 33
0.0
 14
-39.63206537492124
 24
184.6102482630649
 34
0.0
 50
90.0
  0
LINE
  5
7FE
  8
0
  6
CORB-11_SIDE_APRON_2_PIEC0
 10
-18.999999999995001
 20
213.11008481260521
 30
0.0
 11
-18.999999999998181
 21
506.68872949561859
 31
0.0
  0
POLYLINE
  5
7FF
  8
0
  6
CONTINUOUS
 66
     1
 10
0.0
 20
0.0
 30
0.0
  0
VERTEX
  5
B36
  8
0
  6
CONTINUOUS
 10
-424.0267748871056
 20
73.874678149429201
 30
0.0
 42
-0.3026996289851615
  0
VERTEX
  5
B37
  8
0
  6
CONTINUOUS
 10
-400.73423328479379
 20
73.874678149429201
 30
0.0
  0
VERTEX
  5
B38
  8
0
  6
CONTINUOUS
 10
-385.70494115755992
 20
63.858172862940592
 30
0.0
 42
0.302699628985159
  0
VERTEX
  5
B39
  8
0
  6
CONTINUOUS
 10
-362.85606701433971
 20
63.858172862940592
 30
0.0
  0
VERTEX
  5
B3A
  8
0
  6
CONTINUOUS
 10
-347.82677488710578
 20
73.874678149429201
 30
0.0
 42
-0.3026996289851651
  0
VERTEX
  5
B3B
  8
0
  6
CONTINUOUS
 10
-324.53423328479403
 20
73.874678149429201
 30
0.0
  0
VERTEX
  5
B3C
  8
0
  6
CONTINUOUS
 10
-309.5049411575601
 20
63.858172862940592
 30
0.0
 42
0.3026996289851599
  0
VERTEX
  5
B3D
  8
0
  6
CONTINUOUS
 10
-286.6560670143399
 20
63.858172862940592
 30
0.0
  0
VERTEX
  5
B3E
  8
0
  6
CONTINUOUS
 10
-271.62677488710602
 20
73.874678149429201
 30
0.0
 42
-0.3026996289851595
  0
VERTEX
  5
B3F
  8
0
  6
CONTINUOUS
 10
-248.33423328479421
 20
73.874678149429201
 30
0.0
  0
VERTEX
  5
B40
  8
0
  6
CONTINUOUS
 10
-233.30494115756031
 20
63.858172862940592
 30
0.0
 42
0.3026996289851599
  0
VERTEX
  5
B41
  8
0
  6
CONTINUOUS
 10
-210.45606701434011
 20
63.858172862940592
 30
0.0
  0
VERTEX
  5
B42
  8
0
  6
CONTINUOUS
 10
-195.42677488710521
 20
73.874678149429201
 30
0.0
 42
-0.302699628985166
  0
VERTEX
  5
B43
  8
0
  6
CONTINUOUS
 10
-172.13423328479351
 20
73.874678149429201
 30
0.0
  0
VERTEX
  5
B44
  8
0
  6
CONTINUOUS
 10
-157.10494115755949
 20
63.858172862940592
 30
0.0
 42
0.3026996289851595
  0
VERTEX
  5
B45
  8
0
  6
CONTINUOUS
 10
-134.2560670143402
 20
63.858172862940592
 30
0.0
  0
VERTEX
  5
B46
  8
0
  6
CONTINUOUS
 10
-126.7414209507233
 20
68.866425506184896
 30
0.0
  0
SEQEND
  5
B47
  8
0
  6
CONTINUOUS
  0
POLYLINE
  5
800
  8
0
  6
CONTINUOUS
 66
     1
 10
0.0
 20
0.0
 30
0.0
 70
   128
 40
0.5
 41
0.5
  0
VERTEX
  5
B48
  8
0
  6
CONTINUOUS
 10
-219.1630838477445
 20
76.081235142030891
 30
0.0
  0
VERTEX
  5
B49
  8
0
  6
CONTINUOUS
 10
-207.1849402736226
 20
84.064255061849707
 30
0.0
 42
-0.1480331623319995
  0
VERTEX
  5
B4A
  8
0
  6
CONTINUOUS
 10
-206.07577162589399
 20
84.399999999998727
 30
0.0
  0
VERTEX
  5
B4B
  8
0
  6
CONTINUOUS
 10
-39.13206537492988
 20
84.400000000002365
 30
0.0
 42
0.4142135623730951
  0
VERTEX
  5
B4C
  8
0
  6
CONTINUOUS
 10
-37.13206537492988
 20
86.400000000002365
 30
0.0
  0
VERTEX
  5
B4D
  8
0
  6
CONTINUOUS
 10
-37.13206537487531
 20
181.61024826303759
 30
0.0
 42
0.9999999999999998
  0
VERTEX
  5
B4E
  8
0
  6
CONTINUOUS
 10
-43.132065374925148
 20
181.61024826304219
 30
0.0
  0
VERTEX
  5
B4F
  8
0
  6
CONTINUOUS
 10
-43.132065374932601
 20
168.79875971614999
 30
0.0
  0
SEQEND
  5
B50
  8
0
  6
CONTINUOUS
  0
POLYLINE
  5
801
  8
0
  6
CONTINUOUS
 66
     1
 10
0.0
 20
0.0
 30
0.0
 70
   128
 40
0.5
 41
0.5
  0
VERTEX
  5
B51
  8
0
  6
CONTINUOUS
 10
-9.9999999999990905
 20
288.3203330756678
 30
0.0
  0
VERTEX
  5
B52
  8
0
  6
CONTINUOUS
 10
-9.999999999998181
 20
208.68238253902291
 30
0.0
 42
-0.3888787318529981
  0
VERTEX
  5
B53
  8
0
  6
CONTINUOUS
 10
-11.82568851450287
 20
206.68999314283971
 30
0.0
  0
VERTEX
  5
B54
  8
0
  6
CONTINUOUS
 10
-45.480688345920854
 20
203.7455621866236
 30
0.0
 42
0.388878731852998
  0
VERTEX
  5
B55
  8
0
  6
CONTINUOUS
 10
-49.132065374930328
 20
199.76078339425661
 30
0.0
  0
VERTEX
  5
B56
  8
0
  6
CONTINUOUS
 10
-49.13206537492988
 20
120.0051241673418
 30
0.0
 42
-0.198912367379658
  0
VERTEX
  5
B57
  8
0
  6
CONTINUOUS
 10
-49.717851812556788
 20
118.5909106049687
 30
0.0
  0
VERTEX
  5
B58
  8
0
  6
CONTINUOUS
 10
-58.908762381717679
 20
109.4000000000014
 30
0.0
  0
SEQEND
  5
B59
  8
0
  6
CONTINUOUS
  0
DIMENSION
  5
802
  8
0
  6
CONTINUOUS
  2
*D17
 10
195.3289707793156
 20
288.3203330756678
 30
0.0
 11
195.32897077931551
 21
250.71520894413649
 31
0.0
 70
   128
  1
75
 13
-23.999999999998181
 23
213.11008481260521
 33
0.0
 14
-9.9999999999990905
 24
288.3203330756678
 34
0.0
 50
90.0
  0
INSERT
  5
803
  8
0
  6
CONTINUOUS
  2
*U50
 10
0.0
 20
0.0
 30
0.0
1001
ACAD
1000
DSTYLE
1002
{
1070
   176
1070
   256
1070
    77
1070
     0
1070
   147
1040
1.0
1070
   342
1005
0
1002
}
  0
INSERT
  5
804
  8
0
  6
CONTINUOUS
  2
*U51
 10
0.0
 20
0.0
 30
0.0
  0
INSERT
  5
805
  8
0
  6
CONTINUOUS
  2
*U52
 10
0.0
 20
0.0
 30
0.0
1001
ACAD
1000
DSTYLE
1002
{
1070
   176
1070
   256
1070
    77
1070
     0
1070
   147
1040
1.0
1070
   342
1005
0
1002
}
  0
INSERT
  5
806
  8
0
  6
CONTINUOUS
  2
*U53
 10
0.0
 20
0.0
 30
0.0
  0
INSERT
  5
807
  8
0
  6
CONTINUOUS
  2
*U54
 10
0.0
 20
0.0
 30
0.0
  0
LINE
  5
808
  8
0
 10
-632.09173991273929
 20
-236.5705998920503
 30
0.0
 11
120.2114356011698
 21
-236.5705998920503
 31
0.0
  0
POLYLINE
  5
809
  8
0
  6
CONTINUOUS
 66
     1
 10
0.0
 20
0.0
 30
0.0
  0
VERTEX
  5
B79
  8
0
  6
CONTINUOUS
 10
-126.51958722117701
 20
68.53357449381474
 30
0.0
  0
VERTEX
  5
B7A
  8
0
  6
CONTINUOUS
 10
-134.034233284794
 20
63.525321850570428
 30
0.0
 42
-0.3026996289851618
  0
VERTEX
  5
B7B
  8
0
  6
CONTINUOUS
 10
-157.32677488710581
 20
63.525321850570428
 30
0.0
  0
VERTEX
  5
B7C
  8
0
  6
CONTINUOUS
 10
-172.35606701433969
 20
73.541827137059045
 30
0.0
 42
0.3026996289851622
  0
VERTEX
  5
B7D
  8
0
  6
CONTINUOUS
 10
-195.20494115755989
 20
73.541827137059045
 30
0.0
  0
VERTEX
  5
B7E
  8
0
  6
CONTINUOUS
 10
-210.2342332847939
 20
63.525321850570428
 30
0.0
 42
-0.3026996289851631
  0
VERTEX
  5
B7F
  8
0
  6
CONTINUOUS
 10
-233.5267748871056
 20
63.525321850570428
 30
0.0
  0
VERTEX
  5
B80
  8
0
  6
CONTINUOUS
 10
-248.5560670143395
 20
73.541827137059045
 30
0.0
 42
0.3026996289851622
  0
VERTEX
  5
B81
  8
0
  6
CONTINUOUS
 10
-271.40494115755968
 20
73.541827137059045
 30
0.0
  0
VERTEX
  5
B82
  8
0
  6
CONTINUOUS
 10
-286.43423328479457
 20
63.525321850570428
 30
0.0
 42
-0.3026996289851626
  0
VERTEX
  5
B83
  8
0
  6
CONTINUOUS
 10
-309.72677488710627
 20
63.525321850570428
 30
0.0
  0
VERTEX
  5
B84
  8
0
  6
CONTINUOUS
 10
-324.7560670143402
 20
73.541827137059045
 30
0.0
 42
0.3026996289851622
  0
VERTEX
  5
B85
  8
0
  6
CONTINUOUS
 10
-347.60494115755949
 20
73.541827137059045
 30
0.0
  0
VERTEX
  5
B86
  8
0
  6
CONTINUOUS
 10
-362.63423328479439
 20
63.525321850570428
 30
0.0
 42
-0.3026996289851623
  0
VERTEX
  5
B87
  8
0
  6
CONTINUOUS
 10
-385.92677488710621
 20
63.525321850570428
 30
0.0
  0
VERTEX
  5
B88
  8
0
  6
CONTINUOUS
 10
-400.95606701434002
 20
73.541827137059045
 30
0.0
 42
0.3026996289851622
  0
VERTEX
  5
B89
  8
0
  6
CONTINUOUS
 10
-423.80494115756028
 20
73.541827137059045
 30
0.0
  0
SEQEND
  5
B8A
  8
0
  6
CONTINUOUS
  0
LINE
  5
80A
  8
0
 10
51.640616785265593
 20
-228.18824132044671
 30
0.0
 11
63.048930203432967
 21
-223.30373042709471
 31
0.0
  0
LINE
  5
80B
  8
0
 10
51.640616785265593
 20
-223.71249487025759
 30
0.0
 11
63.048930203432967
 21
-218.8279839769057
 31
0.0
  0
LINE
  5
80C
  8
0
 10
51.640616785265593
 20
-213.9434730835537
 30
0.0
 11
63.048930203432967
 21
-218.8279839769057
 31
0.0
  0
LINE
  5
80D
  8
0
 10
-17.96034386857718
 20
-1131.110538134325
 30
0.0
 11
-6.5520304504098021
 21
-1126.2260272409731
 31
0.0
  0
LINE
  5
80E
  8
0
 10
-17.96034386857718
 20
-1126.634791684136
 30
0.0
 11
-6.5520304504098021
 21
-1121.750280790784
 31
0.0
  0
LINE
  5
80F
  8
0
 10
-17.96034386857718
 20
-1116.8657698974321
 30
0.0
 11
-6.5520304504098021
 21
-1121.750280790784
 31
0.0
  0
INSERT
  5
810
  8
0
  6
CONTINUOUS
  2
*U55
 10
0.0
 20
0.0
 30
0.0
1001
ACAD
1000
DSTYLE
1002
{
1070
   176
1070
   256
1070
    77
1070
     0
1070
   147
1040
1.0
1070
   342
1005
0
1002
}
  0
INSERT
  5
811
  8
0
  6
CONTINUOUS
  2
*U56
 10
0.0
 20
0.0
 30
0.0
  0
ENDSEC
  0
EOF
