  0
SECTION
  2
HEADER
  9
$ACADVER
  1
AC1009
  9
$INSBASE
 10
0.0
 20
0.0
 30
0.0
  9
$EXTMIN
 10
-494.37958554666659
 20
-392.75353567081311
 30
-0.0015258207003583
  9
$EXTMAX
 10
245.59595501245209
 20
763.18853267550276
 30
0.0000000349246037
  9
$LIMMIN
 10
0.0
 20
0.0
  9
$LIMMAX
 10
12.0
 20
9.0
  9
$ORTHOMODE
 70
     0
  9
$REGENMODE
 70
     1
  9
$FILLMODE
 70
     1
  9
$QTEXTMODE
 70
     0
  9
$MIRRTEXT
 70
     0
  9
$DRAGMODE
 70
     2
  9
$LTSCALE
 40
1.0
  9
$OSMODE
 70
     0
  9
$ATTMODE
 70
     1
  9
$TEXTSIZE
 40
35.0
  9
$TRACEWID
 40
0.05
  9
$TEXTSTYLE
  7
ARIAL
  9
$CLAYER
  8
0
  9
$CELTYPE
  6
BYLAYER
  9
$CECOLOR
 62
   256
  9
$DIMSCALE
 40
5.0
  9
$DIMASZ
 40
2.0
  9
$DIMEXO
 40
2.0
  9
$DIMDLI
 40
6.0
  9
$DIMRND
 40
0.0
  9
$DIMDLE
 40
2.0
  9
$DIMEXE
 40
2.0
  9
$DIMTP
 40
0.0
  9
$DIMTM
 40
0.0
  9
$DIMTXT
 40
2.0
  9
$DIMCEN
 40
2.0
  9
$DIMTSZ
 40
0.0
  9
$DIMTOL
 70
     0
  9
$DIMLIM
 70
     0
  9
$DIMTIH
 70
     0
  9
$DIMTOH
 70
     0
  9
$DIMSE1
 70
     0
  9
$DIMSE2
 70
     0
  9
$DIMTAD
 70
     1
  9
$DIMZIN
 70
     0
  9
$DIMBLK
  1
ARCHTICK
  9
$DIMASO
 70
     1
  9
$DIMSHO
 70
     1
  9
$DIMPOST
  1

  9
$DIMAPOST
  1

  9
$DIMALT
 70
     0
  9
$DIMALTD
 70
     2
  9
$DIMALTF
 40
0.0394
  9
$DIMLFAC
 40
1.0
  9
$DIMTOFL
 70
     0
  9
$DIMTVP
 40
0.0
  9
$DIMTIX
 70
     0
  9
$DIMSOXD
 70
     0
  9
$DIMSAH
 70
     0
  9
$DIMBLK1
  1

  9
$DIMBLK2
  1

  9
$DIMSTYLE
  2
1_TO_5
  9
$DIMCLRD
 70
   256
  9
$DIMCLRE
 70
   256
  9
$DIMCLRT
 70
   256
  9
$DIMTFAC
 40
1.0
  9
$DIMGAP
 40
1.0
  9
$LUNITS
 70
     2
  9
$LUPREC
 70
     1
  9
$SKETCHINC
 40
0.1
  9
$FILLETRAD
 40
0.0
  9
$AUNITS
 70
     1
  9
$AUPREC
 70
     4
  9
$MENU
  1
.
  9
$ELEVATION
 40
0.0
  9
$PELEVATION
 40
0.0
  9
$THICKNESS
 40
0.0
  9
$LIMCHECK
 70
     0
  9
$BLIPMODE
 70
     0
  9
$CHAMFERA
 40
0.0
  9
$CHAMFERB
 40
0.0
  9
$SKPOLY
 70
     0
  9
$TDCREATE
 40
2452152.65359294
  9
$TDUPDATE
 40
2455419.5936495601
  9
$TDINDWG
 40
25.877670914399999
  9
$TDUSRTIMER
 40
25.877670914399999
  9
$USRTIMER
 70
     1
  9
$ANGBASE
 50
0.0
  9
$ANGDIR
 70
     0
  9
$PDMODE
 70
     0
  9
$PDSIZE
 40
0.0
  9
$PLINEWID
 40
0.0
  9
$COORDS
 70
     1
  9
$SPLFRAME
 70
     0
  9
$SPLINETYPE
 70
     6
  9
$SPLINESEGS
 70
     8
  9
$ATTDIA
 70
     0
  9
$ATTREQ
 70
     0
  9
$HANDLING
 70
     1
  9
$HANDSEED
  5
B8E
  9
$SURFTAB1
 70
     6
  9
$SURFTAB2
 70
     6
  9
$SURFTYPE
 70
     6
  9
$SURFU
 70
     6
  9
$SURFV
 70
     6
  9
$UCSNAME
  2

  9
$UCSORG
 10
0.0
 20
0.0
 30
0.0
  9
$UCSXDIR
 10
1.0
 20
0.0
 30
0.0
  9
$UCSYDIR
 10
0.0
 20
1.0
 30
0.0
  9
$PUCSNAME
  2

  9
$PUCSORG
 10
0.0
 20
0.0
 30
0.0
  9
$PUCSXDIR
 10
1.0
 20
0.0
 30
0.0
  9
$PUCSYDIR
 10
0.0
 20
1.0
 30
0.0
  9
$USERI1
 70
     0
  9
$USERI2
 70
     0
  9
$USERI3
 70
     0
  9
$USERI4
 70
     0
  9
$USERI5
 70
     0
  9
$USERR1
 40
0.0
  9
$USERR2
 40
0.0
  9
$USERR3
 40
0.0
  9
$USERR4
 40
0.0
  9
$USERR5
 40
0.0
  9
$WORLDVIEW
 70
     1
  9
$SHADEDGE
 70
     3
  9
$SHADEDIF
 70
    70
  9
$TILEMODE
 70
     1
  9
$MAXACTVP
 70
    48
  9
$PLIMCHECK
 70
     0
  9
$PEXTMIN
 10
0.0
 20
0.0
 30
0.0
  9
$PEXTMAX
 10
208.41041893864801
 20
295.40953368001158
 30
0.0
  9
$PLIMMIN
 10
-0.793749988079071
 20
-0.793749988079071
  9
$PLIMMAX
 10
209.2062500119209
 20
296.20625001192087
  9
$UNITMODE
 70
     0
  9
$VISRETAIN
 70
     1
  9
$PLINEGEN
 70
     1
  9
$PSLTSCALE
 70
     1
  0
ENDSEC
  0
SECTION
  2
TABLES
  0
TABLE
  2
VPORT
 70
     1
  0
VPORT
  2
*ACTIVE
 70
     0
 10
0.0
 20
0.0
 11
1.0
 21
1.0
 12
-124.39181526710721
 22
185.2174985023448
 13
0.0
 23
0.0
 14
1.0
 24
1.0
 15
50.0
 25
50.0
 16
0.0
 26
0.0
 36
1.0
 17
0.0
 27
0.0
 37
0.0
 40
1165.6558672399819
 41
1.978962131837307
 42
50.0
 43
0.0
 44
0.0
 50
0.0
 51
0.0
 71
     0
 72
 20000
 73
     1
 74
     3
 75
     0
 76
     0
 77
     0
 78
     0
  0
ENDTAB
  0
TABLE
  2
LTYPE
 70
     2
  0
LTYPE
  2
CONTINUOUS
 70
     0
  3
Solid line
 72
    65
 73
     0
 40
0.0
  0
ENDTAB
  0
TABLE
  2
LAYER
 70
    12
  0
LAYER
  2
0
 70
     0
 62
     7
  6
CONTINUOUS
  0
LAYER
  2
DEFPOINTS
 70
     0
 62
   211
  6
CONTINUOUS
  0
ENDTAB
  0
TABLE
  2
STYLE
 70
     4
  0
STYLE
  2
STANDARD
 70
     0
 40
0.0
 41
1.0
 50
0.0
 71
     0
 42
1.5
  3
romans.shx
  4

  0
STYLE
  2
ARIAL
 70
     0
 40
0.0
 41
1.0
 50
0.0
 71
     0
 42
35.0
  3
txt
  4

  0
STYLE
  2
EURO_COMMON_HEAD-APRON$0$A
 70
     0
 40
0.0
 41
1.0
 50
0.0
 71
     0
 42
35.0
  3
txt
  4

  0
ENDTAB
  0
TABLE
  2
VIEW
 70
     2
  0
VIEW
  2
09
 70
     0
 40
2970.0
 10
19050.0
 20
1485.0
 41
2100.0
 11
0.0
 21
0.0
 31
1.0
 12
0.0
 22
0.0
 32
0.0
 42
50.0
 43
0.0
 44
0.0
 50
0.0
 71
     0
  0
VIEW
  2
COMM-04
 70
     1
 40
477.26027331217421
 10
194.21746115522001
 20
180.60494410563541
 41
755.81685306636155
 11
0.0
 21
0.0
 31
1.0
 12
0.0
 22
0.0
 32
0.0
 42
50.0
 43
0.0
 44
0.0
 50
0.0
 71
     0
  0
ENDTAB
  0
TABLE
  2
UCS
 70
     0
  0
ENDTAB
  0
TABLE
  2
APPID
 70
    12
  0
APPID
  2
ACAD
 70
     0
  0
APPID
  2
GENIUS_GENODEF_13
 70
     0
  0
APPID
  2
GENIUS_GENREC_14
 70
     0
  0
APPID
  2
GENIUS_GENOBJ-N-REC_13
 70
     0
  0
APPID
  2
ACAD_PSEXT
 70
     0
  0
APPID
  2
ACDBDYNAMICBLOCKGUID
 70
     0
  0
APPID
  2
ACDBBLOCKREPETAG
 70
     0
  0
APPID
  2
ACAD_MLEADERVER
 70
     0
  0
APPID
  2
ACAD_EXEMPT_FROM_CAD_STANDARDS
 70
     0
  0
APPID
  2
ACADANNOTATIVE
 70
     0
  0
APPID
  2
GENIUS_GENOREF_13
 70
     0
  0
APPID
  2
CONTENTBLOCKICON
 70
     0
  0
ENDTAB
  0
TABLE
  2
DIMSTYLE
 70
     3
  0
DIMSTYLE
  2
1_TO_5
 70
     0
  3

  4

  5
ARCHTICK
  6

  7

 40
5.0
 41
2.0
 42
2.0
 43
6.0
 44
2.0
 45
0.0
 46
2.0
 47
0.0
 48
0.0
140
2.0
141
2.0
142
0.0
143
0.0394
144
1.0
145
0.0
146
1.0
147
1.0
 71
     0
 72
     0
 73
     0
 74
     0
 75
     0
 76
     0
 77
     1
 78
     0
170
     0
171
     2
172
     0
173
     0
174
     0
175
     0
176
   256
177
   256
178
   256
  0
DIMSTYLE
  2
EURO_COMMON_HEAD-APRON$0$1
 70
     0
  3

  4

  5
EURO_COMMON_HEAD-APRON$0$_
  6

  7

 40
5.0
 41
2.0
 42
2.0
 43
6.0
 44
2.0
 45
0.0
 46
2.0
 47
0.0
 48
0.0
140
2.0
141
2.0
142
0.0
143
0.0394
144
1.0
145
0.0
146
1.0
147
1.0
 71
     0
 72
     0
 73
     0
 74
     0
 75
     0
 76
     0
 77
     1
 78
     0
170
     0
171
     2
172
     0
173
     0
174
     0
175
     0
176
   256
177
   256
178
   256
  0
DIMSTYLE
  2
EURO_COMMON_HEAD-APRON$0$0
 70
     0
  3

  4

  5
EURO_COMMON_HEAD-APRON$0$_
  6

  7

 40
5.0
 41
2.0
 42
2.0
 43
6.0
 44
1.5
 45
0.0
 46
1.5
 47
0.0
 48
0.0
140
2.0
141
2.0
142
0.0
143
0.0394
144
1.0
145
0.0
146
1.0
147
1.0
 71
     0
 72
     0
 73
     0
 74
     0
 75
     0
 76
     0
 77
     0
 78
     0
170
     0
171
     2
172
     1
173
     0
174
     1
175
     0
176
     0
177
     0
178
     0
  0
ENDTAB
  0
ENDSEC
  0
SECTION
  2
BLOCKS
  0
BLOCK
  8
0
  2
$MODEL_SPACE
 70
     0
 10
0.0
 20
0.0
 30
0.0
  3
$MODEL_SPACE
  1

  0
ENDBLK
  5
17
  8
0
  0
BLOCK
 67
     1
  8
0
  2
$PAPER_SPACE
 70
     0
 10
0.0
 20
0.0
 30
0.0
  3
$PAPER_SPACE
  1

  0
ENDBLK
  5
20
 67
     1
  8
0
  0
BLOCK
  8
0
  2
_ARCHTICK
 70
     0
 10
0.0
 20
0.0
 30
0.0
  3
_ARCHTICK
  1

  0
POLYLINE
  5
85
  8
0
  6
BYBLOCK
 62
     0
 66
     1
 10
0.0
 20
0.0
 30
0.0
 40
0.15
 41
0.15
  0
VERTEX
  5
A33
  8
0
  6
BYBLOCK
 62
     0
 10
-0.5
 20
-0.5
 30
0.0
  0
VERTEX
  5
A34
  8
0
  6
BYBLOCK
 62
     0
 10
0.5
 20
0.5
 30
0.0
  0
SEQEND
  5
A35
  8
0
  6
BYBLOCK
 62
     0
  0
ENDBLK
  5
86
  8
0
  0
BLOCK
  8
0
  2
EURO_COMMON_HEAD-APRON$0$_
 70
     0
 10
0.0
 20
0.0
 30
0.0
  3
EURO_COMMON_HEAD-APRON$0$_
  1

  0
POLYLINE
  5
7D9
  8
0
  6
BYBLOCK
 62
     0
 66
     1
 10
0.0
 20
0.0
 30
0.0
 40
0.15
 41
0.15
  0
VERTEX
  5
A57
  8
0
  6
BYBLOCK
 62
     0
 10
-0.5
 20
-0.5
 30
0.0
  0
VERTEX
  5
A58
  8
0
  6
BYBLOCK
 62
     0
 10
0.5
 20
0.5
 30
0.0
  0
SEQEND
  5
A59
  8
0
  6
BYBLOCK
 62
     0
  0
ENDBLK
  5
7DA
  8
0
  0
BLOCK
  8
0
  2
*D11
 70
     1
 10
0.0
 20
0.0
 30
0.0
  3
*D11
  1

  0
LINE
  5
9AA
  8
0
 10
-196.08672308105079
 20
77.767679230439882
 30
0.0
 11
-202.5967305402927
 21
102.0633578259921
 31
0.0
  0
LINE
  5
9AB
  8
0
 10
-50.033163434727612
 20
110.7400665585905
 30
0.0
 11
-58.08380740165822
 21
140.7854788768351
 31
0.0
  0
LINE
  5
9AC
  8
0
 10
-209.66779835215939
 20
89.815909112076923
 30
0.0
 11
-45.836358687743008
 21
133.7144110649684
 31
0.0
  0
INSERT
  5
9AD
  8
0
  2
*U47
 10
0.0
 20
0.0
 30
0.0
  0
INSERT
  5
9AE
  8
0
  2
EURO_COMMON_HEAD-APRON$0$_
 10
-200.00854008926839
 20
92.404099563101198
 30
0.0
 41
10.0
 42
10.0
 43
10.0
 50
194.9999999999944
  0
INSERT
  5
9AF
  8
0
  2
EURO_COMMON_HEAD-APRON$0$_
 10
-55.495616950633952
 20
131.12622061394421
 30
0.0
 41
10.0
 42
10.0
 43
10.0
 50
14.999999999994451
  0
POINT
  5
9B0
  8
DEFPOINTS
 62
     0
 10
-193.4985326300266
 20
68.108420967548923
 30
0.0
  0
POINT
  5
9B1
  8
DEFPOINTS
 62
     0
 10
-47.44497298370333
 20
101.0808082956996
 30
0.0
  0
POINT
  5
9B2
  8
DEFPOINTS
 62
     0
 10
-55.495616950633952
 20
131.12622061394421
 30
0.0
  0
ENDBLK
  5
8C7
  8
0
  0
BLOCK
  8
0
  2
*D12
 70
     1
 10
0.0
 20
0.0
 30
0.0
  3
*D12
  1

  0
LINE
  5
9A1
  8
0
 10
136.0059896976272
 20
257.45729858207631
 30
0.0
 11
171.0059896976272
 21
257.45729858207631
 31
0.0
  0
LINE
  5
9A2
  8
0
 10
136.0059896976272
 20
332.45729858207608
 30
0.0
 11
171.0059896976272
 21
332.45729858207608
 31
0.0
  0
LINE
  5
9A3
  8
0
 10
161.0059896976272
 20
247.45729858207639
 30
0.0
 11
161.0059896976272
 21
342.45729858207608
 31
0.0
  0
INSERT
  5
9A4
  8
0
  2
*U46
 10
0.0
 20
0.0
 30
0.0
  0
INSERT
  5
9A5
  8
0
  2
EURO_COMMON_HEAD-APRON$0$_
 10
161.0059896976272
 20
257.45729858207631
 30
0.0
 41
10.0
 42
10.0
 43
10.0
 50
270.0
  0
INSERT
  5
9A6
  8
0
  2
EURO_COMMON_HEAD-APRON$0$_
 10
161.0059896976272
 20
332.45729858207608
 30
0.0
 41
10.0
 42
10.0
 43
10.0
 50
90.0
  0
POINT
  5
9A7
  8
DEFPOINTS
 62
     0
 10
-12.0
 20
257.45729858207642
 30
0.0
  0
POINT
  5
9A8
  8
DEFPOINTS
 62
     0
 10
-5.0000000000018181
 20
332.45729858207619
 30
0.0
  0
POINT
  5
9A9
  8
DEFPOINTS
 62
     0
 10
161.0059896976272
 20
332.45729858207608
 30
0.0
  0
ENDBLK
  5
8D3
  8
0
  0
BLOCK
  8
0
  2
*D13
 70
     1
 10
0.0
 20
0.0
 30
0.0
  3
*D13
  1

  0
LINE
  5
996
  8
0
 10
108.6521360152455
 20
247.45729858207639
 30
0.0
 11
143.6521360152455
 21
247.45729858207639
 31
0.0
  0
LINE
  5
997
  8
0
 10
108.6521360152455
 20
257.45729858207642
 30
0.0
 11
143.6521360152455
 21
257.45729858207631
 31
0.0
  0
LINE
  5
998
  8
0
 10
133.6521360152455
 20
237.45729858207639
 30
0.0
 11
133.6521360152455
 21
267.45729858207642
 31
0.0
  0
LINE
  5
999
  8
0
 10
133.6521360152455
 20
252.45729858207639
 30
0.0
 11
161.0059896976272
 21
207.40997824153851
 31
0.0
  0
LINE
  5
99A
  8
0
 10
161.0059896976272
 20
207.40997824153851
 30
0.0
 11
161.0059896976272
 21
184.06072858260259
 31
0.0
  0
INSERT
  5
99B
  8
0
  2
*U45
 10
0.0
 20
0.0
 30
0.0
  0
INSERT
  5
99C
  8
0
  2
EURO_COMMON_HEAD-APRON$0$_
 10
133.6521360152455
 20
247.45729858207639
 30
0.0
 41
10.0
 42
10.0
 43
10.0
 50
270.0
  0
INSERT
  5
99D
  8
0
  2
EURO_COMMON_HEAD-APRON$0$_
 10
133.6521360152455
 20
257.45729858207631
 30
0.0
 41
10.0
 42
10.0
 43
10.0
 50
90.0
  0
POINT
  5
99E
  8
DEFPOINTS
 62
     0
 10
-5.0000000000036371
 20
247.45729858207639
 30
0.0
  0
POINT
  5
99F
  8
DEFPOINTS
 62
     0
 10
-12.0
 20
257.45729858207642
 30
0.0
  0
POINT
  5
9A0
  8
DEFPOINTS
 62
     0
 10
133.6521360152455
 20
257.45729858207631
 30
0.0
  0
ENDBLK
  5
8DF
  8
0
  0
BLOCK
  8
0
  2
*D14
 70
     1
 10
0.0
 20
0.0
 30
0.0
  3
*D14
  1

  0
LINE
  5
98D
  8
0
 10
-70.832232092731843
 20
138.430933416264
 30
0.0
 11
-105.8322320927318
 21
138.430933416264
 31
0.0
  0
LINE
  5
98E
  8
0
 10
-70.832232092731843
 20
213.3930651191445
 30
0.0
 11
-105.8322320927318
 21
213.3930651191445
 31
0.0
  0
LINE
  5
98F
  8
0
 10
-95.832232092731829
 20
128.430933416264
 30
0.0
 11
-95.832232092731829
 21
223.3930651191445
 31
0.0
  0
INSERT
  5
990
  8
0
  2
*U44
 10
0.0
 20
0.0
 30
0.0
  0
INSERT
  5
991
  8
0
  2
EURO_COMMON_HEAD-APRON$0$_
 10
-95.832232092731829
 20
138.430933416264
 30
0.0
 41
10.0
 42
10.0
 43
10.0
 50
270.0
  0
INSERT
  5
992
  8
0
  2
EURO_COMMON_HEAD-APRON$0$_
 10
-95.832232092731829
 20
213.3930651191445
 30
0.0
 41
10.0
 42
10.0
 43
10.0
 50
90.0
  0
POINT
  5
993
  8
DEFPOINTS
 62
     0
 10
-27.777556673547231
 20
138.430933416264
 30
0.0
  0
POINT
  5
994
  8
DEFPOINTS
 62
     0
 10
-33.5
 20
213.3930651191445
 30
0.0
  0
POINT
  5
995
  8
DEFPOINTS
 62
     0
 10
-95.832232092731829
 20
213.3930651191445
 30
0.0
  0
ENDBLK
  5
8ED
  8
0
  0
BLOCK
  8
0
  2
*D15
 70
     1
 10
0.0
 20
0.0
 30
0.0
  3
*D15
  1

  0
LINE
  5
984
  8
0
 10
136.0059896976272
 20
113.4309334162642
 30
0.0
 11
171.00598969762709
 21
113.4309334162642
 31
0.0
  0
LINE
  5
985
  8
0
 10
136.0059896976272
 20
138.430933416264
 30
0.0
 11
171.00598969762709
 21
138.430933416264
 31
0.0
  0
LINE
  5
986
  8
0
 10
161.0059896976272
 20
103.4309334162641
 30
0.0
 11
161.0059896976272
 21
148.43093341626391
 31
0.0
  0
INSERT
  5
987
  8
0
  2
*U43
 10
0.0
 20
0.0
 30
0.0
  0
INSERT
  5
988
  8
0
  2
EURO_COMMON_HEAD-APRON$0$_
 10
161.0059896976272
 20
113.4309334162642
 30
0.0
 41
10.0
 42
10.0
 43
10.0
 50
270.0
  0
INSERT
  5
989
  8
0
  2
EURO_COMMON_HEAD-APRON$0$_
 10
161.0059896976272
 20
138.430933416264
 30
0.0
 41
10.0
 42
10.0
 43
10.0
 50
90.0
  0
POINT
  5
98A
  8
DEFPOINTS
 62
     0
 10
-32.0
 20
113.4309334162642
 30
0.0
  0
POINT
  5
98B
  8
DEFPOINTS
 62
     0
 10
-27.777556673547231
 20
138.430933416264
 30
0.0
  0
POINT
  5
98C
  8
DEFPOINTS
 62
     0
 10
161.0059896976272
 20
138.430933416264
 30
0.0
  0
ENDBLK
  5
8F9
  8
0
  0
BLOCK
  8
0
  2
*D16
 70
     1
 10
0.0
 20
0.0
 30
0.0
  3
*D16
  1

  0
LINE
  5
979
  8
0
 10
-22.999999999999961
 20
-80.097708488523494
 30
0.0
 11
-22.999999999999961
 21
-115.09770848852349
 31
0.0
  0
LINE
  5
97A
  8
0
 10
1.999999999999992
 20
-80.097708488523494
 30
0.0
 11
1.9999999999999889
 21
-115.09770848852349
 31
0.0
  0
LINE
  5
97B
  8
0
 10
-32.999999999999957
 20
-105.09770848852349
 30
0.0
 11
11.999999999999989
 21
-105.09770848852349
 31
0.0
  0
LINE
  5
97C
  8
0
 10
-10.49999999999998
 20
-105.09770848852349
 30
0.0
 11
-25.230936286675441
 21
-142.6266725929178
 31
0.0
  0
LINE
  5
97D
  8
0
 10
-25.230936286675441
 20
-142.6266725929178
 30
0.0
 11
-180.21047243947211
 21
-142.6266725929178
 31
0.0
  0
INSERT
  5
97E
  8
0
  2
*U42
 10
0.0
 20
0.0
 30
0.0
  0
INSERT
  5
97F
  8
0
  2
EURO_COMMON_HEAD-APRON$0$_
 10
-22.999999999999961
 20
-105.09770848852349
 30
0.0
 41
10.0
 42
10.0
 43
10.0
 50
180.0
  0
INSERT
  5
980
  8
0
  2
EURO_COMMON_HEAD-APRON$0$_
 10
1.99999999999999
 20
-105.09770848852349
 30
0.0
 41
10.0
 42
10.0
 43
10.0
  0
POINT
  5
981
  8
DEFPOINTS
 62
     0
 10
-22.99999999999995
 20
50.259720406441431
 30
0.0
  0
POINT
  5
982
  8
DEFPOINTS
 62
     0
 10
1.999999999999996
 20
-5.903228383440335
 30
0.0
  0
POINT
  5
983
  8
DEFPOINTS
 62
     0
 10
1.99999999999999
 20
-105.09770848852349
 30
0.0
  0
ENDBLK
  5
905
  8
0
  0
BLOCK
  8
0
  2
*U17
 70
     1
 10
0.0
 20
0.0
 30
0.0
  3
*U17
  1

  0
SOLID
  5
A6C
  8
0
 10
-359.65536180970958
 20
28.89332838922622
 30
0.0
 11
-353.06431049259481
 21
21.19035361885744
 31
0.0
 12
-361.79735085322829
 22
26.339313109601498
 32
0.0
 13
-361.79735085322829
 23
26.339313109601498
 33
0.0
  0
POLYLINE
  5
A6D
  8
0
 66
     1
 10
0.0
 20
0.0
 30
0.0
  0
VERTEX
  5
A6E
  8
0
 10
-360.72635633146888
 20
27.616320749413859
 30
0.0
  0
VERTEX
  5
A6F
  8
0
 10
-419.05657375393639
 20
76.536422215429411
 30
0.0
  0
VERTEX
  5
A70
  8
0
 10
-429.05657375393628
 20
76.536422215429411
 30
0.0
  0
SEQEND
  5
A71
  8
0
  0
ENDBLK
  5
A73
  8
0
  0
BLOCK
  8
0
  2
*U18
 70
     1
 10
0.0
 20
0.0
 30
0.0
  3
*U18
  1

  0
TEXT
  5
A75
  8
0
 10
-484.73188071164441
 20
71.618277604242508
 30
0.0
 40
10.0
  1
Euroline
  7
EURO_COMMON_HEAD-APRON$0$A
  0
ENDBLK
  5
A77
  8
0
  0
BLOCK
  8
0
  2
*U19
 70
     1
 10
0.0
 20
0.0
 30
0.0
  3
*U19
  1

  0
SOLID
  5
A85
  8
0
 10
-34.54565821251704
 20
335.29188340883519
 30
0.0
 11
-26.0
 21
329.83757286646443
 31
0.0
 12
-35.852696322879638
 22
332.22549098626911
 32
0.0
 13
-35.852696322879638
 23
332.22549098626911
 33
0.0
  0
POLYLINE
  5
A86
  8
0
 66
     1
 10
0.0
 20
0.0
 30
0.0
  0
VERTEX
  5
A87
  8
0
 10
-35.199177267698332
 20
333.75868719755221
 30
0.0
  0
VERTEX
  5
A88
  8
0
 10
-191.22796188899059
 20
400.26536335315132
 30
0.0
  0
VERTEX
  5
A89
  8
0
 10
-201.22796188899059
 20
400.26536335315132
 30
0.0
  0
SEQEND
  5
A8A
  8
0
  0
ENDBLK
  5
A8C
  8
0
  0
BLOCK
  8
0
  2
*U20
 70
     1
 10
0.0
 20
0.0
 30
0.0
  3
*U20
  1

  0
TEXT
  5
A8E
  8
0
 10
-260.43669313046411
 20
396.65008368057278
 30
0.0
 40
10.0
  1
Cladding
  7
EURO_COMMON_HEAD-APRON$0$A
  0
ENDBLK
  5
A90
  8
0
  0
BLOCK
  8
0
  2
*U21
 70
     1
 10
0.0
 20
0.0
 30
0.0
  3
*U21
  1

  0
SOLID
  5
A92
  8
0
 10
111.26338878586201
 20
363.16025501556538
 30
0.0
 11
102.0491832541629
 21
358.93223015785912
 31
0.0
 12
109.3940723167843
 22
365.92010411461882
 32
0.0
 13
109.3940723167843
 23
365.92010411461882
 33
0.0
  0
POLYLINE
  5
A93
  8
0
 66
     1
 10
0.0
 20
0.0
 30
0.0
  0
VERTEX
  5
A94
  8
0
 10
110.3287305513232
 20
364.5401795650921
 30
0.0
  0
VERTEX
  5
A95
  8
0
 10
153.11771074210631
 20
393.52225158964711
 30
0.0
  0
VERTEX
  5
A96
  8
0
 10
163.11771074210631
 20
393.52225158964711
 30
0.0
  0
SEQEND
  5
A97
  8
0
  0
ENDBLK
  5
A99
  8
0
  0
BLOCK
  8
0
  2
*U22
 70
     1
 10
0.0
 20
0.0
 30
0.0
  3
*U22
  1

  0
TEXT
  5
A9B
  8
0
 10
167.947178682079
 20
389.90697191706857
 30
0.0
 40
10.0
  1
Wall framing
  7
EURO_COMMON_HEAD-APRON$0$A
  0
ENDBLK
  5
A9D
  8
0
  0
BLOCK
  8
0
  2
*U23
 70
     1
 10
0.0
 20
0.0
 30
0.0
  3
*U23
  1

  0
SOLID
  5
A9F
  8
0
 10
4.1420175171573081
 20
142.63937568573459
 30
0.0
 11
-2.0000000000018181
 21
150.7049443945541
 31
0.0
 12
6.4258766920631381
 22
145.06735805393859
 32
0.0
 13
6.4258766920631381
 23
145.06735805393859
 33
0.0
  0
POLYLINE
  5
AA0
  8
0
 66
     1
 10
0.0
 20
0.0
 30
0.0
  0
VERTEX
  5
AA1
  8
0
 10
5.2839471046102231
 20
143.85336686983661
 30
0.0
  0
VERTEX
  5
AA2
  8
0
 10
153.11771074210631
 20
4.7949034040980223
 30
0.0
  0
VERTEX
  5
AA3
  8
0
 10
163.11771074210631
 20
4.7949034040980223
 30
0.0
  0
SEQEND
  5
AA4
  8
0
  0
ENDBLK
  5
AA6
  8
0
  0
BLOCK
  8
0
  2
*U24
 70
     1
 10
0.0
 20
0.0
 30
0.0
  3
*U24
  1

  0
TEXT
  5
AA8
  8
0
 10
167.03994812273379
 20
-0.1232412070888813
 30
0.0
 40
10.0
  1
Packer
  7
EURO_COMMON_HEAD-APRON$0$A
  0
ENDBLK
  5
AAA
  8
0
  0
BLOCK
  8
0
  2
*U25
 70
     1
 10
0.0
 20
0.0
 30
0.0
  3
*U25
  1

  0
SOLID
  5
AAC
  8
0
 10
-39.159469616168103
 20
255.91343797369899
 30
0.0
 11
-32.128054787670408
 21
248.6102206493029
 31
0.0
 12
-41.1480041630805
 22
253.23821060638099
 32
0.0
 13
-41.1480041630805
 23
253.23821060638099
 33
0.0
  0
POLYLINE
  5
AAD
  8
0
 66
     1
 10
0.0
 20
0.0
 30
0.0
  0
VERTEX
  5
AAE
  8
0
 10
-40.153736889624298
 20
254.57582429004
 30
0.0
  0
VERTEX
  5
AAF
  8
0
 10
-191.2279618889888
 20
366.87144417988651
 30
0.0
  0
VERTEX
  5
AB0
  8
0
 10
-201.2279618889888
 20
366.87144417988651
 30
0.0
  0
SEQEND
  5
AB1
  8
0
  0
ENDBLK
  5
AB3
  8
0
  0
BLOCK
  8
0
  2
*U26
 70
     1
 10
0.0
 20
0.0
 30
0.0
  3
*U26
  1

  0
TEXT
  5
AB5
  8
0
 10
-240.34119517684701
 20
361.87144417988662
 30
0.0
 40
10.0
  1
5° fall
  7
EURO_COMMON_HEAD-APRON$0$A
  0
ENDBLK
  5
AB7
  8
0
  0
BLOCK
  8
0
  2
*U27
 70
     1
 10
0.0
 20
0.0
 30
0.0
  3
*U27
  1

  0
SOLID
  5
AB9
  8
0
 10
-52.078840641341003
 20
249.01731027111549
 30
0.0
 11
-44.028278959256561
 21
242.8556356301813
 31
0.0
 12
-53.64205610963942
 22
246.07325379903759
 32
0.0
 13
-53.64205610963942
 23
246.07325379903759
 33
0.0
  0
POLYLINE
  5
ABA
  8
0
 66
     1
 10
0.0
 20
0.0
 30
0.0
  0
VERTEX
  5
ABB
  8
0
 10
-52.860448375490208
 20
247.5452820350765
 30
0.0
  0
VERTEX
  5
ABC
  8
0
 10
-191.22796188899059
 20
321.01474143088541
 30
0.0
  0
VERTEX
  5
ABD
  8
0
 10
-201.22796188899059
 20
321.01474143088541
 30
0.0
  0
SEQEND
  5
ABE
  8
0
  0
ENDBLK
  5
AC0
  8
0
  0
BLOCK
  8
0
  2
*U28
 70
     1
 10
0.0
 20
0.0
 30
0.0
  3
*U28
  1

  0
TEXT
  5
AC2
  8
0
 10
-405.22523337603019
 20
325.7532589388436
 30
0.0
 40
10.0
  1
Hidden flashing material to have
  7
EURO_COMMON_HEAD-APRON$0$A
  0
TEXT
  5
AC3
  8
0
 10
-386.93055397630309
 20
309.04566457777042
 30
0.0
 40
10.0
  1
50 year durability see Table 1
  7
EURO_COMMON_HEAD-APRON$0$A
  0
ENDBLK
  5
AC5
  8
0
  0
BLOCK
  8
0
  2
*U29
 70
     1
 10
0.0
 20
0.0
 30
0.0
  3
*U29
  1

  0
SOLID
  5
AC7
  8
0
 10
-50.266397154035651
 20
227.8068189576822
 30
0.0
 11
-41.372173479096091
 21
222.94157867605969
 31
0.0
 12
-51.363544073754319
 22
224.65921991274919
 32
0.0
 13
-51.363544073754319
 23
224.65921991274919
 33
0.0
  0
POLYLINE
  5
AC8
  8
0
 66
     1
 10
0.0
 20
0.0
 30
0.0
  0
VERTEX
  5
AC9
  8
0
 10
-50.814970613894978
 20
226.23301943521571
 30
0.0
  0
VERTEX
  5
ACA
  8
0
 10
-191.22796188899059
 20
275.1762547923222
 30
0.0
  0
VERTEX
  5
ACB
  8
0
 10
-201.22796188899059
 20
275.1762547923222
 30
0.0
  0
SEQEND
  5
ACC
  8
0
  0
ENDBLK
  5
ACE
  8
0
  0
BLOCK
  8
0
  2
*U30
 70
     1
 10
0.0
 20
0.0
 30
0.0
  3
*U30
  1

  0
TEXT
  5
AD0
  8
0
 10
-388.56766175256502
 20
271.56097511974372
 30
0.0
 40
10.0
  1
Solid fixed apron overflashing
  7
EURO_COMMON_HEAD-APRON$0$A
  0
ENDBLK
  5
AD2
  8
0
  0
BLOCK
  8
0
  2
*U31
 70
     1
 10
0.0
 20
0.0
 30
0.0
  3
*U31
  1

  0
SOLID
  5
AD4
  8
0
 10
-385.23094553044479
 20
-49.066013710716327
 30
0.0
 11
-380.83883012122533
 21
-39.928886152786852
 31
0.0
 12
-382.03014116521263
 22
-49.996584786250793
 32
0.0
 13
-382.03014116521263
 23
-49.996584786250793
 33
0.0
  0
POLYLINE
  5
AD5
  8
0
 66
     1
 10
0.0
 20
0.0
 30
0.0
  0
VERTEX
  5
AD6
  8
0
 10
-383.63054334782868
 20
-49.531299248483549
 30
0.0
  0
VERTEX
  5
AD7
  8
0
 10
-427.56300911479639
 20
-200.6419794526403
 30
0.0
  0
VERTEX
  5
AD8
  8
0
 10
-437.56300911479627
 20
-200.6419794526403
 30
0.0
  0
SEQEND
  5
AD9
  8
0
  0
ENDBLK
  5
ADB
  8
0
  0
BLOCK
  8
0
  2
*U32
 70
     1
 10
0.0
 20
0.0
 30
0.0
  3
*U32
  1

  0
TEXT
  5
ADD
  8
0
 10
-494.35700638628339
 20
-204.1719930952051
 30
0.0
 40
10.0
  1
Plywood
  7
EURO_COMMON_HEAD-APRON$0$A
  0
ENDBLK
  5
ADF
  8
0
  0
BLOCK
  8
0
  2
*U33
 70
     1
 10
0.0
 20
0.0
 30
0.0
  3
*U33
  1

  0
SOLID
  5
AE1
  8
0
 10
-256.90908107379772
 20
0.0891885179053258
 30
0.0
 11
-253.38378123255819
 21
9.5944522600186701
 31
0.0
 12
-253.63573608493721
 22
-0.5403539310310866
 32
0.0
 13
-253.63573608493721
 23
-0.5403539310310866
 33
0.0
  0
POLYLINE
  5
AE2
  8
0
 66
     1
 10
0.0
 20
0.0
 30
0.0
  0
VERTEX
  5
AE3
  8
0
 10
-255.27240857936749
 20
-0.2255827065628804
 30
0.0
  0
VERTEX
  5
AE4
  8
0
 10
-293.81727007239903
 20
-200.6419794526403
 30
0.0
  0
VERTEX
  5
AE5
  8
0
 10
-303.81727007239903
 20
-200.6419794526403
 30
0.0
  0
SEQEND
  5
AE6
  8
0
  0
ENDBLK
  5
AE8
  8
0
  0
BLOCK
  8
0
  2
*U34
 70
     1
 10
0.0
 20
0.0
 30
0.0
  3
*U34
  1

  0
TEXT
  5
AEA
  8
0
 10
-395.67265888549588
 20
-204.2572591252187
 30
0.0
 40
10.0
  1
Roof underlay
  7
EURO_COMMON_HEAD-APRON$0$A
  0
ENDBLK
  5
AEC
  8
0
  0
BLOCK
  8
0
  2
*U35
 70
     1
 10
0.0
 20
0.0
 30
0.0
  3
*U35
  1

  0
SOLID
  5
AEE
  8
0
 10
-36.030500062389287
 20
78.563708419200083
 30
0.0
 11
-43.303868262063588
 21
85.625995075074684
 31
0.0
 12
-34.133183752358313
 22
81.304383870763345
 32
0.0
 13
-34.133183752358313
 23
81.304383870763345
 33
0.0
  0
POLYLINE
  5
AEF
  8
0
 66
     1
 10
0.0
 20
0.0
 30
0.0
  0
VERTEX
  5
AF0
  8
0
 10
-35.0818419073738
 20
79.934046144981707
 30
0.0
  0
VERTEX
  5
AF1
  8
0
 10
153.11771074210631
 20
-50.352843745144582
 30
0.0
  0
VERTEX
  5
AF2
  8
0
 10
163.11771074210631
 20
-50.352843745144582
 30
0.0
  0
SEQEND
  5
AF3
  8
0
  0
ENDBLK
  5
AF5
  8
0
  0
BLOCK
  8
0
  2
*U36
 70
     1
 10
0.0
 20
0.0
 30
0.0
  3
*U36
  1

  0
TEXT
  5
AF7
  8
0
 10
167.49015276120591
 20
-45.634790084389692
 30
0.0
 40
10.0
  1
Stop ended
  7
EURO_COMMON_HEAD-APRON$0$A
  0
TEXT
  5
AF8
  8
0
 10
167.87214457566699
 20
-62.301456751056357
 30
0.0
 40
10.0
  1
trays
  7
EURO_COMMON_HEAD-APRON$0$A
  0
ENDBLK
  5
AFA
  8
0
  0
BLOCK
  8
0
  2
*U37
 70
     1
 10
0.0
 20
0.0
 30
0.0
  3
*U37
  1

  0
SOLID
  5
AFC
  8
0
 10
-113.06299467322
 20
83.004190307494923
 30
0.0
 11
-109.7701870464871
 21
92.592474601940296
 31
0.0
 12
-109.7752912465495
 22
82.454538336362404
 32
0.0
 13
-109.7752912465495
 23
82.454538336362404
 33
0.0
  0
POLYLINE
  5
AFD
  8
0
 66
     1
 10
0.0
 20
0.0
 30
0.0
  0
VERTEX
  5
AFE
  8
0
 10
-111.4191429598847
 20
82.729364321928671
 30
0.0
  0
VERTEX
  5
AFF
  8
0
 10
-138.48955034699699
 20
-79.190315406679005
 30
0.0
  0
VERTEX
  5
B00
  8
0
 10
-148.48955034699699
 20
-79.190315406679005
 30
0.0
  0
SEQEND
  5
B01
  8
0
  0
ENDBLK
  5
B03
  8
0
  0
BLOCK
  8
0
  2
*U38
 70
     1
 10
0.0
 20
0.0
 30
0.0
  3
*U38
  1

  0
TEXT
  5
B05
  8
0
 10
-237.9847754493162
 20
-82.805595079257458
 30
0.0
 40
10.0
  1
Head flashing
  7
EURO_COMMON_HEAD-APRON$0$A
  0
ENDBLK
  5
B07
  8
0
  0
BLOCK
  8
0
  2
*U39
 70
     1
 10
0.0
 20
0.0
 30
0.0
  3
*U39
  1

  0
TEXT
  5
B09
  8
0
 10
-474.7331603701856
 20
-339.24623122043909
 30
0.0
 40
10.0
  1
Note:
  7
EURO_COMMON_HEAD-APRON$0$A
  0
TEXT
  5
B0A
  8
0
 10
-475.19018629105869
 20
-356.08342994713308
 30
0.0
 40
10.0
  1
1. Rivet head flashing onto cap, angle seam or roll seam.
  7
EURO_COMMON_HEAD-APRON$0$A
  0
TEXT
  5
B0B
  8
0
 10
-474.07831725968077
 20
-372.92062867382703
 30
0.0
 40
10.0
  1
2. For installation of ply refer to Ecoply: Structural Plywood Properties and Applications Manual available
  7
EURO_COMMON_HEAD-APRON$0$A
  0
TEXT
  5
B0C
  8
0
 10
-473.79864468123611
 20
-389.75782740052102
 30
0.0
 40
10.0
  1
from www.ecoply.co.nz
  7
EURO_COMMON_HEAD-APRON$0$A
  0
ENDBLK
  5
B0E
  8
0
  0
BLOCK
  8
0
  2
*U40
 70
     1
 10
0.0
 20
0.0
 30
0.0
  3
*U40
  1

  0
SOLID
  5
B39
  8
0
 10
-8.9677916306539913
 20
376.76141397640902
 30
0.0
 11
0.0
 21
372.03314885620381
 31
0.0
 12
-10.016537527441979
 22
373.59735911672641
 32
0.0
 13
-10.016537527441979
 23
373.59735911672641
 33
0.0
  0
POLYLINE
  5
B3A
  8
0
 66
     1
 10
0.0
 20
0.0
 30
0.0
  0
VERTEX
  5
B3B
  8
0
 10
-9.4921645790479854
 20
375.17938654656768
 30
0.0
  0
VERTEX
  5
B3C
  8
0
 10
-191.22796188899059
 20
435.41686035175047
 30
0.0
  0
VERTEX
  5
B3D
  8
0
 10
-201.22796188899059
 20
435.41686035175047
 30
0.0
  0
SEQEND
  5
B3E
  8
0
  0
ENDBLK
  5
B40
  8
0
  0
BLOCK
  8
0
  2
*U41
 70
     1
 10
0.0
 20
0.0
 30
0.0
  3
*U41
  1

  0
TEXT
  5
B42
  8
0
 10
-289.53628385351999
 20
431.88684670918559
 30
0.0
 40
10.0
  1
Building wrap
  7
EURO_COMMON_HEAD-APRON$0$A
  0
ENDBLK
  5
B44
  8
0
  0
BLOCK
  8
0
  2
*U42
 70
     1
 10
0.0
 20
0.0
 30
0.0
  3
*U42
  1

  0
TEXT
  5
B77
  8
0
 10
-175.6197493835376
 20
-134.66623603084409
 30
0.0
 40
10.0
  1
25mm minimum air gap
  7
EURO_COMMON_HEAD-APRON$0$A
  0
ENDBLK
  5
B79
  8
0
  0
BLOCK
  8
0
  2
*U43
 70
     1
 10
0.0
 20
0.0
 30
0.0
  3
*U43
  1

  0
TEXT
  5
B7B
  8
0
 10
155.81499379039661
 20
118.23652686783289
 30
0.0
 40
10.0
  1
25
 50
90.0
  7
EURO_COMMON_HEAD-APRON$0$A
  0
ENDBLK
  5
B7D
  8
0
  0
BLOCK
  8
0
  2
*U44
 70
     1
 10
0.0
 20
0.0
 30
0.0
  3
*U44
  1

  0
TEXT
  5
B7F
  8
0
 10
-101.0027641527591
 20
168.09139899485291
 30
0.0
 40
10.0
  1
75
 50
90.0
  7
EURO_COMMON_HEAD-APRON$0$A
  0
ENDBLK
  5
B81
  8
0
  0
BLOCK
  8
0
  2
*U45
 70
     1
 10
0.0
 20
0.0
 30
0.0
  3
*U45
  1

  0
TEXT
  5
B83
  8
0
 10
155.81499379039661
 20
187.53958260715919
 30
0.0
 40
10.0
  1
10
 50
90.0
  7
EURO_COMMON_HEAD-APRON$0$A
  0
ENDBLK
  5
B85
  8
0
  0
BLOCK
  8
0
  2
*U46
 70
     1
 10
0.0
 20
0.0
 30
0.0
  3
*U46
  1

  0
TEXT
  5
B87
  8
0
 10
155.83545763759989
 20
287.13669830922493
 30
0.0
 40
10.0
  1
75
 50
90.0
  7
EURO_COMMON_HEAD-APRON$0$A
  0
ENDBLK
  5
B89
  8
0
  0
BLOCK
  8
0
  2
*U47
 70
     1
 10
0.0
 20
0.0
 30
0.0
  3
*U47
  1

  0
TEXT
  5
B8B
  8
0
 10
-153.43605626413429
 20
110.2572734089059
 30
0.0
 40
10.0
  1
150
 50
14.999999999994451
  7
EURO_COMMON_HEAD-APRON$0$A
  0
ENDBLK
  5
B8D
  8
0
  0
ENDSEC
  0
SECTION
  2
ENTITIES
  0
POLYLINE
  5
889
  8
0
 66
     1
 10
0.0
 20
0.0
 30
0.0
 70
   128
 40
0.5
 41
0.5
  0
VERTEX
  5
A5A
  8
0
 10
-451.26204105461568
 20
-40.250486756927913
 30
0.0
  0
VERTEX
  5
A5B
  8
0
 10
-39.162763540423839
 20
70.171181854449742
 30
0.0
  0
VERTEX
  5
A5C
  8
0
 10
-47.44497298370333
 20
101.0808082956996
 30
0.0
  0
SEQEND
  5
A5D
  8
0
  0
DIMENSION
  5
88A
  8
0
  2
*D11
 10
-55.495616950633952
 20
131.12622061394421
 30
0.0
 11
-140.42366928131759
 21
108.36981757718971
 31
0.0
 70
   128
 13
-193.4985326300266
 23
68.108420967548923
 33
0.0
 14
-47.44497298370333
 24
101.0808082956996
 34
0.0
 50
14.999999999994451
  0
POLYLINE
  5
88B
  8
0
 66
     1
 10
0.0
 20
0.0
 30
0.0
 70
   128
1001
GENIUS_GENREC_14
1002
{
1000
PYDIR
1011
2.0
1021
0.0
1031
0.0
1021
-236.97196777530669
1031
0.0
1002
}
1002
{
1000
PXDIR
1011
102.0
1021
0.0
1031
0.0
1021
360.56735350453408
1031
0.0
1002
}
1002
{
1000
PORI
1011
2.0
1021
0.0
1031
0.0
1021
360.56735350453408
1031
0.0
1002
}
1002
{
1000
PINS
1011
2.0
1021
0.0
1031
0.0
1021
360.56735350453408
1031
0.0
1002
}
1002
{
1000
PINS2
1011
102.0
1021
0.0
1031
0.0
1021
-236.97196777530669
1031
0.0
1002
}
1002
{
1000
C
1070
     1
1002
}
1001
GENIUS_GENODEF_13
1002
{
1000
HIER
1070
     0
1002
}
1002
{
1000
MANEDIT
1070
     0
1002
}
1002
{
1000
NOSEL
1070
     0
1002
}
1002
{
1000
BEHIND
1070
     0
1002
}
1002
{
1000
OTHER
1070
     0
1002
}
1002
{
1000
REACTOR
1002
}
1001
GENIUS_GENOBJ-N-REC_13
1002
{
1000
OWNER
1000
GEN
1002
}
  0
VERTEX
  5
A5E
  8
0
 10
102.0
 20
402.21784715085232
 30
0.0
  0
VERTEX
  5
A5F
  8
0
 10
102.0
 20
-236.97196777530669
 30
0.0
  0
SEQEND
  5
A60
  8
0
  0
POLYLINE
  5
88C
  8
0
 66
     1
 10
0.0
 20
0.0
 30
0.0
 70
   128
1001
GENIUS_GENREC_14
1002
{
1000
PYDIR
1011
2.0
1021
0.0
1031
0.0
1021
-236.97196777530669
1031
0.0
1002
}
1002
{
1000
PXDIR
1011
102.0
1021
0.0
1031
0.0
1021
360.56735350453408
1031
0.0
1002
}
1002
{
1000
PORI
1011
2.0
1021
0.0
1031
0.0
1021
360.56735350453408
1031
0.0
1002
}
1002
{
1000
PINS
1011
2.0
1021
0.0
1031
0.0
1021
360.56735350453408
1031
0.0
1002
}
1002
{
1000
PINS2
1011
102.0
1021
0.0
1031
0.0
1021
-236.97196777530669
1031
0.0
1002
}
1002
{
1000
C
1070
     1
1002
}
1001
GENIUS_GENODEF_13
1002
{
1000
HIER
1070
     0
1002
}
1002
{
1000
MANEDIT
1070
     0
1002
}
1002
{
1000
NOSEL
1070
     0
1002
}
1002
{
1000
BEHIND
1070
     0
1002
}
1002
{
1000
OTHER
1070
     0
1002
}
1002
{
1000
REACTOR
1002
}
1001
GENIUS_GENOBJ-N-REC_13
1002
{
1000
OWNER
1000
GEN
1002
}
  0
VERTEX
  5
A61
  8
0
 10
2.0
 20
-236.97196777530669
 30
0.0
  0
VERTEX
  5
A62
  8
0
 10
2.0
 20
402.21784715085232
 30
0.0
  0
SEQEND
  5
A63
  8
0
  0
POLYLINE
  5
88D
  8
0
 66
     1
 10
0.0
 20
0.0
 30
0.0
 70
   128
  0
VERTEX
  5
A64
  8
0
 10
-18.0
 20
-236.97196777530669
 30
0.0
  0
VERTEX
  5
A65
  8
0
 10
47.0
 20
-236.97196777530669
 30
0.0
  0
VERTEX
  5
A66
  8
0
 10
49.5
 20
-243.8406613239413
 30
0.0
  0
VERTEX
  5
A67
  8
0
 10
54.5
 20
-230.10327422666521
 30
0.0
  0
VERTEX
  5
A68
  8
0
 10
57.0
 20
-236.97196777530669
 30
0.0
  0
VERTEX
  5
A69
  8
0
 10
122.0
 20
-236.97196777530669
 30
0.0
  0
SEQEND
  5
A6A
  8
0
  0
LINE
  5
88E
  8
0
 10
2.0
 20
12.959212549786599
 30
0.0
 11
-451.26204105461409
 21
-108.49198531047909
 31
0.0
1001
GENIUS_GENREC_14
1002
{
1000
PYDIR
1011
44.658742811845322
1021
0.0
1031
0.0
1021
-579.44000561653786
1031
0.0
1002
}
1002
{
1000
PXDIR
1011
144.65874281184529
1021
0.0
1031
0.0
1021
550.13197108969894
1031
0.0
1002
}
1002
{
1000
PORI
1011
44.658742811845322
1021
0.0
1031
0.0
1021
550.13197108969894
1031
0.0
1002
}
1002
{
1000
PINS
1011
44.658742811845322
1021
0.0
1031
0.0
1021
550.13197108969894
1031
0.0
1002
}
1002
{
1000
PINS2
1011
144.65874281184529
1021
0.0
1031
0.0
1021
-579.44000561653786
1031
0.0
1002
}
1002
{
1000
C
1070
     1
1002
}
1001
GENIUS_GENODEF_13
1002
{
1000
HIER
1070
     0
1002
}
1002
{
1000
MANEDIT
1070
     0
1002
}
1002
{
1000
NOSEL
1070
     0
1002
}
1002
{
1000
BEHIND
1070
     0
1002
}
1002
{
1000
OTHER
1070
     0
1002
}
1002
{
1000
REACTOR
1002
}
1001
GENIUS_GENOBJ-N-REC_13
1002
{
1000
OWNER
1000
GEN
1002
}
  0
INSERT
  5
88F
  8
0
  2
*U17
 10
0.0
 20
0.0
 30
0.0
1001
ACAD
1000
DSTYLE
1002
{
1070
   176
1070
   256
1002
}
  0
INSERT
  5
890
  8
0
  2
*U18
 10
0.0
 20
0.0
 30
0.0
  0
POLYLINE
  5
891
  8
0
 66
     1
 10
0.0
 20
0.0
 30
0.0
 70
   128
  0
VERTEX
  5
A78
  8
0
 10
-451.26204105461778
 20
0.4059468562543316
 30
0.0
  0
VERTEX
  5
A79
  8
0
 10
-451.2620410546142
 20
-67.825813865435748
 30
0.0
  0
VERTEX
  5
A7A
  8
0
 10
-458.13073460325438
 20
-70.325813865442115
 30
0.0
  0
VERTEX
  5
A7B
  8
0
 10
-444.39334750597197
 20
-75.325813865441646
 30
0.0
  0
VERTEX
  5
A7C
  8
0
 10
-451.2620410546142
 20
-77.825813865435521
 30
0.0
  0
VERTEX
  5
A7D
  8
0
 10
-451.2620410546142
 20
-130.59942869047649
 30
0.0
  0
SEQEND
  5
A7E
  8
0
  0
POLYLINE
  5
892
  8
0
 66
     1
 10
0.0
 20
0.0
 30
0.0
 70
   128
1001
GENIUS_GENREC_14
1002
{
1000
PYDIR
1011
-6.0
1021
0.0
1031
0.0
1021
257.45729858207642
1031
0.0
1002
}
1002
{
1000
PXDIR
1011
-26.0
1021
0.0
1031
0.0
1021
651.35119307621653
1031
0.0
1002
}
1002
{
1000
PORI
1011
-14.0
1021
0.0
1031
0.0
1021
651.35119307621653
1031
0.0
1002
}
1002
{
1000
PINS
1011
-14.0
1021
0.0
1031
0.0
1021
651.35119307621653
1031
0.0
1002
}
1002
{
1000
PINS2
1011
-26.0
1021
0.0
1031
0.0
1021
257.45729858207642
1031
0.0
1002
}
1002
{
1000
C
1070
     1
1002
}
1001
GENIUS_GENOBJ-N-REC_13
1002
{
1000
OWNER
1000
GEN
1002
}
1001
GENIUS_GENODEF_13
1002
{
1000
HIER
1070
     0
1002
}
1002
{
1000
MANEDIT
1070
     0
1002
}
1002
{
1000
NOSEL
1070
     0
1002
}
1002
{
1000
BEHIND
1070
     0
1002
}
1002
{
1000
OTHER
1070
     0
1002
}
1002
{
1000
REACTOR
1002
}
  0
VERTEX
  5
A7F
  8
0
 10
-26.0
 20
402.21784715085232
 30
0.0
  0
VERTEX
  5
A80
  8
0
 10
-26.0
 20
257.45729858207642
 30
0.0
  0
VERTEX
  5
A81
  8
0
 10
-6.0
 20
257.45729858207642
 30
0.0
  0
VERTEX
  5
A82
  8
0
 10
-6.0
 20
402.21784715085232
 30
0.0
  0
SEQEND
  5
A83
  8
0
  0
DIMENSION
  5
893
  8
0
  2
*D12
 10
161.0059896976272
 20
332.45729858207608
 30
0.0
 11
161.0059896976272
 21
294.95729858207631
 31
0.0
 70
   128
 13
-12.0
 23
257.45729858207642
 33
0.0
 14
-5.0000000000018181
 24
332.45729858207619
 34
0.0
 50
90.0
  0
INSERT
  5
894
  8
0
  2
*U19
 10
0.0
 20
0.0
 30
0.0
1001
ACAD
1000
DSTYLE
1002
{
1070
   176
1070
   256
1002
}
  0
INSERT
  5
895
  8
0
  2
*U20
 10
0.0
 20
0.0
 30
0.0
  0
INSERT
  5
896
  8
0
  2
*U21
 10
0.0
 20
0.0
 30
0.0
1001
ACAD
1000
DSTYLE
1002
{
1070
   176
1070
   256
1002
}
  0
INSERT
  5
897
  8
0
  2
*U22
 10
0.0
 20
0.0
 30
0.0
  0
INSERT
  5
898
  8
0
  2
*U23
 10
0.0
 20
0.0
 30
0.0
1001
ACAD
1000
DSTYLE
1002
{
1070
   176
1070
   256
1002
}
  0
INSERT
  5
899
  8
0
  2
*U24
 10
0.0
 20
0.0
 30
0.0
  0
DIMENSION
  5
89A
  8
0
  2
*D13
 10
133.6521360152455
 20
257.45729858207631
 30
0.0
 11
161.0059896976272
 21
202.40997824153851
 31
0.0
 70
   128
 13
-5.0000000000036371
 23
247.45729858207639
 33
0.0
 14
-12.0
 24
257.45729858207642
 34
0.0
 50
90.0
  0
DIMENSION
  5
89B
  8
0
  2
*D14
 10
-95.832232092731829
 20
213.3930651191445
 30
0.0
 11
-95.832232092731829
 21
175.9119992677042
 31
0.0
 70
   128
 13
-27.777556673547231
 23
138.430933416264
 33
0.0
 14
-33.5
 24
213.3930651191445
 34
0.0
 50
90.0
  0
INSERT
  5
89C
  8
0
  2
*U25
 10
0.0
 20
0.0
 30
0.0
1001
ACAD
1000
DSTYLE
1002
{
1070
   176
1070
   256
1002
}
  0
INSERT
  5
89D
  8
0
  2
*U26
 10
0.0
 20
0.0
 30
0.0
  0
INSERT
  5
89E
  8
0
  2
*U27
 10
0.0
 20
0.0
 30
0.0
1001
ACAD
1000
DSTYLE
1002
{
1070
   176
1070
   256
1002
}
  0
INSERT
  5
89F
  8
0
  2
*U28
 10
0.0
 20
0.0
 30
0.0
  0
INSERT
  5
8A0
  8
0
  2
*U29
 10
0.0
 20
0.0
 30
0.0
1001
ACAD
1000
DSTYLE
1002
{
1070
   176
1070
   256
1002
}
  0
INSERT
  5
8A1
  8
0
  2
*U30
 10
0.0
 20
0.0
 30
0.0
  0
INSERT
  5
8A2
  8
0
  2
*U31
 10
0.0
 20
0.0
 30
0.0
1001
ACAD
1000
DSTYLE
1002
{
1070
   176
1070
   256
1002
}
  0
INSERT
  5
8A3
  8
0
  2
*U32
 10
0.0
 20
0.0
 30
0.0
  0
INSERT
  5
8A4
  8
0
  2
*U33
 10
0.0
 20
0.0
 30
0.0
1001
ACAD
1000
DSTYLE
1002
{
1070
   176
1070
   256
1002
}
  0
INSERT
  5
8A5
  8
0
  2
*U34
 10
0.0
 20
0.0
 30
0.0
  0
LINE
  5
8A6
  8
0
 10
-451.26204105461738
 20
-7.121648983805609
 30
0.0
 11
-47.44497298370333
 21
101.0808082957
 31
0.0
  0
DIMENSION
  5
8A7
  8
0
  2
*D15
 10
161.0059896976272
 20
138.430933416264
 30
0.0
 11
161.0059896976272
 21
125.930933416264
 31
0.0
 70
   128
 13
-32.0
 23
113.4309334162642
 33
0.0
 14
-27.777556673547231
 24
138.430933416264
 34
0.0
 50
90.0
  0
INSERT
  5
8A8
  8
0
  2
*U35
 10
0.0
 20
0.0
 30
0.0
1001
ACAD
1000
DSTYLE
1002
{
1070
   176
1070
   256
1002
}
  0
INSERT
  5
8A9
  8
0
  2
*U36
 10
0.0
 20
0.0
 30
0.0
  0
INSERT
  5
8AA
  8
0
  2
*U37
 10
0.0
 20
0.0
 30
0.0
1001
ACAD
1000
DSTYLE
1002
{
1070
   176
1070
   256
1002
}
  0
INSERT
  5
8AB
  8
0
  2
*U38
 10
0.0
 20
0.0
 30
0.0
  0
INSERT
  5
8AC
  8
0
  2
*U39
 10
0.0
 20
0.0
 30
0.0
  0
POLYLINE
  5
8AE
  8
0
 66
     1
 10
0.0
 20
0.0
 30
0.0
 70
   128
  0
VERTEX
  5
B0F
  8
0
 10
122.1254694219533
 20
402.21784715085232
 30
0.0
  0
VERTEX
  5
B10
  8
0
 10
33.811081502208253
 20
402.21784715085232
 30
0.0
  0
VERTEX
  5
B11
  8
0
 10
31.31108150220825
 20
409.08654069948801
 30
0.0
  0
VERTEX
  5
B12
  8
0
 10
26.31108150220825
 20
395.34915360221561
 30
0.0
  0
VERTEX
  5
B13
  8
0
 10
23.81108150220825
 20
402.21784715085232
 30
0.0
  0
VERTEX
  5
B14
  8
0
 10
-64.503306417536805
 20
402.21784715085232
 30
0.0
  0
SEQEND
  5
B15
  8
0
  0
POLYLINE
  5
8AF
  8
0
 66
     1
 10
0.0
 20
0.0
 30
0.0
 70
   128
 40
0.5
 41
0.5
  0
VERTEX
  5
B16
  8
0
 10
-176.36613008339859
 20
68.102217297560443
 30
0.0
  0
VERTEX
  5
B17
  8
0
 10
-191.54735388610371
 20
64.034420639509648
 30
0.0
 42
-1.1046671417725431
  0
VERTEX
  5
B18
  8
0
 10
-193.2943824405445
 20
70.55441996696095
 30
0.0
  0
VERTEX
  5
B19
  8
0
 10
-27.68345598674712
 20
114.9297339680262
 30
0.0
 42
0.3394542588634029
  0
VERTEX
  5
B1A
  8
0
 10
-24.71873216715683
 20
118.7934372731826
 30
0.0
  0
VERTEX
  5
B1B
  8
0
 10
-24.718732167176839
 20
213.81126102415629
 30
0.0
 42
0.9999999999999998
  0
VERTEX
  5
B1C
  8
0
 10
-28.46873216715683
 20
213.8112610241555
 30
0.0
  0
VERTEX
  5
B1D
  8
0
 10
-28.468732167155011
 20
204.31468489711111
 30
0.0
  0
SEQEND
  5
B1E
  8
0
  0
POLYLINE
  5
8B0
  8
0
 66
     1
 10
0.0
 20
0.0
 30
0.0
 70
   128
 40
0.5
 41
0.5
  0
VERTEX
  5
B1F
  8
0
 10
-27.777556673547231
 20
138.430933416264
 30
0.0
  0
VERTEX
  5
B20
  8
0
 10
-27.777556673543589
 20
150.88265237303261
 30
0.0
 42
0.2914734195862361
  0
VERTEX
  5
B21
  8
0
 10
-30.087083626582171
 20
154.50788352118019
 30
0.0
  0
VERTEX
  5
B22
  8
0
 10
-39.062646526059332
 20
158.69325723745709
 30
0.0
 42
-0.2914734195861744
  0
VERTEX
  5
B23
  8
0
 10
-41.372173479096091
 20
162.31848838560421
 30
0.0
  0
VERTEX
  5
B24
  8
0
 10
-41.372173479096091
 20
239.7154731341866
 30
0.0
 42
-0.3888787318531227
  0
VERTEX
  5
B25
  8
0
 10
-37.72079645008489
 20
243.70025192655359
 30
0.0
  0
VERTEX
  5
B26
  8
0
 10
-2.0
 20
247.92440041427429
 30
0.0
  0
VERTEX
  5
B27
  8
0
 10
-2.0
 20
332.45729858207642
 30
0.0
  0
SEQEND
  5
B28
  8
0
  0
POLYLINE
  5
8B1
  8
0
 66
     1
 10
0.0
 20
0.0
 30
0.0
 70
   128
  0
VERTEX
  5
B29
  8
0
 10
-451.26204105461551
 20
-43.426867658977997
 30
0.0
  0
VERTEX
  5
B2A
  8
0
 10
-35.443024505312913
 20
67.991502022911973
 30
0.0
  0
SEQEND
  5
B2B
  8
0
  0
POLYLINE
  5
8B2
  8
0
 66
     1
 10
0.0
 20
0.0
 30
0.0
 70
   128
  0
VERTEX
  5
B2C
  8
0
 10
-4.0
 20
257.45729858207642
 30
0.0
  0
VERTEX
  5
B2D
  8
0
 10
-4.0
 20
329.37199419600393
 30
0.0
 42
-0.1239214120856534
  0
VERTEX
  5
B2E
  8
0
 10
-2.8083586266202469
 20
334.1062120094187
 30
0.0
  0
VERTEX
  5
B2F
  8
0
 10
-1.191641373379752
 20
337.11423274814041
 30
0.0
 42
0.1239214120856527
  0
VERTEX
  5
B30
  8
0
 10
0.0
 20
341.84845056155518
 30
0.0
  0
VERTEX
  5
B31
  8
0
 10
0.0
 20
402.21784715085232
 30
0.0
  0
SEQEND
  5
B32
  8
0
  0
POLYLINE
  5
8B4
  8
0
 66
     1
 10
0.0
 20
0.0
 30
0.0
 70
   128
  0
VERTEX
  5
B33
  8
0
 10
-458.92737970501503
 20
-48.429335786955612
 30
0.0
  0
VERTEX
  5
B34
  8
0
 10
-27.52933328929419
 20
67.1634223665001
 30
0.0
  0
VERTEX
  5
B35
  8
0
 10
-22.99999999999995
 20
50.259720406441431
 30
0.0
  0
VERTEX
  5
B36
  8
0
 10
-458.92737970501412
 20
-66.546668944135973
 30
0.0
  0
SEQEND
  5
B37
  8
0
  0
INSERT
  5
8B5
  8
0
  2
*U40
 10
0.0
 20
0.0
 30
0.0
1001
ACAD
1000
DSTYLE
1002
{
1070
   176
1070
   256
1002
}
  0
INSERT
  5
8B6
  8
0
  2
*U41
 10
0.0
 20
0.0
 30
0.0
  0
POLYLINE
  5
8B7
  8
0
 66
     1
 10
0.0
 20
0.0
 30
0.0
 70
   128
 40
0.5
 41
0.5
  0
VERTEX
  5
B45
  8
0
 10
-64.030591080637464
 20
648.27464625212951
 30
0.0
  0
VERTEX
  5
B46
  8
0
 10
-247.1869081764348
 20
599.19805899765402
 30
0.0
 42
0.9999999999999996
  0
VERTEX
  5
B47
  8
0
 10
-245.24576533816571
 20
591.95361530048615
 30
0.0
  0
VERTEX
  5
B48
  8
0
 10
-180.9243875558675
 20
609.18847653330931
 30
0.0
 42
-0.4142135623730953
  0
VERTEX
  5
B49
  8
0
 10
-173.57591832751839
 20
604.94583584618931
 30
0.0
  0
VERTEX
  5
B4A
  8
0
 10
-155.01369448403031
 20
535.67067336085233
 30
0.0
 42
0.9999999999998683
  0
VERTEX
  5
B4B
  8
0
 10
-144.1470289382903
 20
538.58238761825396
 30
0.0
  0
VERTEX
  5
B4C
  8
0
 10
-149.0099469254744
 20
556.73104461954472
 30
0.0
  0
SEQEND
  5
B4D
  8
0
  0
POLYLINE
  5
8B8
  8
0
 66
     1
 10
0.0
 20
0.0
 30
0.0
 70
   128
 40
0.5
 41
0.5
  0
VERTEX
  5
B4E
  8
0
 10
-179.51143791657341
 20
605.39784758652695
 30
0.0
  0
VERTEX
  5
B4F
  8
0
 10
-244.2034584227504
 20
588.06367293516064
 30
0.0
 42
-1.0
  0
VERTEX
  5
B50
  8
0
 10
-250.02688693755681
 20
609.7970040266631
 30
0.0
  0
VERTEX
  5
B51
  8
0
 10
-20.746666988572461
 20
671.23245380242417
 30
0.0
  0
SEQEND
  5
B52
  8
0
  0
POLYLINE
  5
8B9
  8
0
 66
     1
 10
0.0
 20
0.0
 30
0.0
 70
   128
  0
VERTEX
  5
B53
  8
0
 10
-295.57973671126939
 20
572.02338161981459
 30
0.0
  0
VERTEX
  5
B54
  8
0
 10
-13.749832981531
 20
647.53947672713969
 30
0.0
  0
SEQEND
  5
B55
  8
0
  0
POLYLINE
  5
8BA
  8
0
 66
     1
 10
0.0
 20
0.0
 30
0.0
 70
   128
 40
0.5
 41
0.5
  0
VERTEX
  5
B56
  8
0
 10
-225.3289412682966
 20
487.73457124485549
 30
0.0
  0
VERTEX
  5
B57
  8
0
 10
-32.44440128372969
 20
539.41782796616917
 30
0.0
  0
SEQEND
  5
B58
  8
0
  0
CIRCLE
  5
8BB
  8
0
 10
-156.5611573237621
 20
616.85878760906724
 30
0.0
 40
146.29446797577111
  0
CIRCLE
  5
8BC
  8
0
 10
-171.12728889072511
 20
64.361205217601196
 30
0.0
 40
48.764822658590383
  0
ARC
  5
8BD
  8
0
 10
-171.51307476507461
 20
340.81217920250037
 30
0.0
 40
276.45124316584338
 50
117.58524776774679
 51
259.96007503243152
  0
POLYLINE
  5
8BE
  8
0
 66
     1
 10
0.0
 20
0.0
 30
0.0
 70
   128
 40
0.5
 41
0.5
  0
VERTEX
  5
B59
  8
0
 10
-130.38510199275169
 20
83.593020391749178
 30
0.0
  0
VERTEX
  5
B5A
  8
0
 10
-191.70672417381809
 20
67.161941249766713
 30
0.0
 42
1.0
  0
VERTEX
  5
B5B
  8
0
 10
-191.2865903187728
 20
65.59398035675791
 30
0.0
  0
VERTEX
  5
B5C
  8
0
 10
-169.75148146162789
 20
71.364295383945901
 30
0.0
 42
-0.4142135623730959
  0
VERTEX
  5
B5D
  8
0
 10
-166.74753630796181
 20
69.629966840845555
 30
0.0
  0
VERTEX
  5
B5E
  8
0
 10
-160.53281384891929
 20
46.436306868768717
 30
0.0
 42
1.0
  0
VERTEX
  5
B5F
  8
0
 10
-157.75211553480389
 20
47.181392736431
 30
0.0
  0
VERTEX
  5
B60
  8
0
 10
-159.38024403310561
 20
53.257651013369987
 30
0.0
  0
SEQEND
  5
B61
  8
0
  0
POLYLINE
  5
8C1
  8
0
 66
     1
 10
0.0
 20
0.0
 30
0.0
 70
   129
  0
VERTEX
  5
B62
  8
0
 10
0.0
 20
126.0724893637896
 30
0.0
  0
VERTEX
  5
B63
  8
0
 10
0.0000000000000178
 20
206.07248936378929
 30
0.0
  0
VERTEX
  5
B64
  8
0
 10
-19.999999999999979
 20
206.07248936378929
 30
0.0
  0
VERTEX
  5
B65
  8
0
 10
-20.0
 20
126.0724893637896
 30
0.0
  0
SEQEND
  5
B66
  8
0
  0
POLYLINE
  5
8C2
  8
0
 66
     1
 10
0.0
 20
0.0
 30
0.0
 70
   129
 40
0.25
 41
0.25
  0
VERTEX
  5
B67
  8
0
 10
-0.125
 20
126.1974893637896
 30
0.0
  0
VERTEX
  5
B68
  8
0
 10
-0.1249999999999823
 20
205.94748936378929
 30
0.0
  0
VERTEX
  5
B69
  8
0
 10
-19.874999999999979
 20
205.94748936378929
 30
0.0
  0
VERTEX
  5
B6A
  8
0
 10
-19.875
 20
126.1974893637896
 30
0.0
  0
SEQEND
  5
B6B
  8
0
  0
LINE
  5
8C3
  8
0
 10
0.0000000000000178
 20
206.07248936378929
 30
0.0
 11
-20.0
 21
126.0724893637896
 31
0.0
  0
DIMENSION
  5
8C4
  8
0
  2
*D16
 10
1.99999999999999
 20
-105.09770848852349
 30
0.0
 11
-30.230936286675441
 21
-142.6266725929178
 31
0.0
 70
   128
  1
25mm minimum air gap
 13
-22.99999999999995
 23
50.259720406441431
 33
0.0
 14
1.999999999999996
 24
-5.903228383440335
 34
0.0
  0
LINE
  5
94B
  8
0
 10
-150.34066537167749
 20
624.89228171487025
 30
0.0
 11
-146.8526133166373
 21
611.87469422601146
 31
0.0
1001
GENIUS_GENOREF_13
1005
0
1001
ACDBBLOCKREPETAG
1070
     1
1071
        0
1005
94B
  0
LINE
  5
94C
  8
0
 10
-160.7490089692418
 20
622.10337445335733
 30
0.0
 11
-157.26095691420161
 21
609.08578696449842
 31
0.0
1001
GENIUS_GENOREF_13
1005
0
1001
ACDBBLOCKREPETAG
1070
     1
1071
        1
1005
94C
  0
ARC
  5
94D
  8
0
 10
-163.0417818153592
 20
625.03094004293382
 30
0.0
 40
4.7053061224490031
 50
105.0000000000002
 51
194.99999999999901
1001
GENIUS_GENOREF_13
1005
0
1001
ACDBBLOCKREPETAG
1070
     1
1071
        2
1005
94D
  0
LINE
  5
94E
  8
0
 10
-161.66613407739459
 20
624.18172090586415
 30
0.0
 11
-167.28230281024699
 21
622.67687302933928
 31
0.0
1001
GENIUS_GENOREF_13
1005
0
1001
ACDBBLOCKREPETAG
1070
     1
1071
        3
1005
94E
  0
LINE
  5
94F
  8
0
 10
-145.27387193235131
 20
629.79183714727469
 30
0.0
 11
-167.5867585196288
 21
623.81311720540657
 31
0.0
1001
GENIUS_GENOREF_13
1005
0
1001
ACDBBLOCKREPETAG
1070
     1
1071
        4
1005
94F
  0
LINE
  5
950
  8
0
 10
-167.28230281024699
 20
622.67687302933928
 30
0.0
 11
-167.5867585196288
 21
623.81311720540657
 31
0.0
1001
GENIUS_GENOREF_13
1005
0
1001
ACDBBLOCKREPETAG
1070
     1
1071
        5
1005
950
  0
LINE
  5
951
  8
0
 10
-150.5855849558221
 20
627.15074509468275
 30
0.0
 11
-161.66613407739459
 21
624.18172090586415
 31
0.0
1001
GENIUS_GENOREF_13
1005
0
1001
ACDBBLOCKREPETAG
1070
     1
1071
        6
1005
951
  0
LINE
  5
952
  8
0
 10
-150.40457782975389
 20
625.13080625564805
 30
0.0
 11
-160.8129214273182
 21
622.34189899413514
 31
0.0
1001
GENIUS_GENOREF_13
1005
0
1001
ACDBBLOCKREPETAG
1070
     1
1071
        7
1005
952
  0
LINE
  5
953
  8
0
 10
-151.03667147414831
 20
633.11899101401741
 30
0.0
 11
-157.64813806351739
 21
631.34745388061026
 31
0.0
1001
GENIUS_GENOREF_13
1005
0
1001
ACDBBLOCKREPETAG
1070
     1
1071
        8
1005
953
  0
LINE
  5
954
  8
0
 10
-164.25960465288671
 20
629.57591674720391
 30
0.0
 11
-157.64813806351739
 21
631.34745388061026
 31
0.0
1001
GENIUS_GENOREF_13
1005
0
1001
ACDBBLOCKREPETAG
1070
     1
1071
        9
1005
954
  0
LINE
  5
955
  8
0
 10
-160.8129214273182
 20
622.34189899413514
 30
0.0
 11
-161.66613407739459
 21
624.18172090586415
 31
0.0
1001
GENIUS_GENOREF_13
1005
0
1001
ACDBBLOCKREPETAG
1070
     1
1071
       10
1005
955
  0
ARC
  5
956
  8
0
 10
-149.81884863662091
 20
628.57401430974744
 30
0.0
 40
4.7053061224490031
 50
14.99999999999906
 51
105.0000000000002
1001
GENIUS_GENOREF_13
1005
0
1001
ACDBBLOCKREPETAG
1070
     1
1071
       11
1005
956
  0
LINE
  5
957
  8
0
 10
-150.5855849558221
 20
627.15074509468275
 30
0.0
 11
-144.96941622296961
 21
628.65559297120762
 31
0.0
1001
GENIUS_GENOREF_13
1005
0
1001
ACDBBLOCKREPETAG
1070
     1
1071
       12
1005
957
  0
LINE
  5
958
  8
0
 10
-144.96941622296961
 20
628.65559297120762
 30
0.0
 11
-145.27387193235131
 21
629.79183714727469
 31
0.0
1001
GENIUS_GENOREF_13
1005
0
1001
ACDBBLOCKREPETAG
1070
     1
1071
       13
1005
958
  0
LINE
  5
959
  8
0
 10
-150.40457782975389
 20
625.13080625564805
 30
0.0
 11
-150.5855849558221
 21
627.15074509468275
 31
0.0
1001
GENIUS_GENOREF_13
1005
0
1001
ACDBBLOCKREPETAG
1070
     1
1071
       14
1005
959
  0
ARC
  5
95A
  8
0
 10
-136.9949168495821
 20
607.82418896790853
 30
0.0
 40
23.10000000000008
 50
178.75052445808609
 51
223.94882037700719
1001
GENIUS_GENOREF_13
1005
0
1001
ACDBBLOCKREPETAG
1070
     1
1071
       15
1005
95A
  0
LINE
  5
95B
  8
0
 10
-157.26095691420039
 20
609.08578696449774
 30
0.0
 11
-160.08942428683829
 21
608.32790141618148
 31
0.0
1001
GENIUS_GENOREF_13
1005
0
1001
ACDBBLOCKREPETAG
1070
     1
1071
       16
1005
95B
  0
ARC
  5
95C
  8
0
 10
-163.77271984841411
 20
600.64909827929182
 30
0.0
 40
23.10000000000008
 50
346.05117962299209
 51
31.249475541913348
1001
GENIUS_GENOREF_13
1005
0
1001
ACDBBLOCKREPETAG
1070
     1
1071
       17
1005
95C
  0
LINE
  5
95D
  8
0
 10
-146.85261331663611
 20
611.87469422601066
 30
0.0
 11
-157.26095691420039
 21
609.08578696449774
 31
0.0
1001
GENIUS_GENOREF_13
1005
0
1001
ACDBBLOCKREPETAG
1070
     1
1071
       18
1005
95D
  0
LINE
  5
95E
  8
0
 10
-141.35390566318989
 20
595.08072593825716
 30
0.0
 11
-153.625993286192
 21
591.79242997022993
 31
0.0
1001
GENIUS_GENOREF_13
1005
0
1001
ACDBBLOCKREPETAG
1070
     1
1071
       19
1005
95E
  0
LINE
  5
95F
  8
0
 10
-146.85261331663611
 20
611.87469422601066
 30
0.0
 11
-144.02414594399809
 21
612.63257977432681
 31
0.0
1001
GENIUS_GENOREF_13
1005
0
1001
ACDBBLOCKREPETAG
1070
     1
1071
       20
1005
95F
  0
LINE
  5
960
  8
0
 10
-148.46043967184099
 20
78.664531646949058
 30
0.0
 11
-147.29775565349419
 21
74.325335817329417
 31
0.0
1001
GENIUS_GENOREF_13
1005
0
1001
ACDBBLOCKREPETAG
1070
     1
1071
        0
1005
960
  0
LINE
  5
961
  8
0
 10
-151.92988753769569
 20
77.734895893111386
 30
0.0
 11
-150.76720351934901
 21
73.395700063491745
 31
0.0
1001
GENIUS_GENOREF_13
1005
0
1001
ACDBBLOCKREPETAG
1070
     1
1071
        1
1005
961
  0
ARC
  5
962
  8
0
 10
-152.69414515306821
 20
78.710751089636872
 30
0.0
 40
1.568435374149667
 50
104.9999999999996
 51
195.0000000000004
1001
GENIUS_GENOREF_13
1005
0
1001
ACDBBLOCKREPETAG
1070
     1
1071
        2
1005
962
  0
LINE
  5
963
  8
0
 10
-152.2355959070799
 20
78.427678043946955
 30
0.0
 11
-154.10765215136411
 21
77.926062085105386
 31
0.0
1001
GENIUS_GENOREF_13
1005
0
1001
ACDBBLOCKREPETAG
1070
     1
1071
        3
1005
963
  0
LINE
  5
964
  8
0
 10
-146.7715085253989
 20
80.297716791083843
 30
0.0
 11
-154.20913738782471
 21
78.304810143794427
 31
0.0
1001
GENIUS_GENOREF_13
1005
0
1001
ACDBBLOCKREPETAG
1070
     1
1071
        4
1005
964
  0
LINE
  5
965
  8
0
 10
-154.10765215136411
 20
77.926062085105386
 30
0.0
 11
-154.20913738782471
 21
78.304810143794427
 31
0.0
1001
GENIUS_GENOREF_13
1005
0
1001
ACDBBLOCKREPETAG
1070
     1
1071
        5
1005
965
  0
LINE
  5
966
  8
0
 10
-148.54207953322251
 20
79.417352773553233
 30
0.0
 11
-152.2355959070799
 21
78.427678043946955
 31
0.0
1001
GENIUS_GENOREF_13
1005
0
1001
ACDBBLOCKREPETAG
1070
     1
1071
        6
1005
966
  0
LINE
  5
967
  8
0
 10
-148.48174382453311
 20
78.744039827208326
 30
0.0
 11
-151.95119169038779
 21
77.814404073370639
 31
0.0
1001
GENIUS_GENOREF_13
1005
0
1001
ACDBBLOCKREPETAG
1070
     1
1071
        7
1005
967
  0
LINE
  5
968
  8
0
 10
-148.69244170599791
 20
81.406768079998116
 30
0.0
 11
-150.89626390245419
 21
80.816255702195662
 31
0.0
1001
GENIUS_GENOREF_13
1005
0
1001
ACDBBLOCKREPETAG
1070
     1
1071
        8
1005
968
  0
LINE
  5
969
  8
0
 10
-153.10008609891071
 20
80.225743324393534
 30
0.0
 11
-150.89626390245419
 21
80.816255702195662
 31
0.0
1001
GENIUS_GENOREF_13
1005
0
1001
ACDBBLOCKREPETAG
1070
     1
1071
        9
1005
969
  0
LINE
  5
96A
  8
0
 10
-151.95119169038779
 20
77.814404073370639
 30
0.0
 11
-152.2355959070799
 21
78.427678043946955
 31
0.0
1001
GENIUS_GENOREF_13
1005
0
1001
ACDBBLOCKREPETAG
1070
     1
1071
       10
1005
96A
  0
ARC
  5
96B
  8
0
 10
-148.28650076015541
 20
79.891775845241426
 30
0.0
 40
1.568435374149667
 50
15.00000000000038
 51
104.9999999999996
1001
GENIUS_GENOREF_13
1005
0
1001
ACDBBLOCKREPETAG
1070
     1
1071
       11
1005
96B
  0
LINE
  5
96C
  8
0
 10
-148.54207953322251
 20
79.417352773553233
 30
0.0
 11
-146.6700232889383
 21
79.918968732394816
 31
0.0
1001
GENIUS_GENOREF_13
1005
0
1001
ACDBBLOCKREPETAG
1070
     1
1071
       12
1005
96C
  0
LINE
  5
96D
  8
0
 10
-146.6700232889383
 20
79.918968732394816
 30
0.0
 11
-146.7715085253989
 21
80.297716791083843
 31
0.0
1001
GENIUS_GENOREF_13
1005
0
1001
ACDBBLOCKREPETAG
1070
     1
1071
       13
1005
96D
  0
LINE
  5
96E
  8
0
 10
-148.48174382453311
 20
78.744039827208326
 30
0.0
 11
-148.54207953322251
 21
79.417352773553233
 31
0.0
1001
GENIUS_GENOREF_13
1005
0
1001
ACDBBLOCKREPETAG
1070
     1
1071
       14
1005
96E
  0
ARC
  5
96F
  8
0
 10
-144.0118568311425
 20
72.975167397961783
 30
0.0
 40
7.7000000000000268
 50
178.75052445808669
 51
223.94882037700691
1001
GENIUS_GENOREF_13
1005
0
1001
ACDBBLOCKREPETAG
1070
     1
1071
       15
1005
96F
  0
LINE
  5
970
  8
0
 10
-150.7672035193485
 20
73.395700063491503
 30
0.0
 11
-151.7100259768946
 21
73.143071547386128
 31
0.0
1001
GENIUS_GENOREF_13
1005
0
1001
ACDBBLOCKREPETAG
1070
     1
1071
       16
1005
970
  0
ARC
  5
971
  8
0
 10
-152.93779116408641
 20
70.583470501756182
 30
0.0
 40
7.7000000000000268
 50
346.05117962299278
 51
31.249475541913348
1001
GENIUS_GENOREF_13
1005
0
1001
ACDBBLOCKREPETAG
1070
     1
1071
       17
1005
971
  0
LINE
  5
972
  8
0
 10
-147.29775565349379
 20
74.325335817329176
 30
0.0
 11
-150.7672035193485
 21
73.395700063491503
 31
0.0
1001
GENIUS_GENOREF_13
1005
0
1001
ACDBBLOCKREPETAG
1070
     1
1071
       18
1005
972
  0
LINE
  5
973
  8
0
 10
-145.46485310234499
 20
68.727346388078047
 30
0.0
 11
-149.55554897667909
 21
67.631247732068886
 31
0.0
1001
GENIUS_GENOREF_13
1005
0
1001
ACDBBLOCKREPETAG
1070
     1
1071
       19
1005
973
  0
LINE
  5
974
  8
0
 10
-147.29775565349379
 20
74.325335817329176
 30
0.0
 11
-146.35493319594781
 21
74.577964333434551
 31
0.0
1001
GENIUS_GENOREF_13
1005
0
1001
ACDBBLOCKREPETAG
1070
     1
1071
       20
1005
974
  0
POLYLINE
  5
975
  8
0
 66
     1
 10
0.0
 20
0.0
 30
0.0
 70
     1
1001
ACDBBLOCKREPETAG
1070
     1
1071
        0
1005
975
  0
VERTEX
  5
B6C
  8
0
 10
-138.90794304880239
 20
-24.796956997270438
 30
0.0
  0
VERTEX
  5
B6D
  8
0
 10
-66.460169750720723
 20
-5.3846346486163759
 30
0.0
  0
VERTEX
  5
B6E
  8
0
 10
-76.812931554821532
 20
33.252398402946348
 30
0.0
  0
VERTEX
  5
B6F
  8
0
 10
-149.2607048529033
 20
13.840076054292339
 30
0.0
  0
SEQEND
  5
B70
  8
0
  0
POLYLINE
  5
976
  8
0
 66
     1
 10
0.0
 20
0.0
 30
0.0
 70
     1
 40
0.25
 41
0.25
1001
ACDBBLOCKREPETAG
1070
     1
1071
        0
1005
975
  0
VERTEX
  5
B71
  8
0
 10
-138.81955470115409
 20
-24.643863888346491
 30
0.0
  0
VERTEX
  5
B72
  8
0
 10
-66.613262859644692
 20
-5.296246300968062
 30
0.0
  0
VERTEX
  5
B73
  8
0
 10
-76.901319902469851
 20
33.099305294022393
 30
0.0
  0
VERTEX
  5
B74
  8
0
 10
-149.10761174397931
 20
13.75168770664404
 30
0.0
  0
SEQEND
  5
B75
  8
0
  0
LINE
  5
977
  8
0
 10
-149.2607048529033
 20
13.840076054292339
 30
0.0
 11
-66.460169750720723
 21
-5.3846346486163759
 31
0.0
1001
ACDBBLOCKREPETAG
1070
     1
1071
        1
1005
977
  0
LINE
  5
978
  8
0
 10
-76.812931554821532
 20
33.252398402946348
 30
0.0
 11
-138.90794304880239
 21
-24.796956997270438
 31
0.0
1001
ACDBBLOCKREPETAG
1070
     1
1071
        2
1005
978
  0
LINE
  5
9B3
  8
0
 10
-23.736856938708371
 20
53.009707939613612
 30
0.0
 11
-25.749987533171179
 21
49.522863467732599
 31
0.0
  0
LINE
  5
9B4
  8
0
 10
-27.223248909755569
 20
66.021099910659814
 30
0.0
 11
-38.761379504217963
 21
46.036471496685742
 31
0.0
  0
LINE
  5
9B5
  8
0
 10
-39.39840280450025
 20
63.983114774991861
 30
0.0
 11
-51.772771475264712
 21
42.550079525638857
 31
0.0
  0
LINE
  5
9B6
  8
0
 10
-52.409794775546921
 20
60.49672280394509
 30
0.0
 11
-64.784163446311481
 21
39.063687554591979
 31
0.0
  0
LINE
  5
9B7
  8
0
 10
-65.421186746593577
 20
57.010330832898369
 30
0.0
 11
-77.79555541735823
 21
35.577295583545087
 31
0.0
  0
LINE
  5
9B8
  8
0
 10
-78.432578717640268
 20
53.523938861851597
 30
0.0
 11
-90.806947388404964
 21
32.090903612498238
 31
0.0
  0
LINE
  5
9B9
  8
0
 10
-91.443970688686932
 20
50.037546890804919
 30
0.0
 11
-103.8183393594517
 21
28.604511641451381
 31
0.0
  0
LINE
  5
9BA
  8
0
 10
-104.45536265973359
 20
46.551154919758197
 30
0.0
 11
-116.8297313304984
 21
25.118119670404472
 31
0.0
  0
LINE
  5
9BB
  8
0
 10
-117.4667546307803
 20
43.064762948711433
 30
0.0
 11
-129.8411233015452
 21
21.631727699357551
 31
0.0
  0
LINE
  5
9BC
  8
0
 10
-130.47814660182689
 20
39.578370977664747
 30
0.0
 11
-142.852515272592
 21
18.14533572831073
 31
0.0
  0
LINE
  5
9BD
  8
0
 10
-143.48953857287361
 20
36.091979006618033
 30
0.0
 11
-155.86390724363881
 21
14.65894375726381
 31
0.0
  0
LINE
  5
9BE
  8
0
 10
-156.50093054392019
 20
32.605587035571318
 30
0.0
 11
-168.8752992146855
 21
11.17255178621695
 31
0.0
  0
LINE
  5
9BF
  8
0
 10
-169.51232251496691
 20
29.119195064524551
 30
0.0
 11
-181.88669118573219
 21
7.6861598151701003
 31
0.0
  0
LINE
  5
9C0
  8
0
 10
-182.5237144860136
 20
25.632803093477801
 30
0.0
 11
-194.89808315677899
 21
4.199767844123186
 31
0.0
  0
LINE
  5
9C1
  8
0
 10
-195.53510645706021
 20
22.146411122431061
 30
0.0
 11
-207.90947512782569
 21
0.7133758730762736
 31
0.0
  0
LINE
  5
9C2
  8
0
 10
-208.54649842810699
 20
18.66001915138429
 30
0.0
 11
-220.92086709887249
 21
-2.773016097970582
 31
0.0
  0
LINE
  5
9C3
  8
0
 10
-221.55789039915359
 20
15.173627180337601
 30
0.0
 11
-233.9322590699193
 21
-6.2594080690174669
 31
0.0
  0
LINE
  5
9C4
  8
0
 10
-234.56928237020031
 20
11.687235209290829
 30
0.0
 11
-246.9436510409661
 21
-9.7458000400643527
 31
0.0
  0
LINE
  5
9C5
  8
0
 10
-247.58067434124689
 20
8.2008432382441452
 30
0.0
 11
-259.95504301201282
 21
-13.232192011111209
 31
0.0
  0
LINE
  5
9C6
  8
0
 10
-260.5920663122937
 20
4.7144512671973748
 30
0.0
 11
-272.96643498305963
 21
-16.718583982158091
 31
0.0
  0
LINE
  5
9C7
  8
0
 10
-273.60345828334027
 20
1.2280592961506609
 30
0.0
 11
-285.97782695410632
 21
-20.204975953204968
 31
0.0
  0
LINE
  5
9C8
  8
0
 10
-286.61485025438702
 20
-2.258332674896053
 30
0.0
 11
-298.98921892515312
 21
-23.69136792425185
 31
0.0
  0
LINE
  5
9C9
  8
0
 10
-299.6262422254336
 20
-5.7447246459428243
 30
0.0
 11
-312.00061089619982
 21
-27.17775989529876
 31
0.0
  0
LINE
  5
9CA
  8
0
 10
-312.63763419648041
 20
-9.2311166169895813
 30
0.0
 11
-325.01200286724662
 21
-30.66415186634563
 31
0.0
  0
LINE
  5
9CB
  8
0
 10
-325.64902616752693
 20
-12.71750858803628
 30
0.0
 11
-338.02339483829331
 21
-34.150543837392519
 31
0.0
  0
LINE
  5
9CC
  8
0
 10
-338.66041813857362
 20
-16.20390055908301
 30
0.0
 11
-351.03478680934012
 21
-37.636935808439361
 31
0.0
  0
LINE
  5
9CD
  8
0
 10
-351.67181010962031
 20
-19.690292530129749
 30
0.0
 11
-364.04617878038681
 21
-41.123327779486239
 31
0.0
  0
LINE
  5
9CE
  8
0
 10
-364.683202080667
 20
-23.176684501176481
 30
0.0
 11
-377.05757075143362
 21
-44.60971975053311
 31
0.0
  0
LINE
  5
9CF
  8
0
 10
-377.69459405171369
 20
-26.66307647222321
 30
0.0
 11
-390.06896272248031
 21
-48.096111721579987
 31
0.0
  0
LINE
  5
9D0
  8
0
 10
-390.70598602276033
 20
-30.14946844326996
 30
0.0
 11
-403.080354693527
 21
-51.582503692626851
 31
0.0
  0
LINE
  5
9D1
  8
0
 10
-403.71737799380702
 20
-33.635860414316681
 30
0.0
 11
-416.0917466645738
 21
-55.068895663673729
 31
0.0
  0
LINE
  5
9D2
  8
0
 10
-416.7287699648536
 20
-37.122252385363431
 30
0.0
 11
-429.1031386356205
 21
-58.555287634720621
 31
0.0
  0
LINE
  5
9D3
  8
0
 10
-429.74016193590029
 20
-40.60864435641016
 30
0.0
 11
-442.1145306066673
 21
-62.041679605767477
 31
0.0
  0
LINE
  5
9D4
  8
0
 10
-442.75155390694698
 20
-44.095036327456882
 30
0.0
 11
-455.12592257771399
 21
-65.528071576814355
 31
0.0
  0
LINE
  5
9D5
  8
0
 10
-455.76294587799367
 20
-47.581428298503617
 30
0.0
 11
-458.9273797050148
 21
-53.062388464094141
 31
0.0
  0
ENDSEC
  0
EOF
