  0
SECTION
  2
HEADER
  9
$ACADVER
  1
AC1009
  9
$INSBASE
 10
0.0
 20
0.0
 30
0.0
  9
$EXTMIN
 10
-95.773349790293196
 20
-108.0013911841903
 30
-0.0015258207003583
  9
$EXTMAX
 10
318.54614550537508
 20
260.91350366370739
 30
0.0000000349246037
  9
$LIMMIN
 10
0.0
 20
0.0
  9
$LIMMAX
 10
12.0
 20
9.0
  9
$ORTHOMODE
 70
     0
  9
$REGENMODE
 70
     1
  9
$FILLMODE
 70
     1
  9
$QTEXTMODE
 70
     0
  9
$MIRRTEXT
 70
     0
  9
$DRAGMODE
 70
     2
  9
$LTSCALE
 40
1.0
  9
$OSMODE
 70
     0
  9
$ATTMODE
 70
     1
  9
$TEXTSIZE
 40
35.0
  9
$TRACEWID
 40
0.05
  9
$TEXTSTYLE
  7
ARIAL
  9
$CLAYER
  8
0
  9
$CELTYPE
  6
CONTINUOUS
  9
$CECOLOR
 62
   256
  9
$DIMSCALE
 40
2.0
  9
$DIMASZ
 40
2.0
  9
$DIMEXO
 40
2.0
  9
$DIMDLI
 40
6.0
  9
$DIMRND
 40
0.0
  9
$DIMDLE
 40
2.0
  9
$DIMEXE
 40
2.0
  9
$DIMTP
 40
0.0
  9
$DIMTM
 40
0.0
  9
$DIMTXT
 40
2.0
  9
$DIMCEN
 40
2.0
  9
$DIMTSZ
 40
0.0
  9
$DIMTOL
 70
     0
  9
$DIMLIM
 70
     0
  9
$DIMTIH
 70
     0
  9
$DIMTOH
 70
     0
  9
$DIMSE1
 70
     0
  9
$DIMSE2
 70
     0
  9
$DIMTAD
 70
     1
  9
$DIMZIN
 70
     0
  9
$DIMBLK
  1
ARCHTICK
  9
$DIMASO
 70
     1
  9
$DIMSHO
 70
     1
  9
$DIMPOST
  1

  9
$DIMAPOST
  1

  9
$DIMALT
 70
     0
  9
$DIMALTD
 70
     2
  9
$DIMALTF
 40
0.0394
  9
$DIMLFAC
 40
1.0
  9
$DIMTOFL
 70
     0
  9
$DIMTVP
 40
0.0
  9
$DIMTIX
 70
     0
  9
$DIMSOXD
 70
     0
  9
$DIMSAH
 70
     0
  9
$DIMBLK1
  1

  9
$DIMBLK2
  1

  9
$DIMSTYLE
  2
1_TO_2
  9
$DIMCLRD
 70
   256
  9
$DIMCLRE
 70
   256
  9
$DIMCLRT
 70
   256
  9
$DIMTFAC
 40
1.0
  9
$DIMGAP
 40
1.0
  9
$LUNITS
 70
     2
  9
$LUPREC
 70
     1
  9
$SKETCHINC
 40
0.1
  9
$FILLETRAD
 40
0.0
  9
$AUNITS
 70
     1
  9
$AUPREC
 70
     4
  9
$MENU
  1
.
  9
$ELEVATION
 40
0.0
  9
$PELEVATION
 40
0.0
  9
$THICKNESS
 40
0.0
  9
$LIMCHECK
 70
     0
  9
$BLIPMODE
 70
     0
  9
$CHAMFERA
 40
0.0
  9
$CHAMFERB
 40
0.0
  9
$SKPOLY
 70
     0
  9
$TDCREATE
 40
2452152.65359294
  9
$TDUPDATE
 40
2455419.5932816551
  9
$TDINDWG
 40
25.902012731500001
  9
$TDUSRTIMER
 40
25.902012731500001
  9
$USRTIMER
 70
     1
  9
$ANGBASE
 50
0.0
  9
$ANGDIR
 70
     0
  9
$PDMODE
 70
     0
  9
$PDSIZE
 40
0.0
  9
$PLINEWID
 40
0.0
  9
$COORDS
 70
     1
  9
$SPLFRAME
 70
     0
  9
$SPLINETYPE
 70
     6
  9
$SPLINESEGS
 70
     8
  9
$ATTDIA
 70
     0
  9
$ATTREQ
 70
     0
  9
$HANDLING
 70
     1
  9
$HANDSEED
  5
B3B
  9
$SURFTAB1
 70
     6
  9
$SURFTAB2
 70
     6
  9
$SURFTYPE
 70
     6
  9
$SURFU
 70
     6
  9
$SURFV
 70
     6
  9
$UCSNAME
  2

  9
$UCSORG
 10
0.0
 20
0.0
 30
0.0
  9
$UCSXDIR
 10
1.0
 20
0.0
 30
0.0
  9
$UCSYDIR
 10
0.0
 20
1.0
 30
0.0
  9
$PUCSNAME
  2

  9
$PUCSORG
 10
0.0
 20
0.0
 30
0.0
  9
$PUCSXDIR
 10
1.0
 20
0.0
 30
0.0
  9
$PUCSYDIR
 10
0.0
 20
1.0
 30
0.0
  9
$USERI1
 70
     0
  9
$USERI2
 70
     0
  9
$USERI3
 70
     0
  9
$USERI4
 70
     0
  9
$USERI5
 70
     0
  9
$USERR1
 40
0.0
  9
$USERR2
 40
0.0
  9
$USERR3
 40
0.0
  9
$USERR4
 40
0.0
  9
$USERR5
 40
0.0
  9
$WORLDVIEW
 70
     1
  9
$SHADEDGE
 70
     3
  9
$SHADEDIF
 70
    70
  9
$TILEMODE
 70
     1
  9
$MAXACTVP
 70
    48
  9
$PLIMCHECK
 70
     0
  9
$PEXTMIN
 10
0.0
 20
0.0
 30
0.0
  9
$PEXTMAX
 10
208.41041893864801
 20
295.40953368001158
 30
0.0
  9
$PLIMMIN
 10
-0.793749988079071
 20
-0.793749988079071
  9
$PLIMMAX
 10
209.2062500119209
 20
296.20625001192087
  9
$UNITMODE
 70
     0
  9
$VISRETAIN
 70
     1
  9
$PLINEGEN
 70
     1
  9
$PSLTSCALE
 70
     1
  0
ENDSEC
  0
SECTION
  2
TABLES
  0
TABLE
  2
VPORT
 70
     1
  0
VPORT
  2
*ACTIVE
 70
     0
 10
0.0
 20
0.0
 11
1.0
 21
1.0
 12
111.3863978575409
 22
76.456056239758553
 13
0.0
 23
0.0
 14
1.0
 24
1.0
 15
50.0
 25
50.0
 16
0.0
 26
0.0
 36
1.0
 17
0.0
 27
0.0
 37
0.0
 40
372.0150200146868
 41
1.978962131837307
 42
50.0
 43
0.0
 44
0.0
 50
0.0
 51
0.0
 71
     0
 72
 20000
 73
     1
 74
     3
 75
     0
 76
     0
 77
     0
 78
     0
  0
ENDTAB
  0
TABLE
  2
LTYPE
 70
     2
  0
LTYPE
  2
CONTINUOUS
 70
     0
  3
Solid line
 72
    65
 73
     0
 40
0.0
  0
ENDTAB
  0
TABLE
  2
LAYER
 70
    11
  0
LAYER
  2
0
 70
     0
 62
     7
  6
CONTINUOUS
  0
LAYER
  2
DEFPOINTS
 70
     0
 62
   211
  6
CONTINUOUS
  0
ENDTAB
  0
TABLE
  2
STYLE
 70
     4
  0
STYLE
  2
STANDARD
 70
     0
 40
0.0
 41
1.0
 50
0.0
 71
     0
 42
1.5
  3
romans.shx
  4

  0
STYLE
  2
ARIAL
 70
     0
 40
0.0
 41
1.0
 50
0.0
 71
     0
 42
35.0
  3
txt
  4

  0
STYLE
  2
EURO_COMMON_JNT-HORI-ALT$0
 70
     0
 40
0.0
 41
1.0
 50
0.0
 71
     0
 42
35.0
  3
txt
  4

  0
ENDTAB
  0
TABLE
  2
VIEW
 70
     2
  0
VIEW
  2
09
 70
     0
 40
2970.0
 10
19050.0
 20
1485.0
 41
2100.0
 11
0.0
 21
0.0
 31
1.0
 12
0.0
 22
0.0
 32
0.0
 42
50.0
 43
0.0
 44
0.0
 50
0.0
 71
     0
  0
VIEW
  2
COMM-04
 70
     1
 40
477.26027331217421
 10
194.21746115522001
 20
180.60494410563541
 41
755.81685306636155
 11
0.0
 21
0.0
 31
1.0
 12
0.0
 22
0.0
 32
0.0
 42
50.0
 43
0.0
 44
0.0
 50
0.0
 71
     0
  0
ENDTAB
  0
TABLE
  2
UCS
 70
     0
  0
ENDTAB
  0
TABLE
  2
APPID
 70
    15
  0
APPID
  2
ACAD
 70
     0
  0
APPID
  2
GENIUS_GENODEF_13
 70
     0
  0
APPID
  2
GENIUS_GENREC_14
 70
     0
  0
APPID
  2
GENIUS_GENOBJ-N-REC_13
 70
     0
  0
APPID
  2
ACAD_PSEXT
 70
     0
  0
APPID
  2
ACDBBLOCKREPETAG
 70
     0
  0
APPID
  2
ACAD_MLEADERVER
 70
     0
  0
APPID
  2
ACADANNOTATIVE
 70
     0
  0
APPID
  2
ACDBDYNAMICBLOCKGUID
 70
     0
  0
APPID
  2
ACAD_EXEMPT_FROM_CAD_STANDARDS
 70
     0
  0
APPID
  2
RAK
 70
     0
  0
APPID
  2
ACAD_DSTYLE_DIMJAG
 70
     0
  0
APPID
  2
ACAD_DSTYLE_DIMBREAK
 70
     0
  0
APPID
  2
ACAD_DSTYLE_DIMTALN
 70
     0
  0
APPID
  2
CONTENTBLOCKICON
 70
     0
  0
ENDTAB
  0
TABLE
  2
DIMSTYLE
 70
     2
  0
DIMSTYLE
  2
1_TO_2
 70
     0
  3

  4

  5
ARCHTICK
  6

  7

 40
2.0
 41
2.0
 42
2.0
 43
6.0
 44
2.0
 45
0.0
 46
2.0
 47
0.0
 48
0.0
140
2.0
141
2.0
142
0.0
143
0.0394
144
1.0
145
0.0
146
1.0
147
1.0
 71
     0
 72
     0
 73
     0
 74
     0
 75
     0
 76
     0
 77
     1
 78
     0
170
     0
171
     2
172
     0
173
     0
174
     0
175
     0
176
   256
177
   256
178
   256
  0
DIMSTYLE
  2
EURO_COMMON_JNT-HORI-ALT$0
 70
     0
  3

  4

  5
EURO_COMMON_JNT-HORI-ALT$0
  6

  7

 40
2.0
 41
2.0
 42
2.0
 43
6.0
 44
2.0
 45
0.0
 46
2.0
 47
0.0
 48
0.0
140
2.0
141
2.0
142
0.0
143
0.0394
144
1.0
145
0.0
146
1.0
147
1.0
 71
     0
 72
     0
 73
     0
 74
     0
 75
     0
 76
     0
 77
     1
 78
     0
170
     0
171
     2
172
     0
173
     0
174
     0
175
     0
176
   256
177
   256
178
   256
  0
ENDTAB
  0
ENDSEC
  0
SECTION
  2
BLOCKS
  0
BLOCK
  8
0
  2
$MODEL_SPACE
 70
     0
 10
0.0
 20
0.0
 30
0.0
  3
$MODEL_SPACE
  1

  0
ENDBLK
  5
17
  8
0
  0
BLOCK
 67
     1
  8
0
  2
$PAPER_SPACE
 70
     0
 10
0.0
 20
0.0
 30
0.0
  3
$PAPER_SPACE
  1

  0
ENDBLK
  5
20
 67
     1
  8
0
  0
BLOCK
  8
0
  2
_ARCHTICK
 70
     0
 10
0.0
 20
0.0
 30
0.0
  3
_ARCHTICK
  1

  0
POLYLINE
  5
8D
  8
0
  6
BYBLOCK
 62
     0
 66
     1
 10
0.0
 20
0.0
 30
0.0
 40
0.15
 41
0.15
  0
VERTEX
  5
A04
  8
0
  6
BYBLOCK
 62
     0
 10
-0.5
 20
-0.5
 30
0.0
  0
VERTEX
  5
A05
  8
0
  6
BYBLOCK
 62
     0
 10
0.5
 20
0.5
 30
0.0
  0
SEQEND
  5
A06
  8
0
  6
BYBLOCK
 62
     0
  0
ENDBLK
  5
8E
  8
0
  0
BLOCK
  8
0
  2
EURO_COMMON_JNT-HORI-ALT$0
 70
     0
 10
0.0
 20
0.0
 30
0.0
  3
EURO_COMMON_JNT-HORI-ALT$0
  1

  0
POLYLINE
  5
7C5
  8
0
  6
BYBLOCK
 62
     0
 66
     1
 10
0.0
 20
0.0
 30
0.0
 40
0.15
 41
0.15
  0
VERTEX
  5
A28
  8
0
  6
BYBLOCK
 62
     0
 10
-0.5
 20
-0.5
 30
0.0
  0
VERTEX
  5
A29
  8
0
  6
BYBLOCK
 62
     0
 10
0.5
 20
0.5
 30
0.0
  0
SEQEND
  5
A2A
  8
0
  6
BYBLOCK
 62
     0
  0
ENDBLK
  5
7C6
  8
0
  0
BLOCK
  8
0
  2
*D10
 70
     1
 10
0.0
 20
0.0
 30
0.0
  3
*D10
  1

  0
LINE
  5
98C
  8
0
 10
292.76309100291019
 20
176.43010073524911
 30
0.0
 11
296.38655763434548
 21
189.95306230329609
 31
0.0
  0
LINE
  5
98D
  8
0
 10
254.12605795134749
 20
186.78286253934991
 30
0.0
 11
257.74952458278273
 21
200.30582410739689
 31
0.0
  0
LINE
  5
98E
  8
0
 10
299.21498475909169
 20
185.05408281772981
 30
0.0
 11
252.85054509721641
 21
197.4773969826507
 31
0.0
  0
INSERT
  5
98F
  8
0
  2
EURO_COMMON_JNT-HORI-ALT$0
 10
295.35128145393543
 20
186.0893589981398
 30
0.0
 41
4.0
 42
4.0
 43
4.0
 50
345.00000000000011
  0
INSERT
  5
990
  8
0
  2
EURO_COMMON_JNT-HORI-ALT$0
 10
256.71424840237268
 20
196.44212080224059
 30
0.0
 41
4.0
 42
4.0
 43
4.0
 50
165.0
  0
INSERT
  5
991
  8
0
  6
CONTINUOUS
  2
*U40
 10
0.0
 20
0.0
 30
0.0
  0
POINT
  5
992
  8
DEFPOINTS
 62
     0
 10
273.2970287784068
 20
103.7817674901047
 30
0.0
  0
POINT
  5
993
  8
DEFPOINTS
 62
     0
 10
232.1063144818325
 20
104.6040611414867
 30
0.0
  0
POINT
  5
994
  8
DEFPOINTS
 62
     0
 10
256.71424840237268
 20
196.44212080224059
 30
0.0
  0
ENDBLK
  5
899
  8
0
  0
BLOCK
  8
0
  2
*D11
 70
     1
 10
0.0
 20
0.0
 30
0.0
  3
*D11
  1

  0
LINE
  5
983
  8
0
 10
297.90610809195061
 20
195.6241018157429
 30
0.0
 11
301.52957472338579
 21
209.14706338378991
 31
0.0
  0
LINE
  5
984
  8
0
 10
104.7531403616798
 20
247.37928353474339
 30
0.0
 11
108.3766069931151
 21
260.9022451027904
 31
0.0
  0
LINE
  5
985
  8
0
 10
304.35800184813212
 20
204.24808389822351
 30
0.0
 11
103.4776275075488
 21
258.0738179780443
 31
0.0
  0
INSERT
  5
986
  8
0
  2
EURO_COMMON_JNT-HORI-ALT$0
 10
300.4942985429758
 20
205.28336007863359
 30
0.0
 41
4.0
 42
4.0
 43
4.0
 50
345.00000000000011
  0
INSERT
  5
987
  8
0
  2
EURO_COMMON_JNT-HORI-ALT$0
 10
107.341330812705
 20
257.03854179763408
 30
0.0
 41
4.0
 42
4.0
 43
4.0
 50
165.0
  0
INSERT
  5
988
  8
0
  6
CONTINUOUS
  2
*U39
 10
0.0
 20
0.0
 30
0.0
  0
POINT
  5
989
  8
DEFPOINTS
 62
     0
 10
273.2970287784068
 20
103.7817674901047
 30
0.0
  0
POINT
  5
98A
  8
DEFPOINTS
 62
     0
 10
80.144061048136095
 20
155.53694920910539
 30
0.0
  0
POINT
  5
98B
  8
DEFPOINTS
 62
     0
 10
107.341330812705
 20
257.03854179763408
 30
0.0
  0
ENDBLK
  5
8A5
  8
0
  0
BLOCK
  8
0
  2
*D12
 70
     1
 10
0.0
 20
0.0
 30
0.0
  3
*D12
  1

  0
LINE
  5
97A
  8
0
 10
292.76309100291019
 20
176.430100735249
 30
0.0
 11
296.38655763434548
 21
189.95306230329601
 31
0.0
  0
LINE
  5
97B
  8
0
 10
312.08160752869162
 20
171.2537198331986
 30
0.0
 11
315.70507416012691
 21
184.77668140124561
 31
0.0
  0
LINE
  5
97C
  8
0
 10
291.48757814877911
 20
187.1246351785498
 30
0.0
 11
318.53350128487313
 21
179.87770191567921
 31
0.0
  0
INSERT
  5
97D
  8
0
  2
EURO_COMMON_JNT-HORI-ALT$0
 10
295.35128145393543
 20
186.08935899813969
 30
0.0
 41
4.0
 42
4.0
 43
4.0
 50
165.0
  0
INSERT
  5
97E
  8
0
  2
EURO_COMMON_JNT-HORI-ALT$0
 10
314.6697979797168
 20
180.91297809608929
 30
0.0
 41
4.0
 42
4.0
 43
4.0
 50
345.00000000000011
  0
INSERT
  5
97F
  8
0
  6
CONTINUOUS
  2
*U38
 10
0.0
 20
0.0
 30
0.0
  0
POINT
  5
980
  8
DEFPOINTS
 62
     0
 10
273.2970287784068
 20
103.7817674901047
 30
0.0
  0
POINT
  5
981
  8
DEFPOINTS
 62
     0
 10
291.33870468168237
 20
93.840152511694896
 30
0.0
  0
POINT
  5
982
  8
DEFPOINTS
 62
     0
 10
314.6697979797168
 20
180.91297809608929
 30
0.0
  0
ENDBLK
  5
8B1
  8
0
  0
BLOCK
  8
0
  2
*D13
 70
     1
 10
0.0
 20
0.0
 30
0.0
  3
*D13
  1

  0
LINE
  5
96F
  8
0
  6
CONTINUOUS
 10
30.241776036284769
 20
123.8472183373444
 30
0.0
 11
26.618309404849459
 21
110.32425676929741
 31
0.0
  0
LINE
  5
970
  8
0
  6
CONTINUOUS
 10
25.47654195992536
 20
125.1240589598501
 30
0.0
 11
21.85307532849005
 21
111.60109739180319
 31
0.0
  0
LINE
  5
971
  8
0
  6
CONTINUOUS
 10
31.51728889041582
 20
113.15268389404361
 30
0.0
 11
19.024648203743858
 21
116.50007687736959
 31
0.0
  0
LINE
  5
972
  8
0
  6
CONTINUOUS
 10
25.27096854707985
 20
114.8263803857066
 30
0.0
 11
25.98605967510068
 21
90.721728624875169
 31
0.0
  0
LINE
  5
973
  8
0
  6
CONTINUOUS
 10
25.98605967510068
 20
90.721728624875169
 30
0.0
 11
78.169774164933017
 21
76.739144469268282
 31
0.0
  0
INSERT
  5
974
  8
0
  6
CONTINUOUS
  2
*U37
 10
0.0
 20
0.0
 30
0.0
  0
INSERT
  5
975
  8
0
  6
CONTINUOUS
  2
EURO_COMMON_JNT-HORI-ALT$0
 10
27.653585585259549
 20
114.1879600744537
 30
0.0
 41
4.0
 42
4.0
 43
4.0
 50
344.99999999999989
  0
INSERT
  5
976
  8
0
  6
CONTINUOUS
  2
EURO_COMMON_JNT-HORI-ALT$0
 10
22.888351508900129
 20
115.4648006969595
 30
0.0
 41
4.0
 42
4.0
 43
4.0
 50
164.99999999999989
  0
POINT
  5
977
  8
DEFPOINTS
  6
CONTINUOUS
 62
     0
 10
37.995716284682487
 20
152.78531730321791
 30
0.0
  0
POINT
  5
978
  8
DEFPOINTS
  6
CONTINUOUS
 62
     0
 10
33.230482208323082
 20
154.06215792572371
 30
0.0
  0
POINT
  5
979
  8
DEFPOINTS
  6
CONTINUOUS
 62
     0
 10
22.888351508900129
 20
115.4648006969595
 30
0.0
  0
ENDBLK
  5
8BD
  8
0
  0
BLOCK
  8
0
  2
*D14
 70
     1
 10
0.0
 20
0.0
 30
0.0
  3
*D14
  1

  0
LINE
  5
964
  8
0
  6
CONTINUOUS
 10
276.42049364555561
 20
57.883829760210823
 30
0.0
 11
272.7970270141202
 21
44.360868192163892
 31
0.0
  0
LINE
  5
965
  8
0
  6
CONTINUOUS
 10
281.18572772191499
 20
56.606989137705007
 30
0.0
 11
277.56226109047958
 21
43.084027569658069
 31
0.0
  0
LINE
  5
966
  8
0
  6
CONTINUOUS
 10
269.9685998893741
 20
49.259847677730271
 30
0.0
 11
282.46124057604601
 21
45.912454694404232
 31
0.0
  0
LINE
  5
967
  8
0
  6
CONTINUOUS
 10
276.21492023271003
 20
47.586151186067241
 30
0.0
 11
259.3520077919722
 21
6.2131182998148367
 31
0.0
  0
LINE
  5
968
  8
0
  6
CONTINUOUS
 10
259.3520077919722
 20
6.2131182998148367
 30
0.0
 11
207.16829330214
 21
20.19570245542209
 31
0.0
  0
INSERT
  5
969
  8
0
  6
CONTINUOUS
  2
*U36
 10
0.0
 20
0.0
 30
0.0
  0
INSERT
  5
96A
  8
0
  6
CONTINUOUS
  2
EURO_COMMON_JNT-HORI-ALT$0
 10
273.83230319453031
 20
48.224571497320163
 30
0.0
 41
4.0
 42
4.0
 43
4.0
 50
164.99999999999949
  0
INSERT
  5
96B
  8
0
  6
CONTINUOUS
  2
EURO_COMMON_JNT-HORI-ALT$0
 10
278.59753727088969
 20
46.94773087481434
 30
0.0
 41
4.0
 42
4.0
 43
4.0
 50
344.9999999999996
  0
POINT
  5
96C
  8
DEFPOINTS
  6
CONTINUOUS
 62
     0
 10
284.17443389395351
 20
86.821928726084195
 30
0.0
  0
POINT
  5
96D
  8
DEFPOINTS
  6
CONTINUOUS
 62
     0
 10
288.93966797031288
 20
85.545088103578365
 30
0.0
  0
POINT
  5
96E
  8
DEFPOINTS
  6
CONTINUOUS
 62
     0
 10
278.59753727088969
 20
46.94773087481434
 30
0.0
  0
ENDBLK
  5
8CB
  8
0
  0
BLOCK
  8
0
  2
*U15
 70
     1
 10
0.0
 20
0.0
 30
0.0
  3
*U15
  1

  0
TEXT
  5
A55
  8
0
  6
CONTINUOUS
 10
-65.760560216137065
 20
-42.23342954383844
 30
0.0
 40
4.0
  1
Double welt lap joint. Suitable for horizontal wall
  7
EURO_COMMON_JNT-HORI-ALT$0
  0
TEXT
  5
A56
  8
0
  6
CONTINUOUS
 10
-65.547736205223003
 20
-48.968309034516011
 30
0.0
 40
4.0
  1
cladding and roof pitches over 11°
  7
EURO_COMMON_JNT-HORI-ALT$0
  0
ENDBLK
  5
A58
  8
0
  0
BLOCK
  8
0
  2
*U16
 70
     1
 10
0.0
 20
0.0
 30
0.0
  3
*U16
  1

  0
SOLID
  5
A5A
  8
0
 10
125.4560262098811
 20
125.76624285439379
 30
0.0
 11
122.3490223182624
 21
123.16029364884309
 31
0.0
 12
124.44290733826369
 22
126.6330576729971
 32
0.0
 13
124.44290733826369
 23
126.6330576729971
 33
0.0
  0
POLYLINE
  5
A5B
  8
0
 66
     1
 10
0.0
 20
0.0
 30
0.0
  0
VERTEX
  5
A5C
  8
0
 10
124.94946677407241
 20
126.1996502636955
 30
0.0
  0
VERTEX
  5
A5D
  8
0
 10
187.79712090450371
 20
199.65495244579131
 30
0.0
  0
VERTEX
  5
A5E
  8
0
 10
191.79712090450371
 20
199.65495244579131
 30
0.0
  0
SEQEND
  5
A5F
  8
0
  0
ENDBLK
  5
A61
  8
0
  0
BLOCK
  8
0
  2
*U17
 70
     1
 10
0.0
 20
0.0
 30
0.0
  3
*U17
  1

  0
TEXT
  5
A63
  8
0
  6
CONTINUOUS
 10
193.35783031787341
 20
198.2429469887654
 30
0.0
 40
4.0
  1
Roof underlay
  7
EURO_COMMON_JNT-HORI-ALT$0
  0
ENDBLK
  5
A65
  8
0
  0
BLOCK
  8
0
  2
*U18
 70
     1
 10
0.0
 20
0.0
 30
0.0
  3
*U18
  1

  0
SOLID
  5
A67
  8
0
 10
298.42135475005529
 20
120.0920670711382
 30
0.0
 11
298.92269141756287
 21
116.0680012180169
 31
0.0
 12
297.1433515905299
 22
119.7119543220481
 32
0.0
 13
297.1433515905299
 23
119.7119543220481
 33
0.0
  0
POLYLINE
  5
A68
  8
0
 66
     1
 10
0.0
 20
0.0
 30
0.0
  0
VERTEX
  5
A69
  8
0
 10
297.78235317029259
 20
119.90201069659319
 30
0.0
  0
VERTEX
  5
A6A
  8
0
 10
281.16573232792882
 20
175.7698919713188
 30
0.0
  0
VERTEX
  5
A6B
  8
0
 10
277.16573232792882
 20
175.7698919713188
 30
0.0
  0
SEQEND
  5
A6C
  8
0
  0
ENDBLK
  5
A6E
  8
0
  0
BLOCK
  8
0
  2
*U19
 70
     1
 10
0.0
 20
0.0
 30
0.0
  3
*U19
  1

  0
TEXT
  5
A70
  8
0
  6
CONTINUOUS
 10
254.8956095448456
 20
173.80263412684411
 30
0.0
 40
4.0
  1
Euroline
  7
EURO_COMMON_JNT-HORI-ALT$0
  0
ENDBLK
  5
A72
  8
0
  0
BLOCK
  8
0
  2
*U20
 70
     1
 10
0.0
 20
0.0
 30
0.0
  3
*U20
  1

  0
SOLID
  5
A74
  8
0
 10
275.44217081844658
 20
145.68359561014361
 30
0.0
 11
273.95721018293028
 21
141.91009109107759
 31
0.0
 12
274.13806337250543
 22
145.96123124765879
 32
0.0
 13
274.13806337250543
 23
145.96123124765879
 33
0.0
  0
POLYLINE
  5
A75
  8
0
 66
     1
 10
0.0
 20
0.0
 30
0.0
  0
VERTEX
  5
A76
  8
0
 10
274.79011709547598
 20
145.8224134289012
 30
0.0
  0
VERTEX
  5
A77
  8
0
 10
281.16573232792888
 20
175.7698919713188
 30
0.0
  0
SEQEND
  5
A78
  8
0
  0
ENDBLK
  5
A7A
  8
0
  0
BLOCK
  8
0
  2
*U21
 70
     1
 10
0.0
 20
0.0
 30
0.0
  3
*U21
  1

  0
SOLID
  5
A7C
  8
0
 10
-36.959013509625521
 20
150.2110950527771
 30
0.0
 11
-36.866070226218802
 21
154.26520481825131
 31
0.0
 12
-35.639143137936202
 22
150.40009235358971
 32
0.0
 13
-35.639143137936202
 23
150.40009235358971
 33
0.0
  0
POLYLINE
  5
A7D
  8
0
 66
     1
 10
0.0
 20
0.0
 30
0.0
  0
VERTEX
  5
A7E
  8
0
 10
-36.299078323780861
 20
150.3055937031834
 30
0.0
  0
VERTEX
  5
A7F
  8
0
 10
-24.94300618916505
 20
71.0
 30
0.0
  0
VERTEX
  5
A80
  8
0
 10
-20.94300618916505
 20
71.0
 30
0.0
  0
SEQEND
  5
A81
  8
0
  0
ENDBLK
  5
A83
  8
0
  0
BLOCK
  8
0
  2
*U22
 70
     1
 10
0.0
 20
0.0
 30
0.0
  3
*U22
  1

  0
TEXT
  5
A85
  8
0
  6
CONTINUOUS
 10
-19.374111236914018
 20
69.587994542974073
 30
0.0
 40
4.0
  1
Plywood
  7
EURO_COMMON_JNT-HORI-ALT$0
  0
ENDBLK
  5
A87
  8
0
  0
BLOCK
  8
0
  2
*U23
 70
     1
 10
0.0
 20
0.0
 30
0.0
  3
*U23
  1

  0
SOLID
  5
A89
  8
0
 10
60.470476849153009
 20
152.75839008356201
 30
0.0
 11
59.686951823793152
 21
156.73715031497571
 31
0.0
 12
61.718532868781253
 22
153.22757442861999
 32
0.0
 13
61.718532868781253
 23
153.22757442861999
 33
0.0
  0
POLYLINE
  5
A8A
  8
0
 66
     1
 10
0.0
 20
0.0
 30
0.0
  0
VERTEX
  5
A8B
  8
0
 10
61.09450485896712
 20
152.99298225609101
 30
0.0
  0
VERTEX
  5
A8C
  8
0
 10
99.618859314252518
 20
50.516092337123411
 30
0.0
  0
VERTEX
  5
A8D
  8
0
 10
103.6188593142525
 20
50.516092337123411
 30
0.0
  0
SEQEND
  5
A8E
  8
0
  0
ENDBLK
  5
A90
  8
0
  0
BLOCK
  8
0
  2
*U24
 70
     1
 10
0.0
 20
0.0
 30
0.0
  3
*U24
  1

  0
TEXT
  5
A92
  8
0
  6
CONTINUOUS
 10
105.4878906921515
 20
49.071344724572249
 30
0.0
 40
4.0
  1
Trimseal lap tape
  7
EURO_COMMON_JNT-HORI-ALT$0
  0
ENDBLK
  5
A94
  8
0
  0
BLOCK
  8
0
  2
*U25
 70
     1
 10
0.0
 20
0.0
 30
0.0
  3
*U25
  1

  0
SOLID
  5
A96
  8
0
 10
157.77495031950841
 20
114.3051396093699
 30
0.0
 11
161.0080057577002
 21
116.7529543446027
 31
0.0
 12
158.7435959329996
 22
113.3888953988879
 32
0.0
 13
158.7435959329996
 23
113.3888953988879
 33
0.0
  0
POLYLINE
  5
A97
  8
0
 66
     1
 10
0.0
 20
0.0
 30
0.0
  0
VERTEX
  5
A98
  8
0
 10
158.25927312625399
 20
113.8470175041289
 30
0.0
  0
VERTEX
  5
A99
  8
0
 10
99.823304356518094
 20
52.069006607738537
 30
0.0
  0
SEQEND
  5
A9A
  8
0
  0
ENDBLK
  5
A9C
  8
0
  0
BLOCK
  8
0
  2
*X26
 70
     1
 10
0.0
 20
0.0
 30
0.0
  3
*X26
  1

  0
LINE
  5
AB3
  8
0
  6
CONTINUOUS
 62
     0
 10
-27.342925123994672
 20
141.0634560096417
 30
0.0
 11
-21.349818259237839
 21
144.52357787129131
 31
0.0
  0
LINE
  5
AB4
  8
0
  6
CONTINUOUS
 62
     0
 10
-36.017186438025867
 20
143.38771732367289
 30
0.0
 11
-19.025556945206631
 21
153.19783918532249
 31
0.0
  0
LINE
  5
AB5
  8
0
  6
CONTINUOUS
 62
     0
 10
-44.691447752057037
 20
145.71197863770411
 30
0.0
 11
-20.686448272781892
 21
159.5712715489604
 31
0.0
  0
LINE
  5
AB6
  8
0
  6
CONTINUOUS
 62
     0
 10
-51.341259350124808
 20
149.20505654020761
 30
0.0
 11
-29.36070958681308
 21
161.89553286299159
 31
0.0
  0
LINE
  5
AB7
  8
0
  6
CONTINUOUS
 62
     0
 10
-49.016998036093653
 20
157.87931785423879
 30
0.0
 11
-38.034970900844272
 21
164.21979417702281
 31
0.0
  0
ENDBLK
  5
AB9
  8
0
  0
BLOCK
  8
0
  2
*U27
 70
     1
 10
0.0
 20
0.0
 30
0.0
  3
*U27
  1

  0
SOLID
  5
ABB
  8
0
 10
-19.863355149154359
 20
135.4271075344947
 30
0.0
 11
-20.919555985915249
 21
139.34231943640631
 31
0.0
 12
-18.65064863160255
 22
135.981292233007
 32
0.0
 13
-18.65064863160255
 23
135.981292233007
 33
0.0
  0
POLYLINE
  5
ABC
  8
0
 66
     1
 10
0.0
 20
0.0
 30
0.0
  0
VERTEX
  5
ABD
  8
0
 10
-19.257001890378451
 20
135.7041998837509
 30
0.0
  0
VERTEX
  5
ABE
  8
0
 10
10.31163403766398
 20
71.0
 30
0.0
  0
VERTEX
  5
ABF
  8
0
 10
14.31163403766398
 20
71.0
 30
0.0
  0
SEQEND
  5
AC0
  8
0
  0
ENDBLK
  5
AC2
  8
0
  0
BLOCK
  8
0
  2
*U28
 70
     1
 10
0.0
 20
0.0
 30
0.0
  3
*U28
  1

  0
TEXT
  5
AC4
  8
0
  6
CONTINUOUS
 10
16.033325715699451
 20
69.034106412005457
 30
0.0
 40
4.0
  1
Countersunk screw
  7
EURO_COMMON_JNT-HORI-ALT$0
  0
ENDBLK
  5
AC6
  8
0
  0
BLOCK
  8
0
  2
*U29
 70
     1
 10
0.0
 20
0.0
 30
0.0
  3
*U29
  1

  0
SOLID
  5
AC8
  8
0
 10
170.70793618603261
 20
95.36162501534217
 30
0.0
 11
172.11855366949339
 21
99.163545945582456
 31
0.0
 12
172.0172412165679
 22
95.109636692611119
 32
0.0
 13
172.0172412165679
 23
95.109636692611119
 33
0.0
  0
POLYLINE
  5
AC9
  8
0
 66
     1
 10
0.0
 20
0.0
 30
0.0
  0
VERTEX
  5
ACA
  8
0
 10
171.3625887013003
 20
95.235630853976645
 30
0.0
  0
VERTEX
  5
ACB
  8
0
 10
155.71779912662521
 20
13.946936720123171
 30
0.0
  0
VERTEX
  5
ACC
  8
0
 10
151.71779912662521
 20
13.946936720123171
 30
0.0
  0
SEQEND
  5
ACD
  8
0
  0
ENDBLK
  5
ACF
  8
0
  0
BLOCK
  8
0
  2
*U30
 70
     1
 10
0.0
 20
0.0
 30
0.0
  3
*U30
  1

  0
TEXT
  5
AD1
  8
0
  6
CONTINUOUS
 10
101.9333516504997
 20
11.981043132128621
 30
0.0
 40
4.0
  1
Countersunk screw
  7
EURO_COMMON_JNT-HORI-ALT$0
  0
ENDBLK
  5
AD3
  8
0
  0
BLOCK
  8
0
  2
*U31
 70
     1
 10
0.0
 20
0.0
 30
0.0
  3
*U31
  1

  0
SOLID
  5
AD5
  8
0
 10
30.203731735902
 20
165.44191778740921
 30
0.0
 11
27.04648774913581
 21
162.8970690979047
 31
0.0
 12
29.20771356704828
 22
166.3283294215224
 32
0.0
 13
29.20771356704828
 23
166.3283294215224
 33
0.0
  0
POLYLINE
  5
AD6
  8
0
 66
     1
 10
0.0
 20
0.0
 30
0.0
  0
VERTEX
  5
AD7
  8
0
 10
29.705722651475138
 20
165.8851236044658
 30
0.0
  0
VERTEX
  5
AD8
  8
0
 10
84.412699053171039
 20
227.3567247908145
 30
0.0
  0
VERTEX
  5
AD9
  8
0
 10
88.412699053171053
 20
227.3567247908145
 30
0.0
  0
SEQEND
  5
ADA
  8
0
  0
ENDBLK
  5
ADC
  8
0
  0
BLOCK
  8
0
  2
*U32
 70
     1
 10
0.0
 20
0.0
 30
0.0
  3
*U32
  1

  0
TEXT
  5
ADE
  8
0
  6
CONTINUOUS
 10
89.973408466540761
 20
225.9447193337885
 30
0.0
 40
4.0
  1
Retaining clip
  7
EURO_COMMON_JNT-HORI-ALT$0
  0
ENDBLK
  5
AE0
  8
0
  0
BLOCK
  8
0
  2
*X33
 70
     1
 10
0.0
 20
0.0
 30
0.0
  3
*X33
  1

  0
LINE
  5
AE2
  8
0
  6
CONTINUOUS
 62
     0
 10
284.93048218112801
 20
57.390048704518989
 30
0.0
 11
290.61452158522451
 21
60.671730384558572
 31
0.0
  0
LINE
  5
AE3
  8
0
  6
CONTINUOUS
 62
     0
 10
276.25622086709677
 20
59.714310018550151
 30
0.0
 11
292.93878289925561
 21
69.345991698589728
 31
0.0
  0
LINE
  5
AE4
  8
0
  6
CONTINUOUS
 62
     0
 10
267.58195955306559
 20
62.038571332581363
 30
0.0
 11
291.58695903234081
 21
75.897864243837745
 31
0.0
  0
LINE
  5
AE5
  8
0
  6
CONTINUOUS
 62
     0
 10
258.9076982390344
 20
64.362832646612532
 30
0.0
 11
282.91269771830957
 21
78.222125557868907
 31
0.0
  0
LINE
  5
AE6
  8
0
  6
CONTINUOUS
 62
     0
 10
250.23343692500319
 20
66.687093960643693
 30
0.0
 11
274.23843640427839
 21
80.546386871900125
 31
0.0
  0
LINE
  5
AE7
  8
0
  6
CONTINUOUS
 62
     0
 10
241.55917561097201
 20
69.011355274674912
 30
0.0
 11
265.56417509024732
 21
82.870648185931316
 31
0.0
  0
LINE
  5
AE8
  8
0
  6
CONTINUOUS
 62
     0
 10
232.88491429694079
 20
71.335616588706102
 30
0.0
 11
256.88991377621608
 21
85.194909499962478
 31
0.0
  0
LINE
  5
AE9
  8
0
  6
CONTINUOUS
 62
     0
 10
224.21065298290961
 20
73.659877902737264
 30
0.0
 11
248.21565246218489
 21
87.519170813993654
 31
0.0
  0
LINE
  5
AEA
  8
0
  6
CONTINUOUS
 62
     0
 10
215.53639166887851
 20
75.984139216768483
 30
0.0
 11
239.54139114815371
 21
89.843432128024844
 31
0.0
  0
LINE
  5
AEB
  8
0
  6
CONTINUOUS
 62
     0
 10
206.8621303548473
 20
78.308400530799659
 30
0.0
 11
230.86712983412249
 21
92.167693442056034
 31
0.0
  0
LINE
  5
AEC
  8
0
  6
CONTINUOUS
 62
     0
 10
198.18786904081611
 20
80.632661844830849
 30
0.0
 11
222.19286852009131
 21
94.491954756087225
 31
0.0
  0
LINE
  5
AED
  8
0
  6
CONTINUOUS
 62
     0
 10
189.5136077267849
 20
82.956923158862026
 30
0.0
 11
213.5186072060601
 21
96.816216070118415
 31
0.0
  0
LINE
  5
AEE
  8
0
  6
CONTINUOUS
 62
     0
 10
180.83934641275371
 20
85.281184472893216
 30
0.0
 11
204.844345892029
 21
99.140477384149605
 31
0.0
  0
LINE
  5
AEF
  8
0
  6
CONTINUOUS
 62
     0
 10
172.1650850987225
 20
87.605445786924406
 30
0.0
 11
196.1700845779977
 21
101.4647386981808
 31
0.0
  0
LINE
  5
AF0
  8
0
  6
CONTINUOUS
 62
     0
 10
163.49082378469129
 20
89.929707100955596
 30
0.0
 11
187.49582326396651
 21
103.7890000122119
 31
0.0
  0
LINE
  5
AF1
  8
0
  6
CONTINUOUS
 62
     0
 10
173.14452653019819
 20
102.83562339845879
 30
0.0
 11
178.82156194993539
 21
106.11326132624311
 31
0.0
  0
LINE
  5
AF2
  8
0
  6
CONTINUOUS
 62
     0
 10
154.8165624706601
 20
92.253968414986758
 30
0.0
 11
171.00887495336301
 21
101.60260438567779
 31
0.0
  0
LINE
  5
AF3
  8
0
  6
CONTINUOUS
 62
     0
 10
146.142301156629
 20
94.578229729017963
 30
0.0
 11
170.1473006359042
 21
108.4375226402743
 31
0.0
  0
LINE
  5
AF4
  8
0
  6
CONTINUOUS
 62
     0
 10
137.46803984259779
 20
96.902491043049181
 30
0.0
 11
161.47303932187299
 21
110.7617839543055
 31
0.0
  0
LINE
  5
AF5
  8
0
  6
CONTINUOUS
 62
     0
 10
128.79377852856661
 20
99.226752357080358
 30
0.0
 11
152.79877800784189
 21
113.0860452683367
 31
0.0
  0
LINE
  5
AF6
  8
0
  6
CONTINUOUS
 62
     0
 10
120.11951721453541
 20
101.55101367111151
 30
0.0
 11
144.1245166938107
 21
115.41030658236789
 31
0.0
  0
LINE
  5
AF7
  8
0
  6
CONTINUOUS
 62
     0
 10
111.44525590050419
 20
103.8752749851427
 30
0.0
 11
135.45025537977949
 21
117.7345678963991
 31
0.0
  0
LINE
  5
AF8
  8
0
  6
CONTINUOUS
 62
     0
 10
102.77099458647299
 20
106.1995362991739
 30
0.0
 11
126.77599406574831
 21
120.0588292104303
 31
0.0
  0
LINE
  5
AF9
  8
0
  6
CONTINUOUS
 62
     0
 10
94.096733272441881
 20
108.5237976132051
 30
0.0
 11
118.10173275171709
 21
122.38309052446139
 31
0.0
  0
LINE
  5
AFA
  8
0
  6
CONTINUOUS
 62
     0
 10
85.422471958410696
 20
110.84805892723629
 30
0.0
 11
109.4274714376859
 21
124.7073518384926
 31
0.0
  0
LINE
  5
AFB
  8
0
  6
CONTINUOUS
 62
     0
 10
76.748210644379526
 20
113.1723202412674
 30
0.0
 11
100.7532101236547
 21
127.0316131525238
 31
0.0
  0
LINE
  5
AFC
  8
0
  6
CONTINUOUS
 62
     0
 10
68.073949330348341
 20
115.4965815552986
 30
0.0
 11
92.078948809623554
 21
129.35587446655501
 31
0.0
  0
LINE
  5
AFD
  8
0
  6
CONTINUOUS
 62
     0
 10
59.399688016317143
 20
117.82084286932979
 30
0.0
 11
83.40468749559237
 21
131.6801357805862
 31
0.0
  0
LINE
  5
AFE
  8
0
  6
CONTINUOUS
 62
     0
 10
50.725426702285958
 20
120.145104183361
 30
0.0
 11
74.730426181561199
 21
134.00439709461739
 31
0.0
  0
LINE
  5
AFF
  8
0
  6
CONTINUOUS
 62
     0
 10
42.051165388254773
 20
122.4693654973922
 30
0.0
 11
66.056164867530015
 21
136.32865840864861
 31
0.0
  0
LINE
  5
B00
  8
0
  6
CONTINUOUS
 62
     0
 10
33.37690407422361
 20
124.79362681142339
 30
0.0
 11
57.381903553498837
 21
138.6529197226798
 31
0.0
  0
LINE
  5
B01
  8
0
  6
CONTINUOUS
 62
     0
 10
24.702642760192411
 20
127.1178881254546
 30
0.0
 11
48.707642239467638
 21
140.97718103671099
 31
0.0
  0
LINE
  5
B02
  8
0
  6
CONTINUOUS
 62
     0
 10
16.02838144616123
 20
129.44214943948569
 30
0.0
 11
40.033380925436447
 21
143.30144235074209
 31
0.0
  0
LINE
  5
B03
  8
0
  6
CONTINUOUS
 62
     0
 10
7.354120132130034
 20
131.76641075351691
 30
0.0
 11
31.359119611405291
 21
145.62570366477331
 31
0.0
  0
LINE
  5
B04
  8
0
  6
CONTINUOUS
 62
     0
 10
-1.320141181901149
 20
134.0906720675481
 30
0.0
 11
22.68485829737411
 21
147.9499649788045
 31
0.0
  0
LINE
  5
B05
  8
0
  6
CONTINUOUS
 62
     0
 10
-9.9944024959323343
 20
136.41493338157929
 30
0.0
 11
14.010596983342911
 21
150.27422629283569
 31
0.0
  0
LINE
  5
B06
  8
0
  6
CONTINUOUS
 62
     0
 10
-18.668663809963519
 20
138.73919469561051
 30
0.0
 11
5.3363356693117501
 21
152.59848760686691
 31
0.0
  0
LINE
  5
B07
  8
0
  6
CONTINUOUS
 62
     0
 10
-19.008475723028059
 20
145.87535261483711
 30
0.0
 11
-3.3379256447194332
 21
154.9227489208981
 31
0.0
  0
LINE
  5
B08
  8
0
  6
CONTINUOUS
 62
     0
 10
-16.565798534128991
 20
154.6179813660996
 30
0.0
 11
-12.01218695875062
 21
157.24701023492929
 31
0.0
  0
ENDBLK
  5
B0A
  8
0
  0
BLOCK
  8
0
  2
*U34
 70
     1
 10
0.0
 20
0.0
 30
0.0
  3
*U34
  1

  0
SOLID
  5
B0C
  8
0
 10
199.65397003559889
 20
48.137907195229822
 30
0.0
 11
202.77108541052399
 21
50.731753024081328
 31
0.0
 12
200.66371005441161
 22
47.267158740056921
 32
0.0
 13
200.66371005441161
 23
47.267158740056921
 33
0.0
  0
POLYLINE
  5
B0D
  8
0
 66
     1
 10
0.0
 20
0.0
 30
0.0
  0
VERTEX
  5
B0E
  8
0
 10
200.15884004500529
 20
47.702532967643357
 30
0.0
  0
VERTEX
  5
B0F
  8
0
 10
155.71779912662521
 20
-3.8323244603474289
 30
0.0
  0
VERTEX
  5
B10
  8
0
 10
151.71779912662521
 20
-3.8323244603474289
 30
0.0
  0
SEQEND
  5
B11
  8
0
  0
ENDBLK
  5
B13
  8
0
  0
BLOCK
  8
0
  2
*U35
 70
     1
 10
0.0
 20
0.0
 30
0.0
  3
*U35
  1

  0
TEXT
  5
B15
  8
0
  6
CONTINUOUS
 10
135.81602559320089
 20
-5.7995823048221897
 30
0.0
 40
4.0
  1
Purlin
  7
EURO_COMMON_JNT-HORI-ALT$0
  0
ENDBLK
  5
B17
  8
0
  0
BLOCK
  8
0
  2
*U36
 70
     1
 10
0.0
 20
0.0
 30
0.0
  3
*U36
  1

  0
TEXT
  5
B26
  8
0
  6
CONTINUOUS
 10
211.13617093591469
 20
28.172700758761799
 30
0.0
 40
4.0
  1
5mm min depending
 50
344.9999999999996
  7
EURO_COMMON_JNT-HORI-ALT$0
  0
TEXT
  5
B27
  8
0
  6
CONTINUOUS
 10
220.5445541636299
 20
18.749890868078989
 30
0.0
 40
4.0
  1
on material
 50
344.9999999999996
  7
EURO_COMMON_JNT-HORI-ALT$0
  0
ENDBLK
  5
B29
  8
0
  0
BLOCK
  8
0
  2
*U37
 70
     1
 10
0.0
 20
0.0
 30
0.0
  3
*U37
  1

  0
TEXT
  5
B2B
  8
0
  6
CONTINUOUS
 10
29.95393730887535
 20
98.698726928214896
 30
0.0
 40
4.0
  1
5mm min depending
 50
344.99999999999989
  7
EURO_COMMON_JNT-HORI-ALT$0
  0
TEXT
  5
B2C
  8
0
  6
CONTINUOUS
 10
39.362320536590701
 20
89.275917037532153
 30
0.0
 40
4.0
  1
on material
 50
344.99999999999989
  7
EURO_COMMON_JNT-HORI-ALT$0
  0
ENDBLK
  5
B2E
  8
0
  0
BLOCK
  8
0
  2
*U38
 70
     1
 10
0.0
 20
0.0
 30
0.0
  3
*U38
  1

  0
TEXT
  5
B30
  8
0
  6
CONTINUOUS
 10
302.59614508621019
 20
186.29774940474289
 30
0.0
 40
4.0
  1
20
 50
345.00000000000011
  7
EURO_COMMON_JNT-HORI-ALT$0
  0
ENDBLK
  5
B32
  8
0
  0
BLOCK
  8
0
  2
*U39
 70
     1
 10
0.0
 20
0.0
 30
0.0
  3
*U39
  1

  0
TEXT
  5
B34
  8
0
  6
CONTINUOUS
 10
186.30519412836671
 20
239.10894418689219
 30
0.0
 40
4.0
  1
200mm min lap
 50
345.00000000000011
  7
EURO_COMMON_JNT-HORI-ALT$0
  0
ENDBLK
  5
B36
  8
0
  0
BLOCK
  8
0
  2
*U40
 70
     1
 10
0.0
 20
0.0
 30
0.0
  3
*U40
  1

  0
TEXT
  5
B38
  8
0
  6
CONTINUOUS
 10
273.66317449684772
 20
194.0503155087961
 30
0.0
 40
4.0
  1
40
 50
345.00000000000011
  7
EURO_COMMON_JNT-HORI-ALT$0
  0
ENDBLK
  5
B3A
  8
0
  0
ENDSEC
  0
SECTION
  2
ENTITIES
  0
POLYLINE
  5
868
  8
0
 66
     1
 10
0.0
 20
0.0
 30
0.0
  0
VERTEX
  5
A2B
  8
0
 10
305.02013114287791
 20
114.43419716772129
 30
0.0
  0
VERTEX
  5
A2C
  8
0
 10
46.295180330969977
 20
183.759338799554
 30
0.0
  0
VERTEX
  5
A2D
  8
0
 10
36.718875662176721
 20
148.02008322685839
 30
0.0
  0
SEQEND
  5
A2E
  8
0
  0
POLYLINE
  5
869
  8
0
 66
     1
 10
0.0
 20
0.0
 30
0.0
  0
VERTEX
  5
A2F
  8
0
 10
289.41334272319591
 20
56.188869842490583
 30
0.0
  0
VERTEX
  5
A30
  8
0
 10
-51.76907591387031
 20
147.60842338798969
 30
0.0
  0
SEQEND
  5
A31
  8
0
  0
LINE
  5
86A
  8
0
 10
-46.217407396421272
 20
168.32753236189021
 30
0.0
 11
294.96501124064503
 21
76.907978816391079
 31
0.0
  0
POLYLINE
  5
86B
  8
0
 66
     1
 10
0.0
 20
0.0
 30
0.0
 70
   128
 40
0.6166666666666667
 41
0.6166666666666667
  0
VERTEX
  5
A32
  8
0
 10
286.3692207717217
 20
94.61230259810722
 30
0.0
  0
VERTEX
  5
A33
  8
0
 10
213.5570567690346
 20
114.1222631417896
 30
0.0
 42
0.0729934230505125
  0
VERTEX
  5
A34
  8
0
 10
213.0233833759213
 20
114.18448682814891
 30
0.0
  0
VERTEX
  5
A35
  8
0
 10
207.4927020322836
 20
114.0204130551699
 30
0.0
 42
-0.0729934230505128
  0
VERTEX
  5
A36
  8
0
 10
206.2474641150192
 20
114.16560165667489
 30
0.0
  0
VERTEX
  5
A37
  8
0
 10
148.43925420235161
 20
129.655264818663
 30
0.0
  0
SEQEND
  5
A38
  8
0
  0
POLYLINE
  5
86C
  8
0
 66
     1
 10
0.0
 20
0.0
 30
0.0
 70
   129
  0
VERTEX
  5
A39
  8
0
 10
188.53689180693871
 20
109.3766115591809
 30
0.0
  0
VERTEX
  5
A3A
  8
0
 10
190.36640833113859
 20
116.20446018078169
 30
0.0
  0
VERTEX
  5
A3B
  8
0
 10
162.83752228190011
 20
123.58080296620351
 30
0.0
  0
VERTEX
  5
A3C
  8
0
 10
161.0080057577002
 20
116.7529543446027
 30
0.0
  0
SEQEND
  5
A3D
  8
0
  0
POLYLINE
  5
86E
  8
0
 66
     1
 10
0.0
 20
0.0
 30
0.0
 70
   128
  0
VERTEX
  5
A3E
  8
0
 10
-27.90074667600561
 20
236.68624079548269
 30
0.0
  0
VERTEX
  5
A3F
  8
0
 10
-58.11351690643464
 20
123.93064725811701
 30
0.0
  0
VERTEX
  5
A40
  8
0
 10
-61.705820317864692
 20
123.6163614336714
 30
0.0
  0
VERTEX
  5
A41
  8
0
 10
-55.798054117510922
 20
119.47969900620321
 30
0.0
  0
VERTEX
  5
A42
  8
0
 10
-59.390357528940399
 20
119.1654131817576
 30
0.0
  0
VERTEX
  5
A43
  8
0
 10
-95.760707498999167
 20
-16.57058079556279
 30
0.0
  0
SEQEND
  5
A44
  8
0
  0
POLYLINE
  5
86F
  8
0
 66
     1
 10
0.0
 20
0.0
 30
0.0
 70
   128
 40
0.6166666666666667
 41
0.6166666666666667
  0
VERTEX
  5
A45
  8
0
 10
-40.956153796627738
 20
187.96279810782451
 30
0.0
  0
VERTEX
  5
A46
  8
0
 10
287.80317077574961
 20
99.963876868652846
 30
0.0
 42
-0.9999999999999998
  0
VERTEX
  5
A47
  8
0
 10
285.21498032472442
 20
90.304618605762144
 30
0.0
  0
VERTEX
  5
A48
  8
0
 10
232.08905987882571
 20
104.5396660864008
 30
0.0
  0
SEQEND
  5
A49
  8
0
  0
POLYLINE
  5
870
  8
0
 66
     1
 10
0.0
 20
0.0
 30
0.0
  0
VERTEX
  5
A4A
  8
0
 10
-46.696222629860927
 20
166.5405695832554
 30
0.0
  0
VERTEX
  5
A4B
  8
0
 10
294.48619600720531
 20
75.12101603775632
 30
0.0
  0
SEQEND
  5
A4C
  8
0
  0
LINE
  5
871
  8
0
 10
-62.121837717971253
 20
108.97139033642701
 30
0.0
 11
279.060580919095
 21
17.551836790927879
 31
0.0
  0
LINE
  5
872
  8
0
 10
253.22181291636011
 20
-78.879758200264121
 30
0.0
 11
-87.960605720706198
 21
12.539795345235021
 31
0.0
  0
POLYLINE
  5
873
  8
0
 66
     1
 10
0.0
 20
0.0
 30
0.0
 70
   128
  0
VERTEX
  5
A4D
  8
0
 10
308.19581459759382
 20
126.2860091694769
 30
0.0
  0
VERTEX
  5
A4E
  8
0
 10
283.06890173063158
 20
32.511093712617921
 30
0.0
  0
VERTEX
  5
A4F
  8
0
 10
279.47659831920163
 20
32.196807888172302
 30
0.0
  0
VERTEX
  5
A50
  8
0
 10
285.38436451955528
 20
28.060145460704099
 30
0.0
  0
VERTEX
  5
A51
  8
0
 10
281.79206110812578
 20
27.745859636258508
 30
0.0
  0
VERTEX
  5
A52
  8
0
 10
245.421711138067
 20
-107.9901343410622
 30
0.0
  0
SEQEND
  5
A53
  8
0
  0
DIMENSION
  5
874
  8
0
  2
*D10
 10
256.71424840237268
 20
196.44212080224059
 30
0.0
 11
277.07898707090823
 21
195.17029409295219
 31
0.0
 70
     0
  1
40
 13
273.2970287784068
 23
103.7817674901047
 33
0.0
 14
232.1063144818325
 24
104.6040611414867
 34
0.0
 50
345.00000000000011
  0
INSERT
  5
875
  8
0
  6
CONTINUOUS
  2
*U15
 10
0.0
 20
0.0
 30
0.0
  0
INSERT
  5
876
  8
0
  6
CONTINUOUS
  2
*U16
 10
0.0
 20
0.0
 30
0.0
1001
ACAD
1000
DSTYLE
1002
{
1070
   147
1040
1.0
1070
    77
1070
     0
1002
}
  0
INSERT
  5
877
  8
0
  6
CONTINUOUS
  2
*U17
 10
0.0
 20
0.0
 30
0.0
  0
INSERT
  5
878
  8
0
  6
CONTINUOUS
  2
*U18
 10
0.0
 20
0.0
 30
0.0
1001
ACAD
1000
DSTYLE
1002
{
1070
   147
1040
1.0
1070
    77
1070
     0
1002
}
  0
INSERT
  5
879
  8
0
  6
CONTINUOUS
  2
*U19
 10
0.0
 20
0.0
 30
0.0
  0
INSERT
  5
87A
  8
0
  6
CONTINUOUS
  2
*U20
 10
0.0
 20
0.0
 30
0.0
1001
ACAD
1000
DSTYLE
1002
{
1070
   147
1040
1.0
1070
    77
1070
     0
1002
}
  0
INSERT
  5
87B
  8
0
  6
CONTINUOUS
  2
*U21
 10
0.0
 20
0.0
 30
0.0
1001
ACAD
1000
DSTYLE
1002
{
1070
   147
1040
1.0
1070
    77
1070
     0
1002
}
  0
INSERT
  5
87C
  8
0
  6
CONTINUOUS
  2
*U22
 10
0.0
 20
0.0
 30
0.0
  0
INSERT
  5
87D
  8
0
  6
CONTINUOUS
  2
*U23
 10
0.0
 20
0.0
 30
0.0
1001
ACAD
1000
DSTYLE
1002
{
1070
   147
1040
1.0
1070
    77
1070
     0
1002
}
  0
INSERT
  5
87E
  8
0
  6
CONTINUOUS
  2
*U24
 10
0.0
 20
0.0
 30
0.0
  0
INSERT
  5
87F
  8
0
  6
CONTINUOUS
  2
*U25
 10
0.0
 20
0.0
 30
0.0
1001
ACAD
1000
DSTYLE
1002
{
1070
   147
1040
1.0
1070
    77
1070
     0
1002
}
  0
DIMENSION
  5
880
  8
0
  2
*D11
 10
107.341330812705
 20
257.03854179763408
 30
0.0
 11
205.09891932431779
 21
235.5688934878433
 31
0.0
 70
     0
  1
200mm min lap
 13
273.2970287784068
 23
103.7817674901047
 33
0.0
 14
80.144061048136066
 24
155.53694920910539
 34
0.0
 50
345.00000000000011
  0
POLYLINE
  5
882
  8
0
 66
     1
 10
0.0
 20
0.0
 30
0.0
 70
   129
  0
VERTEX
  5
A9D
  8
0
 10
58.874062395503408
 20
153.70340566766279
 30
0.0
  0
VERTEX
  5
A9E
  8
0
 10
60.499841252082888
 20
159.77089496228859
 30
0.0
  0
VERTEX
  5
A9F
  8
0
 10
38.141695992615297
 20
165.7554937757246
 30
0.0
  0
VERTEX
  5
AA0
  8
0
 10
36.517479174309869
 20
159.69383408730079
 30
0.0
  0
SEQEND
  5
AA1
  8
0
  0
POLYLINE
  5
883
  8
0
 66
     1
 10
0.0
 20
0.0
 30
0.0
 70
   128
 40
0.6166666666666667
 41
0.6166666666666667
  0
VERTEX
  5
AA2
  8
0
 10
36.718875662176721
 20
148.02008322685839
 30
0.0
  0
VERTEX
  5
AA3
  8
0
 10
36.718875662176721
 20
148.02008322685839
 30
0.0
 42
-1.087798151799664
  0
VERTEX
  5
AA4
  8
0
 10
38.634136595935352
 20
155.1679343413974
 30
0.0
  0
VERTEX
  5
AA5
  8
0
 10
62.839582064932742
 20
148.68210477554419
 30
0.0
  0
SEQEND
  5
AA6
  8
0
  0
POLYLINE
  5
884
  8
0
 66
     1
 10
0.0
 20
0.0
 30
0.0
 70
   128
  0
VERTEX
  5
AA7
  8
0
 10
287.59492145715831
 20
99.950658693366407
 30
0.0
  0
VERTEX
  5
AA8
  8
0
 10
297.17122612595148
 20
135.68991426606189
 30
0.0
  0
VERTEX
  5
AA9
  8
0
 10
-31.37413515979171
 20
223.72337849956821
 30
0.0
  0
SEQEND
  5
AAA
  8
0
  0
DIMENSION
  5
885
  8
0
  2
*D12
 10
314.6697979797168
 20
180.91297809608929
 30
0.0
 11
306.05676185958021
 21
187.4057227398765
 31
0.0
 70
     0
 13
273.2970287784068
 23
103.7817674901047
 33
0.0
 14
291.33870468168237
 24
93.840152511694896
 34
0.0
 50
345.00000000000011
  0
POLYLINE
  5
886
  8
0
 66
     1
 10
0.0
 20
0.0
 30
0.0
 70
   128
 40
0.6
 41
0.6
  0
VERTEX
  5
AAB
  8
0
 10
36.834339571222941
 20
153.0965072556977
 30
0.0
  0
VERTEX
  5
AAC
  8
0
 10
62.24045452453808
 20
146.28895927114459
 30
0.0
 42
0.9836445407727289
  0
VERTEX
  5
AAD
  8
0
 10
63.517295147043868
 20
151.054193347504
 30
0.0
  0
VERTEX
  5
AAE
  8
0
 10
25.862450477877029
 20
161.1437785677266
 30
0.0
  0
VERTEX
  5
AAF
  8
0
 10
4.40383737998686
 20
156.8341630650136
 30
0.0
  0
VERTEX
  5
AB0
  8
0
 10
-27.39277631665442
 20
165.35404002707301
 30
0.0
  0
SEQEND
  5
AB1
  8
0
  0
INSERT
  5
887
  8
0
  6
CONTINUOUS
  2
*X26
 10
0.0
 20
0.0
 30
0.0
1001
ACAD
1000
HATCH
1002
{
1070
    19
1000
ANSI31
1040
2.0
1040
-0.2617993877991493
1000
R14_HATCH_DATA
1000
887
1011
1.0
1021
0.0
1031
0.0
1021
0.0
1031
0.0
1011
0.0
1021
0.0
1031
0.0
1021
1.0
1031
0.0
1011
0.0
1021
0.0
1031
0.0
1021
0.0
1031
1.0
1040
0.0
1010
0.0
1020
0.0
1030
1.0
1000
ANSI31
1070
     0
1070
     0
1071
        1
1071
        7
1070
     0
1070
     1
1071
        4
1040
-17.543457476782041
1040
158.72910970335371
1040
-46.69622262986092
1040
166.5405695832554
1040
-51.769075913870338
1040
147.60842338798969
1040
-22.61631076079146
1040
139.796963508088
1071
        0
1070
     0
1070
     1
1040
-0.2617993877991493
1040
2.0
1070
     0
1070
     1
1040
0.523598775598299
1040
3.5432030142534918
1040
26.91329886773611
1040
-3.1749999999999989
1040
5.4992613140311848
1070
     0
1040
0.3093639840875189
1071
        1
1040
-33.440554650378473
1040
153.5001341247978
1040
0.0
1002
}
  0
INSERT
  5
888
  8
0
  6
CONTINUOUS
  2
*U27
 10
0.0
 20
0.0
 30
0.0
1001
ACAD
1000
DSTYLE
1002
{
1070
   147
1040
1.0
1070
    77
1070
     0
1002
}
  0
INSERT
  5
889
  8
0
  6
CONTINUOUS
  2
*U28
 10
0.0
 20
0.0
 30
0.0
  0
INSERT
  5
88A
  8
0
  6
CONTINUOUS
  2
*U29
 10
0.0
 20
0.0
 30
0.0
1001
ACAD
1000
DSTYLE
1002
{
1070
   147
1040
1.0
1070
    77
1070
     0
1002
}
  0
INSERT
  5
88B
  8
0
  6
CONTINUOUS
  2
*U30
 10
0.0
 20
0.0
 30
0.0
  0
INSERT
  5
88C
  8
0
  6
CONTINUOUS
  2
*U31
 10
0.0
 20
0.0
 30
0.0
1001
ACAD
1000
DSTYLE
1002
{
1070
   147
1040
1.0
1070
    77
1070
     0
1002
}
  0
INSERT
  5
88D
  8
0
  6
CONTINUOUS
  2
*U32
 10
0.0
 20
0.0
 30
0.0
  0
INSERT
  5
890
  8
0
  6
CONTINUOUS
  2
*X33
 10
0.0
 20
0.0
 30
0.0
1001
ACAD
1000
HATCH
1002
{
1070
    19
1000
ANSI31
1040
2.0
1040
-0.2617993877991493
1000
R14_HATCH_DATA
1000
890
1011
1.0
1021
0.0
1031
0.0
1021
0.0
1031
0.0
1011
0.0
1021
0.0
1031
0.0
1021
1.0
1031
0.0
1011
0.0
1021
0.0
1031
0.0
1021
0.0
1031
1.0
1040
0.0
1010
0.0
1020
0.0
1030
1.0
1000
ANSI31
1070
     0
1070
     0
1071
        1
1071
        1
1071
       11
1070
     1
1040
289.41334272319591
1040
56.188869842490561
1040
294.48619600720531
1040
75.121016037756306
1070
     1
1040
294.48619600720531
1040
75.121016037756306
1040
174.39191715997529
1040
107.30018107046961
1070
     1
1040
174.39191715997529
1040
107.30018107046961
1040
172.11855366949339
1040
99.163545945582484
1070
     1
1040
172.11855366949339
1040
99.163545945582484
1040
170.98031501116239
1040
98.163229188309373
1070
     1
1040
170.98031501116239
1040
98.163229188309373
1040
170.4585207029036
1040
99.705684494822933
1070
     1
1040
170.4585207029036
1040
99.705684494822933
1040
170.52055612688079
1040
99.699310152435743
1070
     1
1040
170.52055612688079
1040
99.699310152435743
1040
172.59425682376511
1040
107.7818627058227
1070
     1
1040
172.59425682376511
1040
107.7818627058227
1040
-15.475782097354401
1040
158.1750777552264
1070
     1
1040
-15.475782097354379
1040
158.1750777552264
1040
-15.56926733043705
1040
158.1846836681969
1070
     1
1040
-15.56926733043705
1040
158.1846836681969
1040
-20.8397685226067
1040
139.32094045004661
1070
     1
1040
-20.8397685226067
1040
139.32094045004661
1040
289.41334272319591
1040
56.188869842490561
1071
        0
1070
     0
1070
     1
1040
-0.2617993877991493
1040
2.0
1070
     0
1070
     1
1040
0.523598775598299
1040
3.5432030142534918
1040
26.91329886773611
1040
-3.1749999999999989
1040
5.4992613140311848
1070
     0
1071
        1
1040
206.76025956270891
1040
93.644632484701248
1040
0.0
1002
}
  0
DIMENSION
  5
892
  8
0
  6
CONTINUOUS
  2
*D13
 10
22.888351508900129
 20
115.4648006969595
 30
0.0
 11
29.824391951858281
 21
97.319173087753484
 31
0.0
 70
     1
  1
5mm min depending\Pon material
 13
37.995716284682487
 23
152.78531730321791
 33
0.0
 14
33.230482208323082
 24
154.0621579257236
 34
0.0
  0
INSERT
  5
893
  8
0
  6
CONTINUOUS
  2
*U34
 10
0.0
 20
0.0
 30
0.0
1001
ACAD
1000
DSTYLE
1002
{
1070
   147
1040
1.0
1070
    77
1070
     0
1002
}
  0
INSERT
  5
894
  8
0
  6
CONTINUOUS
  2
*U35
 10
0.0
 20
0.0
 30
0.0
  0
POLYLINE
  5
895
  8
0
 66
     1
 10
0.0
 20
0.0
 30
0.0
 40
0.6166666666666667
 41
0.6166666666666667
  0
VERTEX
  5
B18
  8
0
 10
36.718875662176728
 20
148.0200832268585
 30
0.0
  0
VERTEX
  5
B19
  8
0
 10
295.44382647408457
 20
78.694941595025838
 30
0.0
  0
SEQEND
  5
B1A
  8
0
  0
DIMENSION
  5
896
  8
0
  6
CONTINUOUS
  2
*D14
 10
278.59753727088969
 20
46.94773087481434
 30
0.0
 11
257.42015613939412
 21
6.7307563900198977
 31
0.0
 70
   129
  1
5mm min depending\Pon material
 13
284.17443389395351
 23
86.821928726084195
 33
0.0
 14
288.93966797031288
 24
85.545088103578394
 34
0.0
  0
POLYLINE
  5
908
  8
0
 66
     1
 10
0.0
 20
0.0
 30
0.0
 70
     1
1001
ACDBBLOCKREPETAG
1070
     1
1071
        0
1005
908
  0
VERTEX
  5
B1B
  8
0
 10
167.13737645844631
 20
47.541569040462051
 30
0.0
  0
VERTEX
  5
B1C
  8
0
 10
239.5851497565281
 20
28.129246691808031
 30
0.0
  0
VERTEX
  5
B1D
  8
0
 10
249.937911560629
 20
66.76627974337076
 30
0.0
  0
VERTEX
  5
B1E
  8
0
 10
177.49013826254719
 20
86.178602092024846
 30
0.0
  0
SEQEND
  5
B1F
  8
0
  0
POLYLINE
  5
909
  8
0
 66
     1
 10
0.0
 20
0.0
 30
0.0
 70
     1
 40
0.25
 41
0.25
1001
ACDBBLOCKREPETAG
1070
     1
1071
        0
1005
908
  0
VERTEX
  5
B20
  8
0
 10
167.29046956737031
 20
47.62995738811037
 30
0.0
  0
VERTEX
  5
B21
  8
0
 10
239.49676140887979
 20
28.282339800731979
 30
0.0
  0
VERTEX
  5
B22
  8
0
 10
249.78481845170501
 20
66.677891395722426
 30
0.0
  0
VERTEX
  5
B23
  8
0
 10
177.5785266101955
 20
86.025508983100877
 30
0.0
  0
SEQEND
  5
B24
  8
0
  0
LINE
  5
90A
  8
0
 10
177.49013826254719
 20
86.178602092024846
 30
0.0
 11
239.5851497565281
 21
28.129246691808031
 31
0.0
1001
ACDBBLOCKREPETAG
1070
     1
1071
        1
1005
90A
  0
LINE
  5
90B
  8
0
 10
249.937911560629
 20
66.76627974337076
 30
0.0
 11
167.13737645844631
 21
47.541569040462051
 31
0.0
1001
ACDBBLOCKREPETAG
1070
     1
1071
        2
1005
90B
  0
LINE
  5
90C
  8
0
 10
-11.410345736663031
 20
157.3484959033143
 30
0.0
 11
-16.719274957525769
 21
138.34721425395679
 31
0.0
1001
ACDBBLOCKREPETAG
1070
     1
1071
        0
1005
90C
  0
LINE
  5
90D
  8
0
 10
-13.44012557838629
 20
157.89237377271701
 30
0.0
 11
-18.34309883090442
 21
138.78231654947879
 31
0.0
1001
ACDBBLOCKREPETAG
1070
     1
1071
        1
1005
90D
  0
LINE
  5
90E
  8
0
 10
-17.85751361585675
 20
137.34689749668379
 30
0.0
 11
-18.34309883090442
 21
138.78231654947879
 31
0.0
1001
ACDBBLOCKREPETAG
1070
     1
1071
        2
1005
90E
  0
LINE
  5
90F
  8
0
 10
-17.85751361585675
 20
137.34689749668379
 30
0.0
 11
-16.719274957525769
 21
138.34721425395679
 31
0.0
1001
ACDBBLOCKREPETAG
1070
     1
1071
        3
1005
90F
  0
LINE
  5
910
  8
0
 10
-13.44012557838629
 20
157.89237377271701
 30
0.0
 11
-11.410345736663031
 21
157.3484959033143
 31
0.0
1001
ACDBBLOCKREPETAG
1070
     1
1071
        4
1005
910
  0
LINE
  5
911
  8
0
 10
-16.105083742222408
 20
147.50530853994641
 30
0.0
 11
-14.21478608575009
 21
147.3110742830726
 31
0.0
1001
ACDBBLOCKREPETAG
1070
     1
1071
        5
1005
911
  0
LINE
  5
912
  8
0
 10
-16.27272266355974
 20
146.8519112614872
 30
0.0
 11
-14.3969279266701
 21
146.65916722695891
 31
0.0
1001
ACDBBLOCKREPETAG
1070
     1
1071
        6
1005
912
  0
LINE
  5
913
  8
0
 10
-18.317272500137989
 20
138.88297846080999
 30
0.0
 11
-17.03348852821318
 21
138.7510654655633
 31
0.0
1001
ACDBBLOCKREPETAG
1070
     1
1071
        7
1005
913
  0
LINE
  5
914
  8
0
 10
-17.85751361585675
 20
137.34689749668379
 30
0.0
 11
-16.218346335890399
 21
140.14009666582319
 31
0.0
1001
ACDBBLOCKREPETAG
1070
     1
1071
        8
1005
914
  0
LINE
  5
915
  8
0
 10
-16.440361584892429
 20
146.19851398302751
 30
0.0
 11
-14.57906976759317
 21
146.0072601708456
 31
0.0
1001
ACDBBLOCKREPETAG
1070
     1
1071
        9
1005
915
  0
LINE
  5
916
  8
0
 10
-16.608000506228329
 20
145.5451167045677
 30
0.0
 11
-14.761211608514801
 21
145.35535311473171
 31
0.0
1001
ACDBBLOCKREPETAG
1070
     1
1071
       10
1005
916
  0
LINE
  5
917
  8
0
 10
-16.775639427562549
 20
144.89171942610821
 30
0.0
 11
-14.94335344943782
 21
144.7034460586186
 31
0.0
1001
ACDBBLOCKREPETAG
1070
     1
1071
       11
1005
917
  0
LINE
  5
918
  8
0
 10
-16.943278348897032
 20
144.23832214764781
 30
0.0
 11
-15.125495290357931
 21
144.05153900250451
 31
0.0
1001
ACDBBLOCKREPETAG
1070
     1
1071
       12
1005
918
  0
LINE
  5
919
  8
0
 10
-17.110917270234161
 20
143.58492486918931
 30
0.0
 11
-15.307637131280989
 21
143.3996319463912
 31
0.0
1001
ACDBBLOCKREPETAG
1070
     1
1071
       13
1005
919
  0
LINE
  5
91A
  8
0
 10
-17.27855619156848
 20
142.93152759072939
 30
0.0
 11
-15.489778972201
 21
142.74772489027751
 31
0.0
1001
ACDBBLOCKREPETAG
1070
     1
1071
       14
1005
91A
  0
LINE
  5
91B
  8
0
 10
-17.446195112904331
 20
142.27813031226981
 30
0.0
 11
-15.67192081312259
 21
142.0958178341638
 31
0.0
1001
ACDBBLOCKREPETAG
1070
     1
1071
       15
1005
91B
  0
LINE
  5
91C
  8
0
 10
-17.6138340342387
 20
141.6247330338098
 30
0.0
 11
-15.85406265404575
 21
141.44391077805011
 31
0.0
1001
ACDBBLOCKREPETAG
1070
     1
1071
       16
1005
91C
  0
LINE
  5
91D
  8
0
 10
-17.7814729555745
 20
140.97133575535031
 30
0.0
 11
-16.03620449496724
 21
140.79200372193679
 31
0.0
1001
ACDBBLOCKREPETAG
1070
     1
1071
       17
1005
91D
  0
LINE
  5
91E
  8
0
 10
-17.94911187690883
 20
140.3179384768905
 30
0.0
 11
-16.218346335890399
 21
140.14009666582319
 31
0.0
1001
ACDBBLOCKREPETAG
1070
     1
1071
       18
1005
91E
  0
LINE
  5
91F
  8
0
 10
-18.116750798244581
 20
139.66454119843121
 30
0.0
 11
-16.58951465002605
 21
139.50761269708929
 31
0.0
1001
ACDBBLOCKREPETAG
1070
     1
1071
       19
1005
91F
  0
LINE
  5
920
  8
0
 10
-13.44012557838629
 20
157.89237377271701
 30
0.0
 11
-12.916018416043819
 21
159.84836833118979
 31
0.0
1001
ACDBBLOCKREPETAG
1070
     1
1071
       20
1005
920
  0
LINE
  5
921
  8
0
 10
-11.410345736663031
 20
157.3484959033143
 30
0.0
 11
-10.88623857432057
 21
159.30449046178711
 31
0.0
1001
ACDBBLOCKREPETAG
1070
     1
1071
       21
1005
921
  0
LINE
  5
922
  8
0
 10
-12.916018416043871
 20
159.8483683311897
 30
0.0
 11
-13.65086914327529
 21
161.6719070975025
 31
0.0
1001
ACDBBLOCKREPETAG
1070
     1
1071
       22
1005
922
  0
LINE
  5
923
  8
0
 10
-13.65086914327529
 20
161.6719070975025
 30
0.0
 11
-13.56928746286488
 21
161.97637407376101
 31
0.0
1001
ACDBBLOCKREPETAG
1070
     1
1071
       23
1005
923
  0
LINE
  5
924
  8
0
 10
-13.56928746286488
 20
161.97637407376101
 30
0.0
 11
-9.256488112981863
 21
160.82076297084259
 31
0.0
1001
ACDBBLOCKREPETAG
1070
     1
1071
       24
1005
924
  0
LINE
  5
925
  8
0
 10
-13.65086914327529
 20
161.6719070975025
 30
0.0
 11
-9.3380697933922701
 21
160.51629599458411
 31
0.0
1001
ACDBBLOCKREPETAG
1070
     1
1071
       25
1005
925
  0
LINE
  5
926
  8
0
 10
-10.88623857432062
 20
159.30449046178691
 30
0.0
 11
-9.3380697933923198
 21
160.51629599458391
 31
0.0
1001
ACDBBLOCKREPETAG
1070
     1
1071
       26
1005
926
  0
LINE
  5
927
  8
0
 10
-9.3380697933923198
 20
160.51629599458391
 30
0.0
 11
-9.2564881129819128
 21
160.8207629708424
 31
0.0
1001
ACDBBLOCKREPETAG
1070
     1
1071
       27
1005
927
  0
LINE
  5
928
  8
0
 10
-10.88623857432062
 20
159.30449046178691
 30
0.0
 11
-12.916018416043871
 21
159.8483683311897
 31
0.0
1001
ACDBBLOCKREPETAG
1070
     1
1071
       28
1005
928
  0
LINE
  5
929
  8
0
 10
-14.428694528870359
 20
154.03928132454229
 30
0.0
 11
-12.39336767653157
 21
153.83014484420761
 31
0.0
1001
ACDBBLOCKREPETAG
1070
     1
1071
       29
1005
929
  0
LINE
  5
92A
  8
0
 10
-14.59633345020606
 20
153.38588404608319
 30
0.0
 11
-12.57550951745301
 21
153.17823778809449
 31
0.0
1001
ACDBBLOCKREPETAG
1070
     1
1071
       30
1005
92A
  0
LINE
  5
92B
  8
0
 10
-14.76397237154176
 20
152.73248676762421
 30
0.0
 11
-12.75765135837459
 21
152.52633073198081
 31
0.0
1001
ACDBBLOCKREPETAG
1070
     1
1071
       31
1005
92B
  0
LINE
  5
92C
  8
0
 10
-14.931376625245189
 20
152.07906537629859
 30
0.0
 11
-12.939793199297711
 21
151.87442367586729
 31
0.0
1001
ACDBBLOCKREPETAG
1070
     1
1071
       32
1005
92C
  0
LINE
  5
92D
  8
0
 10
-15.09925021421199
 20
151.42569221070451
 30
0.0
 11
-13.121935040219251
 21
151.2225166197538
 31
0.0
1001
ACDBBLOCKREPETAG
1070
     1
1071
       33
1005
92D
  0
LINE
  5
92E
  8
0
 10
-15.26688913554794
 20
150.77229493224451
 30
0.0
 11
-13.30407688114073
 21
150.57060956364049
 31
0.0
1001
ACDBBLOCKREPETAG
1070
     1
1071
       34
1005
92E
  0
LINE
  5
92F
  8
0
 10
-15.43452805688359
 20
150.11889765378561
 30
0.0
 11
-13.48621872206237
 21
149.9187025075266
 31
0.0
1001
ACDBBLOCKREPETAG
1070
     1
1071
       35
1005
92F
  0
LINE
  5
930
  8
0
 10
-15.60216697821634
 20
149.46550037532569
 30
0.0
 11
-13.66836056298386
 21
149.26679545141329
 31
0.0
1001
ACDBBLOCKREPETAG
1070
     1
1071
       36
1005
930
  0
LINE
  5
931
  8
0
 10
-15.76980589955218
 20
148.81210309686611
 30
0.0
 11
-13.850502403905489
 21
148.6148883952994
 31
0.0
1001
ACDBBLOCKREPETAG
1070
     1
1071
       37
1005
931
  0
LINE
  5
932
  8
0
 10
-15.937444820888031
 20
148.15870581840639
 30
0.0
 11
-14.03264424482861
 21
147.96298133918589
 31
0.0
1001
ACDBBLOCKREPETAG
1070
     1
1071
       38
1005
932
  0
LINE
  5
933
  8
0
 10
-13.590499922195701
 20
157.30626771684109
 30
0.0
 11
-11.482658471922059
 21
157.08968012477601
 31
0.0
1001
ACDBBLOCKREPETAG
1070
     1
1071
       39
1005
933
  0
LINE
  5
934
  8
0
 10
-13.75813884352997
 20
156.65287043838151
 30
0.0
 11
-11.6648003128436
 21
156.43777306866249
 31
0.0
1001
ACDBBLOCKREPETAG
1070
     1
1071
       40
1005
934
  0
LINE
  5
935
  8
0
 10
-13.925777764864289
 20
155.99947315992159
 30
0.0
 11
-11.84694215376523
 21
155.78586601254869
 31
0.0
1001
ACDBBLOCKREPETAG
1070
     1
1071
       41
1005
935
  0
LINE
  5
936
  8
0
 10
-14.09341668620004
 20
155.3460758814623
 30
0.0
 11
-12.029083994688399
 21
155.13395895643501
 31
0.0
1001
ACDBBLOCKREPETAG
1070
     1
1071
       42
1005
936
  0
LINE
  5
937
  8
0
 10
-14.261055607535891
 20
154.69267860300269
 30
0.0
 11
-12.21122583560831
 21
154.48205190032161
 31
0.0
1001
ACDBBLOCKREPETAG
1070
     1
1071
       43
1005
937
  0
LINE
  5
938
  8
0
 10
177.42748289035609
 20
118.16482759493989
 30
0.0
 11
172.11855366949339
 21
99.163545945582456
 31
0.0
1001
ACDBBLOCKREPETAG
1070
     1
1071
        0
1005
938
  0
LINE
  5
939
  8
0
 10
175.39770304863291
 20
118.7087054643426
 30
0.0
 11
170.4947297961148
 21
99.598648241104456
 31
0.0
1001
ACDBBLOCKREPETAG
1070
     1
1071
        1
1005
939
  0
LINE
  5
93A
  8
0
 10
170.9803150111625
 20
98.163229188309415
 30
0.0
 11
170.4947297961148
 21
99.598648241104456
 31
0.0
1001
ACDBBLOCKREPETAG
1070
     1
1071
        2
1005
93A
  0
LINE
  5
93B
  8
0
 10
170.9803150111625
 20
98.163229188309415
 30
0.0
 11
172.11855366949339
 21
99.163545945582456
 31
0.0
1001
ACDBBLOCKREPETAG
1070
     1
1071
        3
1005
93B
  0
LINE
  5
93C
  8
0
 10
175.39770304863291
 20
118.7087054643426
 30
0.0
 11
177.42748289035609
 21
118.16482759493989
 31
0.0
1001
ACDBBLOCKREPETAG
1070
     1
1071
        4
1005
93C
  0
LINE
  5
93D
  8
0
 10
172.7327448847968
 20
108.321640231572
 30
0.0
 11
174.62304254126909
 21
108.12740597469821
 31
0.0
1001
ACDBBLOCKREPETAG
1070
     1
1071
        5
1005
93D
  0
LINE
  5
93E
  8
0
 10
172.5651059634595
 20
107.6682429531128
 30
0.0
 11
174.44090070034909
 21
107.47549891858451
 31
0.0
1001
ACDBBLOCKREPETAG
1070
     1
1071
        6
1005
93E
  0
LINE
  5
93F
  8
0
 10
170.52055612688119
 20
99.699310152435672
 30
0.0
 11
171.80434009880599
 21
99.567397157188964
 31
0.0
1001
ACDBBLOCKREPETAG
1070
     1
1071
        7
1005
93F
  0
LINE
  5
940
  8
0
 10
170.9803150111625
 20
98.163229188309415
 30
0.0
 11
172.6194822911288
 21
100.9564283574488
 31
0.0
1001
ACDBBLOCKREPETAG
1070
     1
1071
        8
1005
940
  0
LINE
  5
941
  8
0
 10
172.39746704212669
 20
107.0148456746531
 30
0.0
 11
174.258758859426
 21
106.8235918624712
 31
0.0
1001
ACDBBLOCKREPETAG
1070
     1
1071
        9
1005
941
  0
LINE
  5
942
  8
0
 10
172.2298281207909
 20
106.3614483961933
 30
0.0
 11
174.07661701850441
 21
106.17168480635731
 31
0.0
1001
ACDBBLOCKREPETAG
1070
     1
1071
       10
1005
942
  0
LINE
  5
943
  8
0
 10
172.06218919945661
 20
105.7080511177338
 30
0.0
 11
173.8944751775814
 21
105.5197777502442
 31
0.0
1001
ACDBBLOCKREPETAG
1070
     1
1071
       11
1005
943
  0
LINE
  5
944
  8
0
 10
171.89455027812221
 20
105.0546538392734
 30
0.0
 11
173.71233333666129
 21
104.8678706941301
 31
0.0
1001
ACDBBLOCKREPETAG
1070
     1
1071
       12
1005
944
  0
LINE
  5
945
  8
0
 10
171.726911356785
 20
104.4012565608149
 30
0.0
 11
173.53019149573819
 21
104.2159636380168
 31
0.0
1001
ACDBBLOCKREPETAG
1070
     1
1071
       13
1005
945
  0
LINE
  5
946
  8
0
 10
171.55927243545071
 20
103.74785928235509
 30
0.0
 11
173.3480496548182
 21
103.5640565819031
 31
0.0
1001
ACDBBLOCKREPETAG
1070
     1
1071
       14
1005
946
  0
LINE
  5
947
  8
0
 10
171.39163351411489
 20
103.0944620038954
 30
0.0
 11
173.16590781389661
 21
102.9121495257894
 31
0.0
1001
ACDBBLOCKREPETAG
1070
     1
1071
       15
1005
947
  0
LINE
  5
948
  8
0
 10
171.22399459278051
 20
102.4410647254354
 30
0.0
 11
172.9837659729734
 21
102.2602424696758
 31
0.0
1001
ACDBBLOCKREPETAG
1070
     1
1071
       16
1005
948
  0
LINE
  5
949
  8
0
 10
171.05635567144469
 20
101.7876674469759
 30
0.0
 11
172.80162413205201
 21
101.6083354135624
 31
0.0
1001
ACDBBLOCKREPETAG
1070
     1
1071
       17
1005
949
  0
LINE
  5
94A
  8
0
 10
170.8887167501104
 20
101.1342701685161
 30
0.0
 11
172.6194822911288
 21
100.9564283574488
 31
0.0
1001
ACDBBLOCKREPETAG
1070
     1
1071
       18
1005
94A
  0
LINE
  5
94B
  8
0
 10
170.72107782877461
 20
100.4808728900568
 30
0.0
 11
172.2483139769931
 21
100.32394438871491
 31
0.0
1001
ACDBBLOCKREPETAG
1070
     1
1071
       19
1005
94B
  0
LINE
  5
94C
  8
0
 10
175.39770304863291
 20
118.7087054643426
 30
0.0
 11
175.92181021097539
 21
120.6647000228155
 31
0.0
1001
ACDBBLOCKREPETAG
1070
     1
1071
       20
1005
94C
  0
LINE
  5
94D
  8
0
 10
177.42748289035609
 20
118.16482759493989
 30
0.0
 11
177.95159005269861
 21
120.1208221534127
 31
0.0
1001
ACDBBLOCKREPETAG
1070
     1
1071
       21
1005
94D
  0
LINE
  5
94E
  8
0
 10
175.92181021097531
 20
120.6647000228153
 30
0.0
 11
175.18695948374389
 21
122.4882387891281
 31
0.0
1001
ACDBBLOCKREPETAG
1070
     1
1071
       22
1005
94E
  0
LINE
  5
94F
  8
0
 10
175.18695948374389
 20
122.4882387891281
 30
0.0
 11
175.2685411641543
 21
122.7927057653866
 31
0.0
1001
ACDBBLOCKREPETAG
1070
     1
1071
       23
1005
94F
  0
LINE
  5
950
  8
0
 10
175.2685411641543
 20
122.7927057653866
 30
0.0
 11
179.58134051403729
 21
121.6370946624682
 31
0.0
1001
ACDBBLOCKREPETAG
1070
     1
1071
       24
1005
950
  0
LINE
  5
951
  8
0
 10
175.18695948374389
 20
122.4882387891281
 30
0.0
 11
179.49975883362691
 21
121.3326276862097
 31
0.0
1001
ACDBBLOCKREPETAG
1070
     1
1071
       25
1005
951
  0
LINE
  5
952
  8
0
 10
177.95159005269861
 20
120.1208221534125
 30
0.0
 11
179.49975883362691
 21
121.33262768620951
 31
0.0
1001
ACDBBLOCKREPETAG
1070
     1
1071
       26
1005
952
  0
LINE
  5
953
  8
0
 10
179.49975883362691
 20
121.33262768620951
 30
0.0
 11
179.58134051403729
 21
121.637094662468
 31
0.0
1001
ACDBBLOCKREPETAG
1070
     1
1071
       27
1005
953
  0
LINE
  5
954
  8
0
 10
177.95159005269861
 20
120.1208221534125
 30
0.0
 11
175.92181021097531
 21
120.6647000228153
 31
0.0
1001
ACDBBLOCKREPETAG
1070
     1
1071
       28
1005
954
  0
LINE
  5
955
  8
0
 10
174.4091340981488
 20
114.85561301616789
 30
0.0
 11
176.44446095048761
 21
114.6464765358332
 31
0.0
1001
ACDBBLOCKREPETAG
1070
     1
1071
       29
1005
955
  0
LINE
  5
956
  8
0
 10
174.24149517681309
 20
114.2022157377088
 30
0.0
 11
176.26231910956619
 21
113.9945694797201
 31
0.0
1001
ACDBBLOCKREPETAG
1070
     1
1071
       30
1005
956
  0
LINE
  5
957
  8
0
 10
174.07385625547741
 20
113.5488184592498
 30
0.0
 11
176.0801772686446
 21
113.3426624236064
 31
0.0
1001
ACDBBLOCKREPETAG
1070
     1
1071
       31
1005
957
  0
LINE
  5
958
  8
0
 10
173.906452001774
 20
112.89539706792419
 30
0.0
 11
175.89803542772151
 21
112.6907553674929
 31
0.0
1001
ACDBBLOCKREPETAG
1070
     1
1071
       32
1005
958
  0
LINE
  5
959
  8
0
 10
173.73857841280719
 20
112.2420239023301
 30
0.0
 11
175.71589358679989
 21
112.0388483113794
 31
0.0
1001
ACDBBLOCKREPETAG
1070
     1
1071
       33
1005
959
  0
LINE
  5
95A
  8
0
 10
173.57093949147131
 20
111.5886266238701
 30
0.0
 11
175.5337517458785
 21
111.38694125526609
 31
0.0
1001
ACDBBLOCKREPETAG
1070
     1
1071
       34
1005
95A
  0
LINE
  5
95B
  8
0
 10
173.4033005701356
 20
110.9352293454112
 30
0.0
 11
175.3516099049568
 21
110.7350341991522
 31
0.0
1001
ACDBBLOCKREPETAG
1070
     1
1071
       35
1005
95B
  0
LINE
  5
95C
  8
0
 10
173.2356616488029
 20
110.2818320669513
 30
0.0
 11
175.1694680640353
 21
110.08312714303889
 31
0.0
1001
ACDBBLOCKREPETAG
1070
     1
1071
       36
1005
95C
  0
LINE
  5
95D
  8
0
 10
173.068022727467
 20
109.6284347884917
 30
0.0
 11
174.98732622311371
 21
109.43122008692499
 31
0.0
1001
ACDBBLOCKREPETAG
1070
     1
1071
       37
1005
95D
  0
LINE
  5
95E
  8
0
 10
172.90038380613109
 20
108.9750375100321
 30
0.0
 11
174.80518438219059
 21
108.77931303081149
 31
0.0
1001
ACDBBLOCKREPETAG
1070
     1
1071
       38
1005
95E
  0
LINE
  5
95F
  8
0
 10
175.2473287048235
 20
118.1225994084667
 30
0.0
 11
177.35517015509711
 21
117.9060118164017
 31
0.0
1001
ACDBBLOCKREPETAG
1070
     1
1071
       39
1005
95F
  0
LINE
  5
960
  8
0
 10
175.07968978348919
 20
117.4692021300071
 30
0.0
 11
177.17302831417561
 21
117.2541047602881
 31
0.0
1001
ACDBBLOCKREPETAG
1070
     1
1071
       40
1005
960
  0
LINE
  5
961
  8
0
 10
174.9120508621549
 20
116.8158048515472
 30
0.0
 11
176.99088647325399
 21
116.6021977041743
 31
0.0
1001
ACDBBLOCKREPETAG
1070
     1
1071
       41
1005
961
  0
LINE
  5
962
  8
0
 10
174.74441194081919
 20
116.162407573088
 30
0.0
 11
176.80874463233079
 21
115.9502906480606
 31
0.0
1001
ACDBBLOCKREPETAG
1070
     1
1071
       42
1005
962
  0
LINE
  5
963
  8
0
 10
174.57677301948331
 20
115.5090102946283
 30
0.0
 11
176.6266027914109
 21
115.2983835919473
 31
0.0
1001
ACDBBLOCKREPETAG
1070
     1
1071
       43
1005
963
  0
LINE
  5
995
  8
0
 10
161.8258222331763
 20
119.8050869823462
 30
0.0
 11
166.6132382657575
 21
122.5691029174797
 31
0.0
1001
ACAD
1010
0.0
1020
0.0
1030
0.0
  0
LINE
  5
996
  8
0
 10
163.30500093027601
 20
116.1374763430929
 30
0.0
 11
171.96236607607671
 21
121.1358084404938
 31
0.0
1001
ACAD
1010
0.0
1020
0.0
1030
0.0
  0
LINE
  5
997
  8
0
 10
168.65412874059521
 20
114.70418186610701
 30
0.0
 11
177.31149388639591
 21
119.7025139635079
 31
0.0
1001
ACAD
1010
0.0
1020
0.0
1030
0.0
  0
LINE
  5
998
  8
0
 10
174.0032565509145
 20
113.270887389121
 30
0.0
 11
182.6606216967152
 21
118.269219486522
 31
0.0
1001
ACAD
1010
0.0
1020
0.0
1030
0.0
  0
LINE
  5
999
  8
0
 10
179.3523843612337
 20
111.83759291213519
 30
0.0
 11
188.0097495070344
 21
116.8359250095361
 31
0.0
1001
ACAD
1010
0.0
1020
0.0
1030
0.0
  0
LINE
  5
99A
  8
0
 10
184.70151217155291
 20
110.4042984351493
 30
0.0
 11
189.5645786829071
 21
113.21199119456671
 31
0.0
1001
ACAD
1010
0.0
1020
0.0
1030
0.0
  0
LINE
  5
99B
  8
0
 10
161.1386172837058
 20
116.7179570916873
 30
0.0
 11
161.04300301061559
 21
116.88356587060829
 31
0.0
1001
ACAD
1010
0.0
1020
0.0
1030
0.0
  0
LINE
  5
99C
  8
0
 10
166.48774509402509
 20
115.2846626147014
 30
0.0
 11
162.4762974876015
 21
122.2326936809275
 31
0.0
1001
ACAD
1010
0.0
1020
0.0
1030
0.0
  0
LINE
  5
99D
  8
0
 10
171.83687290434429
 20
113.8513681377155
 30
0.0
 11
166.8385408069434
 21
122.50873328351619
 31
0.0
1001
ACAD
1010
0.0
1020
0.0
1030
0.0
  0
LINE
  5
99E
  8
0
 10
177.18600071466349
 20
112.4180736607296
 30
0.0
 11
172.1876686172626
 21
121.0754388065303
 31
0.0
1001
ACAD
1010
0.0
1020
0.0
1030
0.0
  0
LINE
  5
99F
  8
0
 10
182.53512852498281
 20
110.9847791837437
 30
0.0
 11
177.53679642758181
 21
119.64214432954439
 31
0.0
1001
ACAD
1010
0.0
1020
0.0
1030
0.0
  0
LINE
  5
9A0
  8
0
 10
187.88425633530201
 20
109.5514847067578
 30
0.0
 11
182.88592423790101
 21
118.2088498525585
 31
0.0
1001
ACAD
1010
0.0
1020
0.0
1030
0.0
  0
LINE
  5
9A1
  8
0
 10
189.79531313634769
 20
114.0731038978634
 30
0.0
 11
188.2350520482203
 21
116.77555537557259
 31
0.0
1001
ACAD
1010
0.0
1020
0.0
1030
0.0
  0
LINE
  5
9A2
  8
0
 10
37.995069096381172
 20
165.2082747492226
 30
0.0
 11
38.689095990576412
 21
165.60897136341109
 31
0.0
1001
ACAD
1010
0.0
1020
0.0
1030
0.0
  0
LINE
  5
9A3
  8
0
 10
36.561774619395301
 20
159.85914693890339
 30
0.0
 11
44.039992817355319
 21
164.17669822855439
 31
0.0
1001
ACAD
1010
0.0
1020
0.0
1030
0.0
  0
LINE
  5
9A4
  8
0
 10
41.701294133026579
 20
158.3048350554003
 30
0.0
 11
49.390889644134248
 21
162.74442509369771
 31
0.0
1001
ACAD
1010
0.0
1020
0.0
1030
0.0
  0
LINE
  5
9A5
  8
0
 10
47.05042194334581
 20
156.8715405784144
 30
0.0
 11
54.741786470913162
 21
161.31215195884101
 31
0.0
1001
ACAD
1010
0.0
1020
0.0
1030
0.0
  0
LINE
  5
9A6
  8
0
 10
52.399549753665028
 20
155.43824610142849
 30
0.0
 11
60.092683297692062
 21
159.87987882398431
 31
0.0
1001
ACAD
1010
0.0
1020
0.0
1030
0.0
  0
LINE
  5
9A7
  8
0
 10
57.748677563984252
 20
154.00495162444261
 30
0.0
 11
59.175608352283248
 21
154.82879049918199
 31
0.0
1001
ACAD
1010
0.0
1020
0.0
1030
0.0
  0
LINE
  5
9A8
  8
0
 10
40.776732677947827
 20
158.5525705506416
 30
0.0
 11
37.658742710969094
 21
163.95308759093879
 31
0.0
1001
ACAD
1010
0.0
1020
0.0
1030
0.0
  0
LINE
  5
9A9
  8
0
 10
46.125860488267058
 20
157.1192760736557
 30
0.0
 11
41.687740773678719
 21
164.80632490939581
 31
0.0
1001
ACAD
1010
0.0
1020
0.0
1030
0.0
  0
LINE
  5
9AA
  8
0
 10
51.474988298586297
 20
155.68598159666979
 30
0.0
 11
47.035847774371433
 21
163.37479852654789
 31
0.0
1001
ACAD
1010
0.0
1020
0.0
1030
0.0
  0
LINE
  5
9AB
  8
0
 10
56.824116108905528
 20
154.25268711968391
 30
0.0
 11
52.383954775064147
 21
161.94327214369989
 31
0.0
1001
ACAD
1010
0.0
1020
0.0
1030
0.0
  0
LINE
  5
9AC
  8
0
 10
59.758075420468238
 20
157.00258719138409
 30
0.0
 11
57.73206177575689
 21
160.51174576085199
 31
0.0
1001
ACAD
1010
0.0
1020
0.0
1030
0.0
  0
ENDSEC
  0
EOF
