  0
SECTION
  2
HEADER
  9
$ACADVER
  1
AC1009
  9
$INSBASE
 10
0.0
 20
0.0
 30
0.0
  9
$EXTMIN
 10
-20.623276469779171
 20
-186.97384669916451
 30
-0.0015258207003583
  9
$EXTMAX
 10
355.10120238306831
 20
210.88464768441781
 30
0.0000000349246037
  9
$LIMMIN
 10
0.0
 20
0.0
  9
$LIMMAX
 10
12.0
 20
9.0
  9
$ORTHOMODE
 70
     0
  9
$REGENMODE
 70
     1
  9
$FILLMODE
 70
     1
  9
$QTEXTMODE
 70
     0
  9
$MIRRTEXT
 70
     0
  9
$DRAGMODE
 70
     2
  9
$LTSCALE
 40
1.0
  9
$OSMODE
 70
     0
  9
$ATTMODE
 70
     1
  9
$TEXTSIZE
 40
35.0
  9
$TRACEWID
 40
0.05
  9
$TEXTSTYLE
  7
ARIAL
  9
$CLAYER
  8
0
  9
$CELTYPE
  6
CONTINUOUS
  9
$CECOLOR
 62
   256
  9
$DIMSCALE
 40
2.0
  9
$DIMASZ
 40
2.0
  9
$DIMEXO
 40
2.0
  9
$DIMDLI
 40
6.0
  9
$DIMRND
 40
0.0
  9
$DIMDLE
 40
2.0
  9
$DIMEXE
 40
2.0
  9
$DIMTP
 40
0.0
  9
$DIMTM
 40
0.0
  9
$DIMTXT
 40
2.0
  9
$DIMCEN
 40
2.0
  9
$DIMTSZ
 40
0.0
  9
$DIMTOL
 70
     0
  9
$DIMLIM
 70
     0
  9
$DIMTIH
 70
     0
  9
$DIMTOH
 70
     0
  9
$DIMSE1
 70
     0
  9
$DIMSE2
 70
     0
  9
$DIMTAD
 70
     1
  9
$DIMZIN
 70
     0
  9
$DIMBLK
  1
ARCHTICK
  9
$DIMASO
 70
     1
  9
$DIMSHO
 70
     1
  9
$DIMPOST
  1

  9
$DIMAPOST
  1

  9
$DIMALT
 70
     0
  9
$DIMALTD
 70
     2
  9
$DIMALTF
 40
0.0394
  9
$DIMLFAC
 40
1.0
  9
$DIMTOFL
 70
     0
  9
$DIMTVP
 40
0.0
  9
$DIMTIX
 70
     0
  9
$DIMSOXD
 70
     0
  9
$DIMSAH
 70
     0
  9
$DIMBLK1
  1

  9
$DIMBLK2
  1

  9
$DIMSTYLE
  2
1_TO_2
  9
$DIMCLRD
 70
   256
  9
$DIMCLRE
 70
   256
  9
$DIMCLRT
 70
   256
  9
$DIMTFAC
 40
1.0
  9
$DIMGAP
 40
1.0
  9
$LUNITS
 70
     2
  9
$LUPREC
 70
     1
  9
$SKETCHINC
 40
0.1
  9
$FILLETRAD
 40
0.0
  9
$AUNITS
 70
     1
  9
$AUPREC
 70
     4
  9
$MENU
  1
.
  9
$ELEVATION
 40
0.0
  9
$PELEVATION
 40
0.0
  9
$THICKNESS
 40
0.0
  9
$LIMCHECK
 70
     0
  9
$BLIPMODE
 70
     0
  9
$CHAMFERA
 40
0.0
  9
$CHAMFERB
 40
0.0
  9
$SKPOLY
 70
     0
  9
$TDCREATE
 40
2452152.65359294
  9
$TDUPDATE
 40
2455419.5934069101
  9
$TDINDWG
 40
25.866201886599999
  9
$TDUSRTIMER
 40
25.866201886599999
  9
$USRTIMER
 70
     1
  9
$ANGBASE
 50
0.0
  9
$ANGDIR
 70
     0
  9
$PDMODE
 70
     0
  9
$PDSIZE
 40
0.0
  9
$PLINEWID
 40
0.0
  9
$COORDS
 70
     1
  9
$SPLFRAME
 70
     0
  9
$SPLINETYPE
 70
     6
  9
$SPLINESEGS
 70
     8
  9
$ATTDIA
 70
     0
  9
$ATTREQ
 70
     0
  9
$HANDLING
 70
     1
  9
$HANDSEED
  5
A78
  9
$SURFTAB1
 70
     6
  9
$SURFTAB2
 70
     6
  9
$SURFTYPE
 70
     6
  9
$SURFU
 70
     6
  9
$SURFV
 70
     6
  9
$UCSNAME
  2

  9
$UCSORG
 10
0.0
 20
0.0
 30
0.0
  9
$UCSXDIR
 10
1.0
 20
0.0
 30
0.0
  9
$UCSYDIR
 10
0.0
 20
1.0
 30
0.0
  9
$PUCSNAME
  2

  9
$PUCSORG
 10
0.0
 20
0.0
 30
0.0
  9
$PUCSXDIR
 10
1.0
 20
0.0
 30
0.0
  9
$PUCSYDIR
 10
0.0
 20
1.0
 30
0.0
  9
$USERI1
 70
     0
  9
$USERI2
 70
     0
  9
$USERI3
 70
     0
  9
$USERI4
 70
     0
  9
$USERI5
 70
     0
  9
$USERR1
 40
0.0
  9
$USERR2
 40
0.0
  9
$USERR3
 40
0.0
  9
$USERR4
 40
0.0
  9
$USERR5
 40
0.0
  9
$WORLDVIEW
 70
     1
  9
$SHADEDGE
 70
     3
  9
$SHADEDIF
 70
    70
  9
$TILEMODE
 70
     1
  9
$MAXACTVP
 70
    48
  9
$PLIMCHECK
 70
     0
  9
$PEXTMIN
 10
0.0
 20
0.0
 30
0.0
  9
$PEXTMAX
 10
208.41041893864801
 20
295.40953368001158
 30
0.0
  9
$PLIMMIN
 10
-0.793749988079071
 20
-0.793749988079071
  9
$PLIMMAX
 10
209.2062500119209
 20
296.20625001192087
  9
$UNITMODE
 70
     0
  9
$VISRETAIN
 70
     1
  9
$PLINEGEN
 70
     1
  9
$PSLTSCALE
 70
     1
  0
ENDSEC
  0
SECTION
  2
TABLES
  0
TABLE
  2
VPORT
 70
     1
  0
VPORT
  2
*ACTIVE
 70
     0
 10
0.0
 20
0.0
 11
1.0
 21
1.0
 12
167.23896295664451
 22
11.95540049262666
 13
0.0
 23
0.0
 14
1.0
 24
1.0
 15
50.0
 25
50.0
 16
0.0
 26
0.0
 36
1.0
 17
0.0
 27
0.0
 37
0.0
 40
401.20184307588119
 41
1.978962131837307
 42
50.0
 43
0.0
 44
0.0
 50
0.0
 51
0.0
 71
     0
 72
 20000
 73
     1
 74
     3
 75
     0
 76
     0
 77
     0
 78
     0
  0
ENDTAB
  0
TABLE
  2
LTYPE
 70
     2
  0
LTYPE
  2
CONTINUOUS
 70
     0
  3
Solid line
 72
    65
 73
     0
 40
0.0
  0
ENDTAB
  0
TABLE
  2
LAYER
 70
    11
  0
LAYER
  2
0
 70
     0
 62
     7
  6
CONTINUOUS
  0
LAYER
  2
DEFPOINTS
 70
     0
 62
   211
  6
CONTINUOUS
  0
ENDTAB
  0
TABLE
  2
STYLE
 70
     4
  0
STYLE
  2
STANDARD
 70
     0
 40
0.0
 41
1.0
 50
0.0
 71
     0
 42
1.5
  3
romans.shx
  4

  0
STYLE
  2
ARIAL
 70
     0
 40
0.0
 41
1.0
 50
0.0
 71
     0
 42
35.0
  3
txt
  4

  0
STYLE
  2
EURO_COMMON_JNT-HORI$0$ARI
 70
     0
 40
0.0
 41
1.0
 50
0.0
 71
     0
 42
35.0
  3
txt
  4

  0
ENDTAB
  0
TABLE
  2
VIEW
 70
     2
  0
VIEW
  2
09
 70
     0
 40
2970.0
 10
19050.0
 20
1485.0
 41
2100.0
 11
0.0
 21
0.0
 31
1.0
 12
0.0
 22
0.0
 32
0.0
 42
50.0
 43
0.0
 44
0.0
 50
0.0
 71
     0
  0
VIEW
  2
COMM-04
 70
     1
 40
477.26027331217421
 10
194.21746115522001
 20
180.60494410563541
 41
755.81685306636155
 11
0.0
 21
0.0
 31
1.0
 12
0.0
 22
0.0
 32
0.0
 42
50.0
 43
0.0
 44
0.0
 50
0.0
 71
     0
  0
ENDTAB
  0
TABLE
  2
UCS
 70
     0
  0
ENDTAB
  0
TABLE
  2
APPID
 70
    15
  0
APPID
  2
ACAD
 70
     0
  0
APPID
  2
GENIUS_GENODEF_13
 70
     0
  0
APPID
  2
GENIUS_GENREC_14
 70
     0
  0
APPID
  2
GENIUS_GENOBJ-N-REC_13
 70
     0
  0
APPID
  2
ACAD_PSEXT
 70
     0
  0
APPID
  2
ACDBBLOCKREPETAG
 70
     0
  0
APPID
  2
ACAD_MLEADERVER
 70
     0
  0
APPID
  2
ACADANNOTATIVE
 70
     0
  0
APPID
  2
ACDBDYNAMICBLOCKGUID
 70
     0
  0
APPID
  2
ACAD_EXEMPT_FROM_CAD_STANDARDS
 70
     0
  0
APPID
  2
RAK
 70
     0
  0
APPID
  2
ACAD_DSTYLE_DIMJAG
 70
     0
  0
APPID
  2
ACAD_DSTYLE_DIMBREAK
 70
     0
  0
APPID
  2
ACAD_DSTYLE_DIMTALN
 70
     0
  0
APPID
  2
CONTENTBLOCKICON
 70
     0
  0
ENDTAB
  0
TABLE
  2
DIMSTYLE
 70
     2
  0
DIMSTYLE
  2
1_TO_2
 70
     0
  3

  4

  5
ARCHTICK
  6

  7

 40
2.0
 41
2.0
 42
2.0
 43
6.0
 44
2.0
 45
0.0
 46
2.0
 47
0.0
 48
0.0
140
2.0
141
2.0
142
0.0
143
0.0394
144
1.0
145
0.0
146
1.0
147
1.0
 71
     0
 72
     0
 73
     0
 74
     0
 75
     0
 76
     0
 77
     1
 78
     0
170
     0
171
     2
172
     0
173
     0
174
     0
175
     0
176
   256
177
   256
178
   256
  0
DIMSTYLE
  2
EURO_COMMON_JNT-HORI$0$1_T
 70
     0
  3

  4

  5
EURO_COMMON_JNT-HORI$0$_AR
  6

  7

 40
2.0
 41
2.0
 42
2.0
 43
6.0
 44
2.0
 45
0.0
 46
2.0
 47
0.0
 48
0.0
140
2.0
141
2.0
142
0.0
143
0.0394
144
1.0
145
0.0
146
1.0
147
1.0
 71
     0
 72
     0
 73
     0
 74
     0
 75
     0
 76
     0
 77
     1
 78
     0
170
     0
171
     2
172
     0
173
     0
174
     0
175
     0
176
   256
177
   256
178
   256
  0
ENDTAB
  0
ENDSEC
  0
SECTION
  2
BLOCKS
  0
BLOCK
  8
0
  2
$MODEL_SPACE
 70
     0
 10
0.0
 20
0.0
 30
0.0
  3
$MODEL_SPACE
  1

  0
ENDBLK
  5
17
  8
0
  0
BLOCK
 67
     1
  8
0
  2
$PAPER_SPACE
 70
     0
 10
0.0
 20
0.0
 30
0.0
  3
$PAPER_SPACE
  1

  0
ENDBLK
  5
20
 67
     1
  8
0
  0
BLOCK
  8
0
  2
_ARCHTICK
 70
     0
 10
0.0
 20
0.0
 30
0.0
  3
_ARCHTICK
  1

  0
POLYLINE
  5
8D
  8
0
  6
BYBLOCK
 62
     0
 66
     1
 10
0.0
 20
0.0
 30
0.0
 40
0.15
 41
0.15
  0
VERTEX
  5
98B
  8
0
  6
BYBLOCK
 62
     0
 10
-0.5
 20
-0.5
 30
0.0
  0
VERTEX
  5
98C
  8
0
  6
BYBLOCK
 62
     0
 10
0.5
 20
0.5
 30
0.0
  0
SEQEND
  5
98D
  8
0
  6
BYBLOCK
 62
     0
  0
ENDBLK
  5
8E
  8
0
  0
BLOCK
  8
0
  2
EURO_COMMON_JNT-HORI$0$_AR
 70
     0
 10
0.0
 20
0.0
 30
0.0
  3
EURO_COMMON_JNT-HORI$0$_AR
  1

  0
POLYLINE
  5
7D0
  8
0
  6
BYBLOCK
 62
     0
 66
     1
 10
0.0
 20
0.0
 30
0.0
 40
0.15
 41
0.15
  0
VERTEX
  5
9AF
  8
0
  6
BYBLOCK
 62
     0
 10
-0.5
 20
-0.5
 30
0.0
  0
VERTEX
  5
9B0
  8
0
  6
BYBLOCK
 62
     0
 10
0.5
 20
0.5
 30
0.0
  0
SEQEND
  5
9B1
  8
0
  6
BYBLOCK
 62
     0
  0
ENDBLK
  5
7D1
  8
0
  0
BLOCK
  8
0
  2
*D8
 70
     1
 10
0.0
 20
0.0
 30
0.0
  3
*D8
  1

  0
LINE
  5
8FC
  8
0
 10
316.9125633668819
 20
95.665306200008956
 30
0.0
 11
322.82921903126243
 21
108.35361521851701
 31
0.0
  0
LINE
  5
8FD
  8
0
 10
280.66025188543711
 20
112.5700366696644
 30
0.0
 11
286.57690754981758
 21
125.2583456881725
 31
0.0
  0
LINE
  5
8FE
  8
0
 10
324.76397713244171
 20
103.037911023406
 30
0.0
 11
281.26120335470659
 21
123.3235875869932
 31
0.0
  0
INSERT
  5
8FF
  8
0
  2
EURO_COMMON_JNT-HORI$0$_AR
 10
321.13874598429652
 20
104.7283840703719
 30
0.0
 41
4.0
 42
4.0
 43
4.0
 50
334.99999999995151
  0
INSERT
  5
900
  8
0
  2
EURO_COMMON_JNT-HORI$0$_AR
 10
284.88643450285178
 20
121.63311454002729
 30
0.0
 41
4.0
 42
4.0
 43
4.0
 50
154.9999999999514
  0
INSERT
  5
901
  8
0
  6
CONTINUOUS
  2
*U29
 10
0.0
 20
0.0
 30
0.0
  0
POINT
  5
902
  8
DEFPOINTS
 62
     0
 10
285.12698368896969
 20
27.500910608468981
 30
0.0
  0
POINT
  5
903
  8
DEFPOINTS
 62
     0
 10
244.70483869166131
 20
35.463404246002028
 30
0.0
  0
POINT
  5
904
  8
DEFPOINTS
 62
     0
 10
284.88643450285178
 20
121.63311454002729
 30
0.0
  0
ENDBLK
  5
877
  8
0
  0
BLOCK
  8
0
  2
*D9
 70
     1
 10
0.0
 20
0.0
 30
0.0
  3
*D9
  1

  0
LINE
  5
8F3
  8
0
 10
325.31044977976592
 20
113.674631730052
 30
0.0
 11
331.2271054441465
 21
126.36294074856001
 31
0.0
  0
LINE
  5
8F4
  8
0
 10
144.07910263207449
 20
198.18419680295449
 30
0.0
 11
149.99575829645511
 21
210.8725058214626
 31
0.0
  0
LINE
  5
8F5
  8
0
 10
333.16186354532567
 20
121.047236553449
 30
0.0
 11
144.6800541013441
 21
208.93774772028331
 31
0.0
  0
INSERT
  5
8F6
  8
0
  2
EURO_COMMON_JNT-HORI$0$_AR
 10
329.53663239718048
 20
122.7377096004149
 30
0.0
 41
4.0
 42
4.0
 43
4.0
 50
334.99999999995151
  0
INSERT
  5
8F7
  8
0
  2
EURO_COMMON_JNT-HORI$0$_AR
 10
148.3052852494892
 20
207.24727467331749
 30
0.0
 41
4.0
 42
4.0
 43
4.0
 50
154.9999999999514
  0
INSERT
  5
8F8
  8
0
  6
CONTINUOUS
  2
*U28
 10
0.0
 20
0.0
 30
0.0
  0
POINT
  5
8F9
  8
DEFPOINTS
 62
     0
 10
285.12698368896969
 20
27.500910608468981
 30
0.0
  0
POINT
  5
8FA
  8
DEFPOINTS
 62
     0
 10
103.89563654120499
 20
112.0104756812143
 30
0.0
  0
POINT
  5
8FB
  8
DEFPOINTS
 62
     0
 10
148.3052852494892
 20
207.24727467331749
 30
0.0
  0
ENDBLK
  5
883
  8
0
  0
BLOCK
  8
0
  2
*D10
 70
     1
 10
0.0
 20
0.0
 30
0.0
  3
*D10
  1

  0
LINE
  5
8E8
  8
0
 10
273.55166851385212
 20
2.914187266713796
 30
0.0
 11
267.63501284947148
 21
-9.7741217517942829
 31
0.0
  0
LINE
  5
8E9
  8
0
 10
278.11341770860292
 20
0.7870086826143991
 30
0.0
 11
272.1967620442224
 21
-11.90130033589368
 31
0.0
  0
LINE
  5
8EA
  8
0
 10
265.7002547482922
 20
-4.4584175566832442
 30
0.0
 11
277.51246623933338
 21
-9.9665422347143942
 31
0.0
  0
LINE
  5
8EB
  8
0
 10
271.60636049381282
 20
-7.2124798956988201
 30
0.0
 11
263.12435143019621
 21
-42.981180212891132
 31
0.0
  0
LINE
  5
8EC
  8
0
 10
263.12435143019621
 20
-42.981180212891132
 30
0.0
 11
303.67451539150892
 21
-61.890032207533928
 31
0.0
  0
INSERT
  5
8ED
  8
0
  6
CONTINUOUS
  2
*U27
 10
0.0
 20
0.0
 30
0.0
  0
INSERT
  5
8EE
  8
0
  2
EURO_COMMON_JNT-HORI$0$_AR
 10
269.32548589643739
 20
-6.1488906036491207
 30
0.0
 41
4.0
 42
4.0
 43
4.0
 50
154.9999999999514
  0
INSERT
  5
8EF
  8
0
  2
EURO_COMMON_JNT-HORI$0$_AR
 10
273.88723509118819
 20
-8.2760691877485186
 30
0.0
 41
4.0
 42
4.0
 43
4.0
 50
334.99999999995151
  0
POINT
  5
8F0
  8
DEFPOINTS
 62
     0
 10
282.72307125991932
 20
22.582323926391819
 30
0.0
  0
POINT
  5
8F1
  8
DEFPOINTS
 62
     0
 10
287.51318534709571
 20
20.944875434499401
 30
0.0
  0
POINT
  5
8F2
  8
DEFPOINTS
 62
     0
 10
273.88723509118819
 20
-8.2760691877485186
 30
0.0
  0
ENDBLK
  5
88F
  8
0
  0
BLOCK
  8
0
  2
*U11
 70
     1
 10
0.0
 20
0.0
 30
0.0
  3
*U11
  1

  0
TEXT
  5
9DD
  8
0
  6
CONTINUOUS
 10
12.580631998586069
 20
-97.970562808372236
 30
0.0
 40
4.0
  1
Single welt lap joint suitable for pitches
  7
EURO_COMMON_JNT-HORI$0$ARI
  0
TEXT
  5
9DE
  8
0
  6
CONTINUOUS
 10
12.64611630963654
 20
-104.70544229904981
 30
0.0
 40
4.0
  1
of 25° or more
  7
EURO_COMMON_JNT-HORI$0$ARI
  0
ENDBLK
  5
9E0
  8
0
  0
BLOCK
  8
0
  2
*U12
 70
     1
 10
0.0
 20
0.0
 30
0.0
  3
*U12
  1

  0
SOLID
  5
9E2
  8
0
 10
76.267982770816133
 20
106.6804463532692
 30
0.0
 11
73.471534568059724
 21
103.74372677289639
 31
0.0
 12
75.164373814870544
 22
107.4286609281971
 32
0.0
 13
75.164373814870544
 23
107.4286609281971
 33
0.0
  0
POLYLINE
  5
9E3
  8
0
 66
     1
 10
0.0
 20
0.0
 30
0.0
  0
VERTEX
  5
9E4
  8
0
 10
75.716178292843338
 20
107.0545536407332
 30
0.0
  0
VERTEX
  5
9E5
  8
0
 10
116.13331827298769
 20
166.6694277028873
 30
0.0
  0
VERTEX
  5
9E6
  8
0
 10
120.13331827298769
 20
166.6694277028873
 30
0.0
  0
SEQEND
  5
9E7
  8
0
  0
ENDBLK
  5
9E9
  8
0
  0
BLOCK
  8
0
  2
*U13
 70
     1
 10
0.0
 20
0.0
 30
0.0
  3
*U13
  1

  0
TEXT
  5
9EB
  8
0
  6
CONTINUOUS
 10
121.6940276863574
 20
165.25742224586139
 30
0.0
 40
4.0
  1
Roof underlay
  7
EURO_COMMON_JNT-HORI$0$ARI
  0
ENDBLK
  5
9ED
  8
0
  0
BLOCK
  8
0
  2
*U14
 70
     1
 10
0.0
 20
0.0
 30
0.0
  3
*U14
  1

  0
SOLID
  5
9EF
  8
0
 10
311.03537933567191
 20
38.933316091456327
 30
0.0
 11
312.49681702932509
 21
35.150639220242738
 31
0.0
 12
309.88756184736758
 22
38.254867278854583
 32
0.0
 13
309.88756184736758
 23
38.254867278854583
 33
0.0
  0
POLYLINE
  5
9F0
  8
0
 66
     1
 10
0.0
 20
0.0
 30
0.0
  0
VERTEX
  5
9F1
  8
0
 10
310.4614705915198
 20
38.594091685155462
 30
0.0
  0
VERTEX
  5
9F2
  8
0
 10
275.18487967163668
 20
98.275953062904605
 30
0.0
  0
VERTEX
  5
9F3
  8
0
 10
271.18487967163668
 20
98.275953062904605
 30
0.0
  0
SEQEND
  5
9F4
  8
0
  0
ENDBLK
  5
9F6
  8
0
  0
BLOCK
  8
0
  2
*U15
 70
     1
 10
0.0
 20
0.0
 30
0.0
  3
*U15
  1

  0
TEXT
  5
9F8
  8
0
  6
CONTINUOUS
 10
248.9147568885536
 20
96.308695218429833
 30
0.0
 40
4.0
  1
Euroline
  7
EURO_COMMON_JNT-HORI$0$ARI
  0
ENDBLK
  5
9FA
  8
0
  0
BLOCK
  8
0
  2
*U16
 70
     1
 10
0.0
 20
0.0
 30
0.0
  3
*U16
  1

  0
SOLID
  5
9FC
  8
0
 10
274.71162575371062
 20
77.552896315521721
 30
0.0
 11
273.82607588982501
 21
73.595593460922814
 31
0.0
 12
273.3803086190361
 22
77.626193414371173
 32
0.0
 13
273.3803086190361
 23
77.626193414371173
 33
0.0
  0
POLYLINE
  5
9FD
  8
0
 66
     1
 10
0.0
 20
0.0
 30
0.0
  0
VERTEX
  5
9FE
  8
0
 10
274.04596718637339
 20
77.589544864946447
 30
0.0
  0
VERTEX
  5
9FF
  8
0
 10
275.18487967163668
 20
98.275953062904605
 30
0.0
  0
SEQEND
  5
A00
  8
0
  0
ENDBLK
  5
A02
  8
0
  0
BLOCK
  8
0
  2
*U17
 70
     1
 10
0.0
 20
0.0
 30
0.0
  3
*U17
  1

  0
SOLID
  5
A04
  8
0
 10
244.8628110827872
 20
4.004127647187123
 30
0.0
 11
246.0409509737656
 21
7.8843893447701703
 31
0.0
 12
246.18495757340759
 22
3.831772098631081
 32
0.0
 13
246.18495757340759
 23
3.831772098631081
 33
0.0
  0
POLYLINE
  5
A05
  8
0
 66
     1
 10
0.0
 20
0.0
 30
0.0
  0
VERTEX
  5
A06
  8
0
 10
245.52388432809741
 20
3.9179498729091011
 30
0.0
  0
VERTEX
  5
A07
  8
0
 10
237.48662973399769
 20
-57.736160162057779
 30
0.0
  0
VERTEX
  5
A08
  8
0
 10
241.48662973399769
 20
-57.736160162057779
 30
0.0
  0
SEQEND
  5
A09
  8
0
  0
ENDBLK
  5
A0B
  8
0
  0
BLOCK
  8
0
  2
*U18
 70
     1
 10
0.0
 20
0.0
 30
0.0
  3
*U18
  1

  0
TEXT
  5
A0D
  8
0
  6
CONTINUOUS
 10
243.0555246862487
 20
-59.148165619083699
 30
0.0
 40
4.0
  1
Ply
  7
EURO_COMMON_JNT-HORI$0$ARI
  0
ENDBLK
  5
A0F
  8
0
  0
BLOCK
  8
0
  2
*U19
 70
     1
 10
0.0
 20
0.0
 30
0.0
  3
*U19
  1

  0
SOLID
  5
A11
  8
0
 10
110.6519004908845
 20
86.224648720828696
 30
0.0
 11
111.6358494864398
 21
90.158640182256931
 31
0.0
 12
111.98097604570211
 22
86.118178314779868
 32
0.0
 13
111.98097604570211
 23
86.118178314779868
 33
0.0
  0
POLYLINE
  5
A12
  8
0
 66
     1
 10
0.0
 20
0.0
 30
0.0
  0
VERTEX
  5
A13
  8
0
 10
111.3164382682933
 20
86.171413517804282
 30
0.0
  0
VERTEX
  5
A14
  8
0
 10
104.7467349672588
 20
4.1614693103620084
 30
0.0
  0
VERTEX
  5
A15
  8
0
 10
108.7467349672588
 20
4.1614693103620084
 30
0.0
  0
SEQEND
  5
A16
  8
0
  0
ENDBLK
  5
A18
  8
0
  0
BLOCK
  8
0
  2
*U20
 70
     1
 10
0.0
 20
0.0
 30
0.0
  3
*U20
  1

  0
TEXT
  5
A1A
  8
0
  6
CONTINUOUS
 10
110.61576634515779
 20
2.7167216978108479
 30
0.0
 40
4.0
  1
Trimseal lap tape
  7
EURO_COMMON_JNT-HORI$0$ARI
  0
ENDBLK
  5
A1C
  8
0
  0
BLOCK
  8
0
  2
*U21
 70
     1
 10
0.0
 20
0.0
 30
0.0
  3
*U21
  1

  0
SOLID
  5
A1E
  8
0
 10
173.22249575991839
 20
57.857489499006903
 30
0.0
 11
176.79630619947059
 21
59.773820208094548
 31
0.0
 12
174.03718736500369
 22
56.802001286670389
 32
0.0
 13
174.03718736500369
 23
56.802001286670389
 33
0.0
  0
POLYLINE
  5
A1F
  8
0
 66
     1
 10
0.0
 20
0.0
 30
0.0
  0
VERTEX
  5
A20
  8
0
 10
173.629841562461
 20
57.329745392838653
 30
0.0
  0
VERTEX
  5
A21
  8
0
 10
104.7467349672588
 20
4.1614693103620084
 30
0.0
  0
SEQEND
  5
A22
  8
0
  0
ENDBLK
  5
A24
  8
0
  0
BLOCK
  8
0
  2
*X22
 70
     1
 10
0.0
 20
0.0
 30
0.0
  3
*X22
  1

  0
LINE
  5
A26
  8
0
  6
CONTINUOUS
 62
     0
 10
128.9459616791631
 20
93.561923014432722
 30
0.0
 11
126.9467074127209
 21
99.054828967231074
 31
0.0
  0
LINE
  5
A27
  8
0
  6
CONTINUOUS
 62
     0
 10
126.6055758695087
 20
88.542949448965118
 30
0.0
 11
121.9277338472541
 21
101.3952147768854
 31
0.0
  0
LINE
  5
A28
  8
0
  6
CONTINUOUS
 62
     0
 10
123.9383813827552
 20
84.421875344308987
 30
0.0
 11
116.90876028178739
 21
103.7356005865397
 31
0.0
  0
LINE
  5
A29
  8
0
  6
CONTINUOUS
 62
     0
 10
118.9194078172884
 20
86.76226115396328
 30
0.0
 11
111.8897867163206
 21
106.075986396194
 31
0.0
  0
LINE
  5
A2A
  8
0
  6
CONTINUOUS
 62
     0
 10
113.90043425182159
 20
89.102646963617602
 30
0.0
 11
106.87081315085381
 21
108.4163722058483
 31
0.0
  0
LINE
  5
A2B
  8
0
  6
CONTINUOUS
 62
     0
 10
108.8814606863549
 20
91.443032773271923
 30
0.0
 11
103.4588811599552
 21
106.3414475772519
 31
0.0
  0
LINE
  5
A2C
  8
0
  6
CONTINUOUS
 62
     0
 10
103.8624871208881
 20
93.783418582926231
 30
0.0
 11
101.11849535030071
 21
101.32247401178429
 31
0.0
  0
LINE
  5
A2D
  8
0
  6
CONTINUOUS
 62
     0
 10
98.843513555421339
 20
96.123804392580553
 30
0.0
 11
98.778109540646284
 21
96.303500446316761
 31
0.0
  0
LINE
  5
A2E
  8
0
  6
CONTINUOUS
 62
     0
 10
120.95207980425771
 20
85.814410639922443
 30
0.0
 11
126.2288161391796
 21
87.734985599904945
 31
0.0
  0
LINE
  5
A2F
  8
0
  6
CONTINUOUS
 62
     0
 10
115.9331062387904
 20
88.154796449577034
 30
0.0
 11
128.56920194883369
 21
92.753959165371626
 31
0.0
  0
LINE
  5
A30
  8
0
  6
CONTINUOUS
 62
     0
 10
110.9141326733231
 20
90.495182259231598
 30
0.0
 11
130.227857915556
 21
97.524803360200167
 31
0.0
  0
LINE
  5
A31
  8
0
  6
CONTINUOUS
 62
     0
 10
105.8951591078557
 20
92.835568068886175
 30
0.0
 11
125.2088843500886
 21
99.865189169854744
 31
0.0
  0
LINE
  5
A32
  8
0
  6
CONTINUOUS
 62
     0
 10
100.8761855423884
 20
95.175953878540753
 30
0.0
 11
120.1899107846213
 21
102.20557497950929
 31
0.0
  0
LINE
  5
A33
  8
0
  6
CONTINUOUS
 62
     0
 10
100.0563527972996
 20
99.044701956305303
 30
0.0
 11
115.170937219154
 21
104.5459607891639
 31
0.0
  0
LINE
  5
A34
  8
0
  6
CONTINUOUS
 62
     0
 10
102.3967386069537
 20
104.0636755217719
 30
0.0
 11
110.15196365368659
 21
106.88634659881841
 31
0.0
  0
LINE
  5
A35
  8
0
  6
CONTINUOUS
 62
     0
 10
104.7371244166077
 20
109.08264908723859
 30
0.0
 11
105.1329900882193
 21
109.226732408473
 31
0.0
  0
ENDBLK
  5
A37
  8
0
  0
BLOCK
  8
0
  2
*U23
 70
     1
 10
0.0
 20
0.0
 30
0.0
  3
*U23
  1

  0
SOLID
  5
A3E
  8
0
 10
183.10670498526429
 20
36.786326397134111
 30
0.0
 11
184.6836912084909
 21
40.52230804807914
 31
0.0
 12
184.403617208448
 22
36.476816359922509
 32
0.0
 13
184.403617208448
 23
36.476816359922509
 33
0.0
  0
POLYLINE
  5
A3F
  8
0
 66
     1
 10
0.0
 20
0.0
 30
0.0
  0
VERTEX
  5
A40
  8
0
 10
183.75516109685611
 20
36.631571378528307
 30
0.0
  0
VERTEX
  5
A41
  8
0
 10
168.870147630525
 20
-25.739769081555998
 30
0.0
  0
VERTEX
  5
A42
  8
0
 10
172.870147630525
 20
-25.739769081555998
 30
0.0
  0
SEQEND
  5
A43
  8
0
  0
ENDBLK
  5
A45
  8
0
  0
BLOCK
  8
0
  2
*U24
 70
     1
 10
0.0
 20
0.0
 30
0.0
  3
*U24
  1

  0
TEXT
  5
A47
  8
0
  6
CONTINUOUS
 10
174.59183930856051
 20
-27.705662669550549
 30
0.0
 40
4.0
  1
Countersunk screw
  7
EURO_COMMON_JNT-HORI$0$ARI
  0
ENDBLK
  5
A49
  8
0
  0
BLOCK
  8
0
  2
*U25
 70
     1
 10
0.0
 20
0.0
 30
0.0
  3
*U25
  1

  0
SOLID
  5
A4B
  8
0
 10
64.016909339778792
 20
35.892553161883939
 30
0.0
 11
65.40386549240894
 21
39.703169526086171
 31
0.0
 12
65.327755520202771
 22
35.648708807744562
 32
0.0
 13
65.327755520202771
 23
35.648708807744562
 33
0.0
  0
POLYLINE
  5
A4C
  8
0
 66
     1
 10
0.0
 20
0.0
 30
0.0
  0
VERTEX
  5
A4D
  8
0
 10
64.672332429990774
 20
35.770630984814247
 30
0.0
  0
VERTEX
  5
A4E
  8
0
 10
49.031264494020427
 20
-48.31183315088856
 30
0.0
  0
VERTEX
  5
A4F
  8
0
 10
45.031264494020427
 20
-48.31183315088856
 30
0.0
  0
SEQEND
  5
A50
  8
0
  0
ENDBLK
  5
A52
  8
0
  0
BLOCK
  8
0
  2
*U26
 70
     1
 10
0.0
 20
0.0
 30
0.0
  3
*U26
  1

  0
TEXT
  5
A54
  8
0
  6
CONTINUOUS
 10
29.129490960596151
 20
-50.279090995363319
 30
0.0
 40
4.0
  1
Purlin
  7
EURO_COMMON_JNT-HORI$0$ARI
  0
ENDBLK
  5
A56
  8
0
  0
BLOCK
  8
0
  2
*U27
 70
     1
 10
0.0
 20
0.0
 30
0.0
  3
*U27
  1

  0
TEXT
  5
A6A
  8
0
  6
CONTINUOUS
 10
282.85247665736341
 20
-26.60868147981941
 30
0.0
 40
4.0
  1
5mm min
 50
334.99999999995151
  7
EURO_COMMON_JNT-HORI$0$ARI
  0
TEXT
  5
A6B
  8
0
  6
CONTINUOUS
 10
275.115241654643
 20
-30.356602338184182
 30
0.0
 40
4.0
  1
depending on
 50
334.99999999995151
  7
EURO_COMMON_JNT-HORI$0$ARI
  0
TEXT
  5
A6C
  8
0
  6
CONTINUOUS
 10
273.0013188148709
 20
-36.72671672233367
 30
0.0
 40
4.0
  1
material type
 50
334.99999999995151
  7
EURO_COMMON_JNT-HORI$0$ARI
  0
TEXT
  5
A6D
  8
0
  6
CONTINUOUS
 10
266.09620542289468
 20
-40.862662260305541
 30
0.0
 40
4.0
  1
and sheet length
 50
334.99999999995151
  7
EURO_COMMON_JNT-HORI$0$ARI
  0
ENDBLK
  5
A6F
  8
0
  0
BLOCK
  8
0
  2
*U28
 70
     1
 10
0.0
 20
0.0
 30
0.0
  3
*U28
  1

  0
TEXT
  5
A71
  8
0
  6
CONTINUOUS
 10
222.95606809911621
 20
175.87813697150079
 30
0.0
 40
4.0
  1
200mm min lap
 50
334.99999999995151
  7
EURO_COMMON_JNT-HORI$0$ARI
  0
ENDBLK
  5
A73
  8
0
  0
BLOCK
  8
0
  2
*U29
 70
     1
 10
0.0
 20
0.0
 30
0.0
  3
*U29
  1

  0
TEXT
  5
A75
  8
0
  6
CONTINUOUS
 10
301.16253569537292
 20
116.33449601361831
 30
0.0
 40
4.0
  1
40
 50
334.99999999995151
  7
EURO_COMMON_JNT-HORI$0$ARI
  0
ENDBLK
  5
A77
  8
0
  0
ENDSEC
  0
SECTION
  2
ENTITIES
  0
POLYLINE
  5
84F
  8
0
 66
     1
 10
0.0
 20
0.0
 30
0.0
  0
VERTEX
  5
9B2
  8
0
 10
350.08551432090462
 20
17.622741813109311
 30
0.0
  0
VERTEX
  5
9B3
  8
0
 10
104.9739572760584
 20
132.6685781676907
 30
0.0
  0
SEQEND
  5
9B4
  8
0
  0
POLYLINE
  5
850
  8
0
 66
     1
 10
0.0
 20
0.0
 30
0.0
  0
VERTEX
  5
9B5
  8
0
 10
324.42037158053432
 20
-36.943094092857791
 30
0.0
  0
VERTEX
  5
9B6
  8
0
 10
49.343016076087217
 20
91.327583363890881
 30
0.0
  0
SEQEND
  5
9B7
  8
0
  0
LINE
  5
851
  8
0
 10
58.408177790424809
 20
110.7678853958277
 30
0.0
 11
333.4855332948718
 21
-17.50279206092091
 31
0.0
  0
POLYLINE
  5
852
  8
0
 66
     1
 10
0.0
 20
0.0
 30
0.0
 70
   128
 40
0.6166666666666667
 41
0.6166666666666667
  0
VERTEX
  5
9B8
  8
0
 10
244.70483869166131
 20
35.463404246002028
 30
0.0
  0
VERTEX
  5
9B9
  8
0
 10
280.95715017312608
 20
18.558673776373318
 30
0.0
 42
1.0
  0
VERTEX
  5
9BA
  8
0
 10
285.12698368896969
 20
27.500910608468981
 30
0.0
 42
0.7931387226163754
  0
SEQEND
  5
9BB
  8
0
  0
POLYLINE
  5
853
  8
0
 66
     1
 10
0.0
 20
0.0
 30
0.0
 70
   128
 40
0.6166666666666667
 41
0.6166666666666667
  0
VERTEX
  5
9BC
  8
0
 10
282.72307125991938
 20
22.58232392639184
 30
0.0
  0
VERTEX
  5
9BD
  8
0
 10
228.09020431549291
 20
48.05804816953605
 30
0.0
 42
0.0729934230505125
  0
VERTEX
  5
9BE
  8
0
 10
227.57544365012291
 20
48.211997950471407
 30
0.0
  0
VERTEX
  5
9BF
  8
0
 10
222.10029467178899
 20
49.010809563354996
 30
0.0
 42
-0.0729934230505128
  0
VERTEX
  5
9C0
  8
0
 10
220.8991864525924
 20
49.37002571886115
 30
0.0
  0
VERTEX
  5
9C1
  8
0
 10
166.65896492359391
 20
74.662656397857063
 30
0.0
  0
SEQEND
  5
9C2
  8
0
  0
POLYLINE
  5
854
  8
0
 66
     1
 10
0.0
 20
0.0
 30
0.0
 70
   129
  0
VERTEX
  5
9C3
  8
0
 10
202.6260781300152
 20
47.72919974848628
 30
0.0
  0
VERTEX
  5
9C4
  8
0
 10
205.6134436578395
 20
54.135625796989181
 30
0.0
  0
VERTEX
  5
9C5
  8
0
 10
179.7836717272948
 20
66.180246256604732
 30
0.0
  0
VERTEX
  5
9C6
  8
0
 10
176.79630619947059
 20
59.773820208094548
 30
0.0
  0
SEQEND
  5
9C7
  8
0
  0
POLYLINE
  5
856
  8
0
 66
     1
 10
0.0
 20
0.0
 30
0.0
 70
   128
  0
VERTEX
  5
9C8
  8
0
 10
88.316932424342667
 20
174.90741669209089
 30
0.0
  0
VERTEX
  5
9C9
  8
0
 10
38.983358721921832
 20
69.111226473782153
 30
0.0
  0
VERTEX
  5
9CA
  8
0
 10
35.391055310490628
 20
69.425512298228568
 30
0.0
  0
VERTEX
  5
9CB
  8
0
 10
40.490745375431288
 20
64.325822233287909
 30
0.0
  0
VERTEX
  5
9CC
  8
0
 10
36.898441964000092
 20
64.640108057734324
 30
0.0
  0
VERTEX
  5
9CD
  8
0
 10
-20.61181184317596
 20
-58.691029232020632
 30
0.0
  0
SEQEND
  5
9CE
  8
0
  0
POLYLINE
  5
857
  8
0
 66
     1
 10
0.0
 20
0.0
 30
0.0
 70
   128
 40
0.6166666666666667
 41
0.6166666666666667
  0
VERTEX
  5
9CF
  8
0
 10
67.008459416847472
 20
129.21124886202591
 30
0.0
  0
VERTEX
  5
9D0
  8
0
 10
285.12698368896969
 20
27.500910608468981
 30
0.0
  0
SEQEND
  5
9D1
  8
0
  0
POLYLINE
  5
858
  8
0
 66
     1
 10
0.0
 20
0.0
 30
0.0
  0
VERTEX
  5
9D2
  8
0
 10
57.626334006203251
 20
109.0912159898143
 30
0.0
  0
VERTEX
  5
9D3
  8
0
 10
332.70368951065029
 20
-19.179461466934299
 30
0.0
  0
SEQEND
  5
9D4
  8
0
  0
LINE
  5
859
  8
0
 10
32.438285606456169
 20
55.075271882426328
 30
0.0
 11
307.51564111090318
 21
-73.19540557432228
 31
0.0
  0
LINE
  5
85A
  8
0
 10
265.32425131378841
 20
-163.6751329801518
 30
0.0
 11
-9.7531041906586502
 21
-35.404455523403158
 31
0.0
  0
POLYLINE
  5
85B
  8
0
 66
     1
 10
0.0
 20
0.0
 30
0.0
 70
   128
  0
VERTEX
  5
9D5
  8
0
 10
355.08973600696851
 20
28.827570167268281
 30
0.0
  0
VERTEX
  5
9D6
  8
0
 10
314.06071422636887
 20
-59.159450982966518
 30
0.0
  0
VERTEX
  5
9D7
  8
0
 10
310.46841081493773
 20
-58.845165158520103
 30
0.0
  0
VERTEX
  5
9D8
  8
0
 10
315.56810087987827
 20
-63.94485522346077
 30
0.0
  0
VERTEX
  5
9D9
  8
0
 10
311.97579746844713
 20
-63.630569399014348
 30
0.0
  0
VERTEX
  5
9DA
  8
0
 10
254.46554366127111
 20
-186.96170668876931
 30
0.0
  0
SEQEND
  5
9DB
  8
0
  0
DIMENSION
  5
85C
  8
0
  2
*D8
 10
284.88643450285178
 20
121.63311454002729
 30
0.0
 11
304.72093664130949
 21
116.84430997776241
 31
0.0
 70
     0
  1
40
 13
285.12698368896969
 23
27.500910608468981
 33
0.0
 14
244.70483869166131
 24
35.463404246002028
 34
0.0
 50
334.99999999995151
  0
INSERT
  5
85D
  8
0
  6
CONTINUOUS
  2
*U11
 10
0.0
 20
0.0
 30
0.0
  0
INSERT
  5
85E
  8
0
  6
CONTINUOUS
  2
*U12
 10
0.0
 20
0.0
 30
0.0
1001
ACAD
1000
DSTYLE
1002
{
1070
   147
1040
1.0
1070
    77
1070
     0
1002
}
  0
INSERT
  5
85F
  8
0
  6
CONTINUOUS
  2
*U13
 10
0.0
 20
0.0
 30
0.0
  0
INSERT
  5
860
  8
0
  6
CONTINUOUS
  2
*U14
 10
0.0
 20
0.0
 30
0.0
1001
ACAD
1000
DSTYLE
1002
{
1070
   147
1040
1.0
1070
    77
1070
     0
1002
}
  0
INSERT
  5
861
  8
0
  6
CONTINUOUS
  2
*U15
 10
0.0
 20
0.0
 30
0.0
  0
INSERT
  5
862
  8
0
  6
CONTINUOUS
  2
*U16
 10
0.0
 20
0.0
 30
0.0
1001
ACAD
1000
DSTYLE
1002
{
1070
   147
1040
1.0
1070
    77
1070
     0
1002
}
  0
INSERT
  5
863
  8
0
  6
CONTINUOUS
  2
*U17
 10
0.0
 20
0.0
 30
0.0
1001
ACAD
1000
DSTYLE
1002
{
1070
   147
1040
1.0
1070
    77
1070
     0
1002
}
  0
INSERT
  5
864
  8
0
  6
CONTINUOUS
  2
*U18
 10
0.0
 20
0.0
 30
0.0
  0
INSERT
  5
865
  8
0
  6
CONTINUOUS
  2
*U19
 10
0.0
 20
0.0
 30
0.0
1001
ACAD
1000
DSTYLE
1002
{
1070
   147
1040
1.0
1070
    77
1070
     0
1002
}
  0
INSERT
  5
866
  8
0
  6
CONTINUOUS
  2
*U20
 10
0.0
 20
0.0
 30
0.0
  0
INSERT
  5
867
  8
0
  6
CONTINUOUS
  2
*U21
 10
0.0
 20
0.0
 30
0.0
1001
ACAD
1000
DSTYLE
1002
{
1070
   147
1040
1.0
1070
    77
1070
     0
1002
}
  0
DIMENSION
  5
868
  8
0
  2
*D9
 10
148.3052852494892
 20
207.24727467331749
 30
0.0
 11
240.84955102732559
 21
169.12837146515591
 31
0.0
 70
     0
  1
200mm min lap
 13
285.12698368896969
 23
27.500910608468981
 33
0.0
 14
103.89563654120499
 24
112.0104756812143
 34
0.0
 50
334.99999999995151
  0
DIMENSION
  5
869
  8
0
  2
*D10
 10
273.88723509118819
 20
-8.2760691877485186
 30
0.0
 11
264.93696700426881
 21
-43.826416736374071
 31
0.0
 70
   128
  1
5mm min\Pdepending on\Pmaterial type\Pand sheet length
 13
282.72307125991938
 23
22.58232392639184
 33
0.0
 14
287.51318534709571
 24
20.944875434499409
 34
0.0
 50
334.99999999995151
  0
INSERT
  5
86B
  8
0
  6
CONTINUOUS
  2
*X22
 10
0.0
 20
0.0
 30
0.0
1001
ACAD
1000
HATCH
1002
{
1070
    19
1000
ANSI37
1040
1.2333333333333329
1040
-0.436332312998583
1000
ASC_BOUNDS
1070
     1
1070
     2
1070
     1
1005
86C
1000
ASC_SEEDPOINT
1011
126.5775289076882
1021
0.0
1031
0.0
1021
81.021244068469954
1031
0.0
1000
R14_HATCH_DATA
1000
86B
1011
1.0
1021
0.0
1031
0.0
1021
0.0
1031
0.0
1011
0.0
1021
0.0
1031
0.0
1021
1.0
1031
0.0
1011
0.0
1021
0.0
1031
0.0
1021
0.0
1031
1.0
1040
0.0
1010
0.0
1020
0.0
1030
1.0
1000
ANSI37
1070
     0
1070
     1
1071
        1
1071
        1
1071
        4
1070
     1
1040
124.5507354517103
1040
84.136329952452783
1040
130.69278752234089
1040
97.308003124053343
1070
     1
1040
130.69278752234089
1040
97.308003124053343
1040
104.8630155917963
1040
109.3526235836616
1070
     1
1040
104.8630155917963
1040
109.3526235836616
1040
98.720963521165686
1040
96.180950412061065
1070
     1
1040
98.720963521165686
1040
96.180950412061065
1040
124.5507354517103
1040
84.136329952452783
1071
        1
1005
86C
1070
     0
1070
     1
1040
-0.436332312998583
1040
1.2333333333333329
1070
     0
1070
     2
1040
0.3490658503988652
1040
15.7678973164584
1040
26.69478512847127
1040
-1.339293877906095
1040
3.67967968756082
1070
     0
1040
1.919862177193761
1040
15.7678973164584
1040
26.69478512847127
1040
-3.67967968756082
1040
-1.339293877906095
1070
     0
1071
        1
1040
126.5775289076882
1040
81.021244068469954
1040
0.0
1002
}
  0
POLYLINE
  5
86C
  8
0
 66
     1
 10
0.0
 20
0.0
 30
0.0
 70
   129
1001
ACAD
1000
ASC_BOUNDS
1002
{
1070
    19
1005
86B
1002
}
  0
VERTEX
  5
A38
  8
0
 10
124.5507354517103
 20
84.136329952452783
 30
0.0
  0
VERTEX
  5
A39
  8
0
 10
130.69278752234089
 20
97.308003124053343
 30
0.0
  0
VERTEX
  5
A3A
  8
0
 10
104.8630155917963
 20
109.3526235836616
 30
0.0
  0
VERTEX
  5
A3B
  8
0
 10
98.720963521165686
 20
96.180950412061065
 30
0.0
  0
SEQEND
  5
A3C
  8
0
  0
INSERT
  5
86D
  8
0
  6
CONTINUOUS
  2
*U23
 10
0.0
 20
0.0
 30
0.0
1001
ACAD
1000
DSTYLE
1002
{
1070
   147
1040
1.0
1070
    77
1070
     0
1002
}
  0
INSERT
  5
86E
  8
0
  6
CONTINUOUS
  2
*U24
 10
0.0
 20
0.0
 30
0.0
  0
INSERT
  5
871
  8
0
  6
CONTINUOUS
  2
*U25
 10
0.0
 20
0.0
 30
0.0
1001
ACAD
1000
DSTYLE
1002
{
1070
   147
1040
1.0
1070
    77
1070
     0
1002
}
  0
INSERT
  5
872
  8
0
  6
CONTINUOUS
  2
*U26
 10
0.0
 20
0.0
 30
0.0
  0
POLYLINE
  5
873
  8
0
 66
     1
 10
0.0
 20
0.0
 30
0.0
 40
0.6166666666666667
 41
0.6166666666666667
  0
VERTEX
  5
A57
  8
0
 10
104.9739572760584
 20
132.6685781676907
 30
0.0
  0
VERTEX
  5
A58
  8
0
 10
89.050412362671366
 20
98.520425901887364
 30
0.0
  0
VERTEX
  5
A59
  8
0
 10
334.4486386364988
 20
-15.91064630724577
 30
0.0
  0
SEQEND
  5
A5A
  8
0
  0
POLYLINE
  5
874
  8
0
 66
     1
 10
0.0
 20
0.0
 30
0.0
 70
   128
  0
VERTEX
  5
A5B
  8
0
 10
285.12698368896969
 20
27.500910608468981
 30
0.0
  0
VERTEX
  5
A5C
  8
0
 10
300.76385937337551
 20
61.034298728824069
 30
0.0
  0
VERTEX
  5
A5D
  8
0
 10
82.645335101253295
 20
162.744636982381
 30
0.0
  0
SEQEND
  5
A5E
  8
0
  0
POLYLINE
  5
8B8
  8
0
 66
     1
 10
0.0
 20
0.0
 30
0.0
 70
     1
1001
ACDBBLOCKREPETAG
1070
     1
1071
        0
1005
8B8
  0
VERTEX
  5
A5F
  8
0
 10
41.714317325805673
 20
50.749787254404978
 30
0.0
  0
VERTEX
  5
A60
  8
0
 10
109.6905317581006
 20
19.051957892239489
 30
0.0
  0
VERTEX
  5
A61
  8
0
 10
126.5952622277286
 20
55.30426937370548
 30
0.0
  0
VERTEX
  5
A62
  8
0
 10
58.619047795433723
 20
87.002098735871016
 30
0.0
  0
SEQEND
  5
A63
  8
0
  0
POLYLINE
  5
8B9
  8
0
 66
     1
 10
0.0
 20
0.0
 30
0.0
 70
     1
 40
0.25
 41
0.25
1001
ACDBBLOCKREPETAG
1070
     1
1071
        0
1005
8B8
  0
VERTEX
  5
A64
  8
0
 10
41.880433081902851
 20
50.810248445066961
 30
0.0
  0
VERTEX
  5
A65
  8
0
 10
109.63007056743859
 20
19.21807364833667
 30
0.0
  0
VERTEX
  5
A66
  8
0
 10
126.4291464716314
 20
55.24380818304347
 30
0.0
  0
VERTEX
  5
A67
  8
0
 10
58.679508986095719
 20
86.835982979773831
 30
0.0
  0
SEQEND
  5
A68
  8
0
  0
LINE
  5
8BA
  8
0
 10
58.619047795433723
 20
87.002098735871016
 30
0.0
 11
109.6905317581006
 21
19.051957892239489
 31
0.0
1001
ACDBBLOCKREPETAG
1070
     1
1071
        1
1005
8BA
  0
LINE
  5
8BB
  8
0
 10
126.5952622277286
 20
55.30426937370548
 30
0.0
 11
41.714317325805673
 21
50.749787254404978
 31
0.0
1001
ACDBBLOCKREPETAG
1070
     1
1071
        2
1005
8BB
  0
LINE
  5
8BC
  8
0
 10
193.21150379713589
 20
58.313031648966501
 30
0.0
 11
184.68369120849019
 21
40.522308048076177
 31
0.0
1001
ACDBBLOCKREPETAG
1070
     1
1071
        0
1005
8BC
  0
LINE
  5
8BD
  8
0
 10
191.30700427299411
 20
59.201114362026367
 30
0.0
 11
183.16009158917669
 21
41.232774218523907
 31
0.0
1001
ACDBBLOCKREPETAG
1070
     1
1071
        1
1005
8BD
  0
LINE
  5
8BE
  8
0
 10
183.38904177099749
 20
39.734841418814881
 30
0.0
 11
183.16009158917669
 21
41.232774218523907
 31
0.0
1001
ACDBBLOCKREPETAG
1070
     1
1071
        2
1005
8BE
  0
LINE
  5
8BF
  8
0
 10
183.38904177099749
 20
39.734841418814881
 30
0.0
 11
184.68369120849019
 21
40.522308048076177
 31
0.0
1001
ACDBBLOCKREPETAG
1070
     1
1071
        3
1005
8BF
  0
LINE
  5
8C0
  8
0
 10
191.30700427299411
 20
59.201114362026367
 30
0.0
 11
193.21150379713589
 21
58.313031648966501
 31
0.0
1001
ACDBBLOCKREPETAG
1070
     1
1071
        4
1005
8C0
  0
LINE
  5
8C1
  8
0
 10
186.87883786281699
 20
49.434617118459073
 30
0.0
 11
188.70668922566509
 21
48.915086973094688
 31
0.0
1001
ACDBBLOCKREPETAG
1070
     1
1071
        5
1005
8C1
  0
LINE
  5
8C2
  8
0
 10
186.6002845066804
 20
48.82025660603162
 30
0.0
 11
188.41411205627679
 21
48.30471244874321
 31
0.0
1001
ACDBBLOCKREPETAG
1070
     1
1071
        6
1005
8C2
  0
LINE
  5
8C3
  8
0
 10
183.20300531741049
 20
41.327422153962509
 30
0.0
 11
184.4443792749197
 21
40.974586466277742
 31
0.0
1001
ACDBBLOCKREPETAG
1070
     1
1071
        7
1005
8C3
  0
LINE
  5
8C4
  8
0
 10
183.38904177099749
 20
39.734841418814881
 30
0.0
 11
185.48834036237409
 21
42.200967205233198
 31
0.0
1001
ACDBBLOCKREPETAG
1070
     1
1071
        8
1005
8C4
  0
LINE
  5
8C5
  8
0
 10
186.32173115054829
 20
48.20589609360291
 30
0.0
 11
188.12153488688551
 21
47.694337924392649
 31
0.0
1001
ACDBBLOCKREPETAG
1070
     1
1071
        9
1005
8C5
  0
LINE
  5
8C6
  8
0
 10
186.043177794413
 20
47.591535581174632
 30
0.0
 11
187.8289577174956
 21
47.083963400041277
 31
0.0
1001
ACDBBLOCKREPETAG
1070
     1
1071
       10
1005
8C6
  0
LINE
  5
8C7
  8
0
 10
185.76462443827941
 20
46.977175068746398
 30
0.0
 11
187.53638054810449
 21
46.473588875690908
 31
0.0
1001
ACDBBLOCKREPETAG
1070
     1
1071
       11
1005
8C7
  0
LINE
  5
8C8
  8
0
 10
185.48607108214549
 20
46.362814556317304
 30
0.0
 11
187.243803378716
 21
45.863214351339067
 31
0.0
1001
ACDBBLOCKREPETAG
1070
     1
1071
       12
1005
8C8
  0
LINE
  5
8C9
  8
0
 10
185.2075177260092
 20
45.74845404389054
 30
0.0
 11
186.9512262093248
 21
45.25283982698852
 31
0.0
1001
ACDBBLOCKREPETAG
1070
     1
1071
       13
1005
8C9
  0
LINE
  5
8CA
  8
0
 10
184.9289643698755
 20
45.134093531461957
 30
0.0
 11
186.65864903993651
 21
44.642465302637028
 31
0.0
1001
ACDBBLOCKREPETAG
1070
     1
1071
       14
1005
8CA
  0
LINE
  5
8CB
  8
0
 10
184.6504110137403
 20
44.51973301903385
 30
0.0
 11
186.36607187054659
 21
44.032090778285827
 31
0.0
1001
ACDBBLOCKREPETAG
1070
     1
1071
       15
1005
8CB
  0
LINE
  5
8CC
  8
0
 10
184.37185765760651
 20
43.905372506605097
 30
0.0
 11
186.0734947011552
 21
43.421716253934939
 31
0.0
1001
ACDBBLOCKREPETAG
1070
     1
1071
       16
1005
8CC
  0
LINE
  5
8CD
  8
0
 10
184.09330430147139
 20
43.291011994177168
 30
0.0
 11
185.78091753176551
 21
42.8113417295841
 31
0.0
1001
ACDBBLOCKREPETAG
1070
     1
1071
       17
1005
8CD
  0
LINE
  5
8CE
  8
0
 10
183.81475094533761
 20
42.676651481748593
 30
0.0
 11
185.48834036237409
 21
42.200967205233198
 31
0.0
1001
ACDBBLOCKREPETAG
1070
     1
1071
       18
1005
8CE
  0
LINE
  5
8CF
  8
0
 10
183.5361975892026
 20
42.062290969320841
 30
0.0
 11
185.01298124036671
 21
41.642544790525577
 31
0.0
1001
ACDBBLOCKREPETAG
1070
     1
1071
       19
1005
8CF
  0
LINE
  5
8D0
  8
0
 10
191.30700427299411
 20
59.201114362026367
 30
0.0
 11
192.1628039604835
 21
61.036382714417151
 31
0.0
1001
ACDBBLOCKREPETAG
1070
     1
1071
       20
1005
8D0
  0
LINE
  5
8D1
  8
0
 10
193.21150379713589
 20
58.313031648966501
 30
0.0
 11
194.06730348462531
 21
60.148300001357271
 31
0.0
1001
ACDBBLOCKREPETAG
1070
     1
1071
       21
1005
8D1
  0
LINE
  5
8D2
  8
0
 10
192.16280396048339
 20
61.03638271441698
 30
0.0
 11
191.7557714506745
 21
62.959823319041149
 31
0.0
1001
ACDBBLOCKREPETAG
1070
     1
1071
       22
1005
8D2
  0
LINE
  5
8D3
  8
0
 10
191.7557714506745
 20
62.959823319041149
 30
0.0
 11
191.88898385763341
 21
63.245498247662418
 31
0.0
1001
ACDBBLOCKREPETAG
1070
     1
1071
       23
1005
8D3
  0
LINE
  5
8D4
  8
0
 10
191.88898385763341
 20
63.245498247662418
 30
0.0
 11
195.9355923324708
 21
61.35853372629105
 31
0.0
1001
ACDBBLOCKREPETAG
1070
     1
1071
       24
1005
8D4
  0
LINE
  5
8D5
  8
0
 10
191.7557714506745
 20
62.959823319041149
 30
0.0
 11
195.80237992551179
 21
61.072858797669781
 31
0.0
1001
ACDBBLOCKREPETAG
1070
     1
1071
       25
1005
8D5
  0
LINE
  5
8D6
  8
0
 10
194.0673034846252
 20
60.1483000013571
 30
0.0
 11
195.8023799255117
 21
61.07285879766961
 31
0.0
1001
ACDBBLOCKREPETAG
1070
     1
1071
       26
1005
8D6
  0
LINE
  5
8D7
  8
0
 10
195.8023799255117
 20
61.07285879766961
 30
0.0
 11
195.93559233247069
 21
61.358533726290879
 31
0.0
1001
ACDBBLOCKREPETAG
1070
     1
1071
       27
1005
8D7
  0
LINE
  5
8D8
  8
0
 10
194.0673034846252
 20
60.1483000013571
 30
0.0
 11
192.16280396048339
 21
61.03638271441698
 31
0.0
1001
ACDBBLOCKREPETAG
1070
     1
1071
       28
1005
8D8
  0
LINE
  5
8D9
  8
0
 10
189.66437142416251
 20
55.5782222427408
 30
0.0
 11
191.63246091956589
 21
55.018832216604288
 31
0.0
1001
ACDBBLOCKREPETAG
1070
     1
1071
       29
1005
8D9
  0
LINE
  5
8DA
  8
0
 10
189.38581806802759
 20
54.963861730313212
 30
0.0
 11
191.33988375017631
 21
54.40845769225362
 31
0.0
1001
ACDBBLOCKREPETAG
1070
     1
1071
       30
1005
8DA
  0
LINE
  5
8DB
  8
0
 10
189.10726471189261
 20
54.349501217885631
 30
0.0
 11
191.0473065807864
 21
53.798083167902433
 31
0.0
1001
ACDBBLOCKREPETAG
1070
     1
1071
       31
1005
8DB
  0
LINE
  5
8DC
  8
0
 10
188.82893827110601
 20
53.735076209313497
 30
0.0
 11
190.75472941139509
 21
53.187708643551709
 31
0.0
1001
ACDBBLOCKREPETAG
1070
     1
1071
       32
1005
8DC
  0
LINE
  5
8DD
  8
0
 10
188.55015799962359
 20
53.120780193028772
 30
0.0
 11
190.4621522420054
 21
52.577334119200692
 31
0.0
1001
ACDBBLOCKREPETAG
1070
     1
1071
       33
1005
8DD
  0
LINE
  5
8DE
  8
0
 10
188.2716046434883
 20
52.506419680600317
 30
0.0
 11
190.16957507261569
 21
51.966959594849833
 31
0.0
1001
ACDBBLOCKREPETAG
1070
     1
1071
       34
1005
8DE
  0
LINE
  5
8DF
  8
0
 10
187.9930512873533
 20
51.892059168172899
 30
0.0
 11
189.87699790322571
 21
51.356585070498468
 31
0.0
1001
ACDBBLOCKREPETAG
1070
     1
1071
       35
1005
8DF
  0
LINE
  5
8E0
  8
0
 10
187.71449793122119
 20
51.277698655744032
 30
0.0
 11
189.584420733836
 21
50.746210546147623
 31
0.0
1001
ACDBBLOCKREPETAG
1070
     1
1071
       36
1005
8E0
  0
LINE
  5
8E1
  8
0
 10
187.43594457508601
 20
50.663338143315919
 30
0.0
 11
189.29184356444611
 21
50.135836021796258
 31
0.0
1001
ACDBBLOCKREPETAG
1070
     1
1071
       37
1005
8E1
  0
LINE
  5
8E2
  8
0
 10
187.15739121895081
 20
50.048977630887819
 30
0.0
 11
188.9992663950548
 21
49.525461497445541
 31
0.0
1001
ACDBBLOCKREPETAG
1070
     1
1071
       38
1005
8E2
  0
LINE
  5
8E3
  8
0
 10
191.0571382048341
 20
58.65002480488274
 30
0.0
 11
193.09534676651671
 21
58.070704838359958
 31
0.0
1001
ACDBBLOCKREPETAG
1070
     1
1071
       39
1005
8E3
  0
LINE
  5
8E4
  8
0
 10
190.7785848487004
 20
58.035664292454328
 30
0.0
 11
192.80276959712691
 21
57.460330314008942
 31
0.0
1001
ACDBBLOCKREPETAG
1070
     1
1071
       40
1005
8E4
  0
LINE
  5
8E5
  8
0
 10
190.50003149256671
 20
57.42130378002576
 30
0.0
 11
192.510192427737
 21
56.849955789657571
 31
0.0
1001
ACDBBLOCKREPETAG
1070
     1
1071
       41
1005
8E5
  0
LINE
  5
8E6
  8
0
 10
190.2214781364317
 20
56.806943267598001
 30
0.0
 11
192.2176152583456
 21
56.239581265306683
 31
0.0
1001
ACDBBLOCKREPETAG
1070
     1
1071
       42
1005
8E6
  0
LINE
  5
8E7
  8
0
 10
189.94292478029649
 20
56.192582755169887
 30
0.0
 11
191.92503808895751
 21
55.629206740955539
 31
0.0
1001
ACDBBLOCKREPETAG
1070
     1
1071
       43
1005
8E7
  0
LINE
  5
905
  8
0
 10
178.13169547560099
 20
62.63757175233021
 30
0.0
 11
183.32634623156841
 21
64.528270004910752
 31
0.0
1001
ACAD
1010
0.0
1020
0.0
1030
0.0
  0
LINE
  5
906
  8
0
 10
178.9515282207021
 20
58.768823674570157
 30
0.0
 11
188.34531979703399
 21
62.18788419525557
 31
0.0
1001
ACAD
1010
0.0
1020
0.0
1030
0.0
  0
LINE
  5
907
  8
0
 10
183.97050178616939
 20
56.42843786491558
 30
0.0
 11
193.36429336249961
 21
59.847498385600382
 31
0.0
1001
ACAD
1010
0.0
1020
0.0
1030
0.0
  0
LINE
  5
908
  8
0
 10
188.98947535163671
 20
54.088052055261002
 30
0.0
 11
198.38326692796531
 21
57.507112575945172
 31
0.0
1001
ACAD
1010
0.0
1020
0.0
1030
0.0
  0
LINE
  5
909
  8
0
 10
194.008448917104
 20
51.747666245606432
 30
0.0
 11
203.4022404934309
 21
55.166726766289983
 31
0.0
1001
ACAD
1010
0.0
1020
0.0
1030
0.0
  0
LINE
  5
90A
  8
0
 10
199.0274224825713
 20
49.407280435951847
 30
0.0
 11
204.3041588174834
 21
51.327855395930769
 31
0.0
1001
ACAD
1010
0.0
1020
0.0
1030
0.0
  0
LINE
  5
90B
  8
0
 10
176.91885623372301
 20
59.716674188615492
 30
0.0
 11
176.8534522189496
 21
59.896370242347018
 31
0.0
1001
ACAD
1010
0.0
1020
0.0
1030
0.0
  0
LINE
  5
90C
  8
0
 10
181.93782979918981
 20
57.376288378961171
 30
0.0
 11
179.19383802860449
 21
64.915343807813628
 31
0.0
1001
ACAD
1010
0.0
1020
0.0
1030
0.0
  0
LINE
  5
90D
  8
0
 10
186.95680336465651
 20
55.035902569306892
 30
0.0
 11
183.5377428439709
 21
64.429694145639431
 31
0.0
1001
ACAD
1010
0.0
1020
0.0
1030
0.0
  0
LINE
  5
90E
  8
0
 10
191.97577693012329
 20
52.695516759652563
 30
0.0
 11
188.55671640943831
 21
62.089308335983411
 31
0.0
1001
ACAD
1010
0.0
1020
0.0
1030
0.0
  0
LINE
  5
90F
  8
0
 10
196.9947504955901
 20
50.355130949998248
 30
0.0
 11
193.57568997490571
 21
59.748922526327391
 31
0.0
1001
ACAD
1010
0.0
1020
0.0
1030
0.0
  0
LINE
  5
910
  8
0
 10
202.01372406105691
 20
48.014745140343933
 30
0.0
 11
198.59466354037309
 21
57.40853671667135
 31
0.0
1001
ACAD
1010
0.0
1020
0.0
1030
0.0
  0
LINE
  5
911
  8
0
 10
204.68091854781341
 20
52.135819244991723
 30
0.0
 11
203.6136371058405
 21
55.068150907015337
 31
0.0
1001
ACAD
1010
0.0
1020
0.0
1030
0.0
  0
LINE
  5
912
  8
0
 10
55.608746499636013
 20
104.76448561924521
 30
0.0
 11
61.953064376772844
 21
107.0736284832459
 31
0.0
1001
ACAD
1010
0.0
1020
0.0
1030
0.0
  0
LINE
  5
913
  8
0
 10
51.813526267765752
 20
96.625609567137516
 30
0.0
 11
70.091940428881344
 21
103.27840825137341
 31
0.0
1001
ACAD
1010
0.0
1020
0.0
1030
0.0
  0
LINE
  5
914
  8
0
 10
52.183865924948591
 20
90.002873323698381
 30
0.0
 11
78.230816480989859
 21
99.483188019500901
 31
0.0
1001
ACAD
1010
0.0
1020
0.0
1030
0.0
  0
LINE
  5
915
  8
0
 10
60.322741977057099
 20
86.207653091825847
 30
0.0
 11
86.369692533098373
 21
95.687967787628367
 31
0.0
1001
ACAD
1010
0.0
1020
0.0
1030
0.0
  0
LINE
  5
916
  8
0
 10
68.461618029165621
 20
82.412432859953341
 30
0.0
 11
94.508568585206916
 21
91.892747555755875
 31
0.0
1001
ACAD
1010
0.0
1020
0.0
1030
0.0
  0
LINE
  5
917
  8
0
 10
76.600494081274135
 20
78.617212628080821
 30
0.0
 11
102.6474446373154
 21
88.097527323883341
 31
0.0
1001
ACAD
1010
0.0
1020
0.0
1030
0.0
  0
LINE
  5
918
  8
0
 10
84.739370133382636
 20
74.821992396208273
 30
0.0
 11
110.7863206894239
 21
84.302307092010793
 31
0.0
1001
ACAD
1010
0.0
1020
0.0
1030
0.0
  0
LINE
  5
919
  8
0
 10
92.878246185491179
 20
71.026772164335753
 30
0.0
 11
118.9251967415325
 21
80.507086860138287
 31
0.0
1001
ACAD
1010
0.0
1020
0.0
1030
0.0
  0
LINE
  5
91A
  8
0
 10
101.01712223759969
 20
67.231551932463233
 30
0.0
 11
127.064072793641
 21
76.711866628265767
 31
0.0
1001
ACAD
1010
0.0
1020
0.0
1030
0.0
  0
LINE
  5
91B
  8
0
 10
109.15599828970819
 20
63.436331700590721
 30
0.0
 11
135.20294884574949
 21
72.916646396393233
 31
0.0
1001
ACAD
1010
0.0
1020
0.0
1030
0.0
  0
LINE
  5
91C
  8
0
 10
117.29487434181669
 20
59.641111468718186
 30
0.0
 11
143.34182489785809
 21
69.121426164520713
 31
0.0
1001
ACAD
1010
0.0
1020
0.0
1030
0.0
  0
LINE
  5
91D
  8
0
 10
125.43375039392529
 20
55.845891236845659
 30
0.0
 11
151.4807009499666
 21
65.326205932648193
 31
0.0
1001
ACAD
1010
0.0
1020
0.0
1030
0.0
  0
LINE
  5
91E
  8
0
 10
133.57262644603381
 20
52.050671004973147
 30
0.0
 11
159.61957700207509
 21
61.530985700775673
 31
0.0
1001
ACAD
1010
0.0
1020
0.0
1030
0.0
  0
LINE
  5
91F
  8
0
 10
141.71150249814229
 20
48.255450773100627
 30
0.0
 11
167.7584530541836
 21
57.735765468903139
 31
0.0
1001
ACAD
1010
0.0
1020
0.0
1030
0.0
  0
LINE
  5
920
  8
0
 10
149.85037855025081
 20
44.4602305412281
 30
0.0
 11
175.89732910629209
 21
53.940545237030619
 31
0.0
1001
ACAD
1010
0.0
1020
0.0
1030
0.0
  0
LINE
  5
921
  8
0
 10
157.9892546023593
 20
40.665010309355573
 30
0.0
 11
184.03620515840061
 21
50.145325005158099
 31
0.0
1001
ACAD
1010
0.0
1020
0.0
1030
0.0
  0
LINE
  5
922
  8
0
 10
166.1281306544679
 20
36.869790077483053
 30
0.0
 11
192.17508121050921
 21
46.35010477328558
 31
0.0
1001
ACAD
1010
0.0
1020
0.0
1030
0.0
  0
LINE
  5
923
  8
0
 10
174.26700670657641
 20
33.074569845610533
 30
0.0
 11
200.31395726261781
 21
42.55488454141306
 31
0.0
1001
ACAD
1010
0.0
1020
0.0
1030
0.0
  0
LINE
  5
924
  8
0
 10
182.4058827586849
 20
29.27934961373801
 30
0.0
 11
208.45283331472629
 21
38.759664309540533
 31
0.0
1001
ACAD
1010
0.0
1020
0.0
1030
0.0
  0
LINE
  5
925
  8
0
 10
190.54475881079341
 20
25.484129381865479
 30
0.0
 11
216.59170936683481
 21
34.964444077667999
 31
0.0
1001
ACAD
1010
0.0
1020
0.0
1030
0.0
  0
LINE
  5
926
  8
0
 10
198.68363486290201
 20
21.688909149992959
 30
0.0
 11
224.73058541894329
 21
31.169223845795479
 31
0.0
1001
ACAD
1010
0.0
1020
0.0
1030
0.0
  0
LINE
  5
927
  8
0
 10
206.8225109150105
 20
17.893688918120429
 30
0.0
 11
232.86946147105181
 21
27.374003613922959
 31
0.0
1001
ACAD
1010
0.0
1020
0.0
1030
0.0
  0
LINE
  5
928
  8
0
 10
214.9613869671191
 20
14.09846868624791
 30
0.0
 11
241.00833752316029
 21
23.578783382050428
 31
0.0
1001
ACAD
1010
0.0
1020
0.0
1030
0.0
  0
LINE
  5
929
  8
0
 10
223.10026301922761
 20
10.30324845437538
 30
0.0
 11
249.14721357526889
 21
19.783563150177901
 31
0.0
1001
ACAD
1010
0.0
1020
0.0
1030
0.0
  0
LINE
  5
92A
  8
0
 10
231.2391390713361
 20
6.5080282225028716
 30
0.0
 11
257.28608962737729
 21
15.988342918305371
 31
0.0
1001
ACAD
1010
0.0
1020
0.0
1030
0.0
  0
LINE
  5
92B
  8
0
 10
239.37801512344461
 20
2.712807990630338
 30
0.0
 11
265.42496567948592
 21
12.19312268643287
 31
0.0
1001
ACAD
1010
0.0
1020
0.0
1030
0.0
  0
LINE
  5
92C
  8
0
 10
247.5168911755531
 20
-1.0824122412421811
 30
0.0
 11
273.56384173159438
 21
8.397902454560338
 31
0.0
1001
ACAD
1010
0.0
1020
0.0
1030
0.0
  0
LINE
  5
92D
  8
0
 10
255.6557672276617
 20
-4.8776324731147076
 30
0.0
 11
281.70271778370289
 21
4.6026822226878252
 31
0.0
1001
ACAD
1010
0.0
1020
0.0
1030
0.0
  0
LINE
  5
92E
  8
0
 10
263.79464327977018
 20
-8.6728527049872213
 30
0.0
 11
289.84159383581152
 21
0.8074619908152911
 31
0.0
1001
ACAD
1010
0.0
1020
0.0
1030
0.0
  0
LINE
  5
92F
  8
0
 10
271.9335193318787
 20
-12.46807293685975
 30
0.0
 11
297.98046988791998
 21
-2.987758241057235
 31
0.0
1001
ACAD
1010
0.0
1020
0.0
1030
0.0
  0
LINE
  5
930
  8
0
 10
280.07239538398721
 20
-16.263293168732279
 30
0.0
 11
306.11934594002861
 21
-6.7829784729297549
 31
0.0
1001
ACAD
1010
0.0
1020
0.0
1030
0.0
  0
LINE
  5
931
  8
0
 10
288.21127143609579
 20
-20.058513400604781
 30
0.0
 11
314.25822199213701
 21
-10.57819870480227
 31
0.0
1001
ACAD
1010
0.0
1020
0.0
1030
0.0
  0
LINE
  5
932
  8
0
 10
296.35014748820419
 20
-23.853733632477311
 30
0.0
 11
322.39709804424558
 21
-14.37341893667481
 31
0.0
1001
ACAD
1010
0.0
1020
0.0
1030
0.0
  0
LINE
  5
933
  8
0
 10
304.48902354031281
 20
-27.648953864349849
 30
0.0
 11
330.5359740963541
 21
-18.16863916854733
 31
0.0
1001
ACAD
1010
0.0
1020
0.0
1030
0.0
  0
LINE
  5
934
  8
0
 10
312.62789959242127
 20
-31.444174096222369
 30
0.0
 11
329.9192915771664
 21
-25.150622104745981
 31
0.0
1001
ACAD
1010
0.0
1020
0.0
1030
0.0
  0
LINE
  5
935
  8
0
 10
320.7667756445299
 20
-35.239394328094889
 30
0.0
 11
326.1240713452961
 21
-33.289498156853682
 31
0.0
1001
ACAD
1010
0.0
1020
0.0
1030
0.0
  0
ENDSEC
  0
EOF
