  0
SECTION
  2
HEADER
  9
$ACADVER
  1
AC1009
  9
$INSBASE
 10
0.0
 20
0.0
 30
0.0
  9
$EXTMIN
 10
-282.33775568291958
 20
-322.68900926076969
 30
-0.0015258207003583
  9
$EXTMAX
 10
666.8599380602991
 20
166.6414627181025
 30
0.0000000349246037
  9
$LIMMIN
 10
0.0
 20
0.0
  9
$LIMMAX
 10
12.0
 20
9.0
  9
$ORTHOMODE
 70
     0
  9
$REGENMODE
 70
     1
  9
$FILLMODE
 70
     1
  9
$QTEXTMODE
 70
     0
  9
$MIRRTEXT
 70
     0
  9
$DRAGMODE
 70
     2
  9
$LTSCALE
 40
1.0
  9
$OSMODE
 70
     0
  9
$ATTMODE
 70
     1
  9
$TEXTSIZE
 40
35.0
  9
$TRACEWID
 40
0.05
  9
$TEXTSTYLE
  7
ARIAL
  9
$CLAYER
  8
0
  9
$CELTYPE
  6
CONTINUOUS
  9
$CECOLOR
 62
   256
  9
$DIMSCALE
 40
5.0
  9
$DIMASZ
 40
2.0
  9
$DIMEXO
 40
2.0
  9
$DIMDLI
 40
6.0
  9
$DIMRND
 40
0.0
  9
$DIMDLE
 40
2.0
  9
$DIMEXE
 40
2.0
  9
$DIMTP
 40
0.0
  9
$DIMTM
 40
0.0
  9
$DIMTXT
 40
2.0
  9
$DIMCEN
 40
2.0
  9
$DIMTSZ
 40
0.0
  9
$DIMTOL
 70
     0
  9
$DIMLIM
 70
     0
  9
$DIMTIH
 70
     0
  9
$DIMTOH
 70
     0
  9
$DIMSE1
 70
     0
  9
$DIMSE2
 70
     0
  9
$DIMTAD
 70
     1
  9
$DIMZIN
 70
     0
  9
$DIMBLK
  1
ARCHTICK
  9
$DIMASO
 70
     1
  9
$DIMSHO
 70
     1
  9
$DIMPOST
  1

  9
$DIMAPOST
  1

  9
$DIMALT
 70
     0
  9
$DIMALTD
 70
     2
  9
$DIMALTF
 40
0.0394
  9
$DIMLFAC
 40
1.0
  9
$DIMTOFL
 70
     0
  9
$DIMTVP
 40
0.0
  9
$DIMTIX
 70
     0
  9
$DIMSOXD
 70
     0
  9
$DIMSAH
 70
     0
  9
$DIMBLK1
  1

  9
$DIMBLK2
  1

  9
$DIMSTYLE
  2
1_TO_5
  9
$DIMCLRD
 70
   256
  9
$DIMCLRE
 70
   256
  9
$DIMCLRT
 70
   256
  9
$DIMTFAC
 40
1.0
  9
$DIMGAP
 40
1.0
  9
$LUNITS
 70
     2
  9
$LUPREC
 70
     1
  9
$SKETCHINC
 40
0.1
  9
$FILLETRAD
 40
0.0
  9
$AUNITS
 70
     1
  9
$AUPREC
 70
     4
  9
$MENU
  1
.
  9
$ELEVATION
 40
0.0
  9
$PELEVATION
 40
0.0
  9
$THICKNESS
 40
0.0
  9
$LIMCHECK
 70
     0
  9
$BLIPMODE
 70
     0
  9
$CHAMFERA
 40
0.0
  9
$CHAMFERB
 40
0.0
  9
$SKPOLY
 70
     0
  9
$TDCREATE
 40
2452152.65359294
  9
$TDUPDATE
 40
2455419.592913982
  9
$TDINDWG
 40
26.0096332639
  9
$TDUSRTIMER
 40
26.0096332639
  9
$USRTIMER
 70
     1
  9
$ANGBASE
 50
0.0
  9
$ANGDIR
 70
     0
  9
$PDMODE
 70
     0
  9
$PDSIZE
 40
0.0
  9
$PLINEWID
 40
0.0
  9
$COORDS
 70
     1
  9
$SPLFRAME
 70
     0
  9
$SPLINETYPE
 70
     6
  9
$SPLINESEGS
 70
     8
  9
$ATTDIA
 70
     0
  9
$ATTREQ
 70
     0
  9
$HANDLING
 70
     1
  9
$HANDSEED
  5
A52
  9
$SURFTAB1
 70
     6
  9
$SURFTAB2
 70
     6
  9
$SURFTYPE
 70
     6
  9
$SURFU
 70
     6
  9
$SURFV
 70
     6
  9
$UCSNAME
  2

  9
$UCSORG
 10
0.0
 20
0.0
 30
0.0
  9
$UCSXDIR
 10
1.0
 20
0.0
 30
0.0
  9
$UCSYDIR
 10
0.0
 20
1.0
 30
0.0
  9
$PUCSNAME
  2

  9
$PUCSORG
 10
0.0
 20
0.0
 30
0.0
  9
$PUCSXDIR
 10
1.0
 20
0.0
 30
0.0
  9
$PUCSYDIR
 10
0.0
 20
1.0
 30
0.0
  9
$USERI1
 70
     0
  9
$USERI2
 70
     0
  9
$USERI3
 70
     0
  9
$USERI4
 70
     0
  9
$USERI5
 70
     0
  9
$USERR1
 40
0.0
  9
$USERR2
 40
0.0
  9
$USERR3
 40
0.0
  9
$USERR4
 40
0.0
  9
$USERR5
 40
0.0
  9
$WORLDVIEW
 70
     1
  9
$SHADEDGE
 70
     3
  9
$SHADEDIF
 70
    70
  9
$TILEMODE
 70
     1
  9
$MAXACTVP
 70
    48
  9
$PLIMCHECK
 70
     0
  9
$PEXTMIN
 10
0.0
 20
0.0
 30
0.0
  9
$PEXTMAX
 10
208.41041893864801
 20
295.40953368001158
 30
0.0
  9
$PLIMMIN
 10
-0.793749988079071
 20
-0.793749988079071
  9
$PLIMMAX
 10
209.2062500119209
 20
296.20625001192087
  9
$UNITMODE
 70
     0
  9
$VISRETAIN
 70
     1
  9
$PLINEGEN
 70
     1
  9
$PSLTSCALE
 70
     1
  0
ENDSEC
  0
SECTION
  2
TABLES
  0
TABLE
  2
VPORT
 70
     1
  0
VPORT
  2
*ACTIVE
 70
     0
 10
0.0
 20
0.0
 11
1.0
 21
1.0
 12
192.2610911886897
 22
-78.023773271333596
 13
0.0
 23
0.0
 14
1.0
 24
1.0
 15
50.0
 25
50.0
 16
0.0
 26
0.0
 36
1.0
 17
0.0
 27
0.0
 37
0.0
 40
493.44249275180391
 41
1.978962131837307
 42
50.0
 43
0.0
 44
0.0
 50
0.0
 51
0.0
 71
     0
 72
 20000
 73
     1
 74
     3
 75
     0
 76
     0
 77
     0
 78
     0
  0
ENDTAB
  0
TABLE
  2
LTYPE
 70
     2
  0
LTYPE
  2
CONTINUOUS
 70
     0
  3
Solid line
 72
    65
 73
     0
 40
0.0
  0
LTYPE
  2
EURO_COMMON_PENE-LSECT$0$D
 70
     0
  3
Dashed __ __ __ __ __ __ __ __ __ __ __ __ __ _
 72
    65
 73
     2
 40
19.050000000000001
 49
12.699999999999999
 49
-6.3499999999999988
  0
ENDTAB
  0
TABLE
  2
LAYER
 70
    12
  0
LAYER
  2
0
 70
     0
 62
     7
  6
CONTINUOUS
  0
LAYER
  2
DEFPOINTS
 70
     0
 62
   211
  6
CONTINUOUS
  0
ENDTAB
  0
TABLE
  2
STYLE
 70
     4
  0
STYLE
  2
STANDARD
 70
     0
 40
0.0
 41
1.0
 50
0.0
 71
     0
 42
1.5
  3
romans.shx
  4

  0
STYLE
  2
ARIAL
 70
     0
 40
0.0
 41
1.0
 50
0.0
 71
     0
 42
35.0
  3
txt
  4

  0
STYLE
  2
EURO_COMMON_PENE-LSECT$0$A
 70
     0
 40
0.0
 41
1.0
 50
0.0
 71
     0
 42
35.0
  3
txt
  4

  0
ENDTAB
  0
TABLE
  2
VIEW
 70
     2
  0
VIEW
  2
09
 70
     0
 40
2970.0
 10
19050.0
 20
1485.0
 41
2100.0
 11
0.0
 21
0.0
 31
1.0
 12
0.0
 22
0.0
 32
0.0
 42
50.0
 43
0.0
 44
0.0
 50
0.0
 71
     0
  0
VIEW
  2
COMM-04
 70
     1
 40
477.26027331217421
 10
194.21746115522001
 20
180.60494410563541
 41
755.81685306636155
 11
0.0
 21
0.0
 31
1.0
 12
0.0
 22
0.0
 32
0.0
 42
50.0
 43
0.0
 44
0.0
 50
0.0
 71
     0
  0
ENDTAB
  0
TABLE
  2
UCS
 70
     0
  0
ENDTAB
  0
TABLE
  2
APPID
 70
    10
  0
APPID
  2
ACAD
 70
     0
  0
APPID
  2
GENIUS_GENOREF_13
 70
     0
  0
APPID
  2
ACAD_PSEXT
 70
     0
  0
APPID
  2
ACDBDYNAMICBLOCKGUID
 70
     0
  0
APPID
  2
ACDBBLOCKREPETAG
 70
     0
  0
APPID
  2
ACAD_MLEADERVER
 70
     0
  0
APPID
  2
ACADANNOTATIVE
 70
     0
  0
APPID
  2
RAK
 70
     0
  0
APPID
  2
ACAD_EXEMPT_FROM_CAD_STANDARDS
 70
     0
  0
APPID
  2
CONTENTBLOCKICON
 70
     0
  0
ENDTAB
  0
TABLE
  2
DIMSTYLE
 70
     3
  0
DIMSTYLE
  2
1_TO_5
 70
     0
  3

  4

  5
ARCHTICK
  6

  7

 40
5.0
 41
2.0
 42
2.0
 43
6.0
 44
2.0
 45
0.0
 46
2.0
 47
0.0
 48
0.0
140
2.0
141
2.0
142
0.0
143
0.0394
144
1.0
145
0.0
146
1.0
147
1.0
 71
     0
 72
     0
 73
     0
 74
     0
 75
     0
 76
     0
 77
     1
 78
     0
170
     0
171
     2
172
     0
173
     0
174
     0
175
     0
176
   256
177
   256
178
   256
  0
DIMSTYLE
  2
EURO_COMMON_PENE-LSECT$0$1
 70
     0
  3

  4

  5
EURO_COMMON_PENE-LSECT$0$_
  6

  7

 40
5.0
 41
2.0
 42
2.0
 43
6.0
 44
1.5
 45
0.0
 46
1.5
 47
0.0
 48
0.0
140
2.0
141
2.0
142
0.0
143
0.0394
144
1.0
145
0.0
146
1.0
147
1.0
 71
     0
 72
     0
 73
     0
 74
     0
 75
     0
 76
     0
 77
     0
 78
     0
170
     0
171
     2
172
     1
173
     0
174
     1
175
     0
176
     0
177
     0
178
     0
  0
DIMSTYLE
  2
EURO_COMMON_PENE-LSECT$0$0
 70
     0
  3

  4

  5
EURO_COMMON_PENE-LSECT$0$_
  6

  7

 40
5.0
 41
2.0
 42
2.0
 43
6.0
 44
2.0
 45
0.0
 46
2.0
 47
0.0
 48
0.0
140
2.0
141
2.0
142
0.0
143
0.0394
144
1.0
145
0.0
146
1.0
147
1.0
 71
     0
 72
     0
 73
     0
 74
     0
 75
     0
 76
     0
 77
     1
 78
     0
170
     0
171
     2
172
     0
173
     0
174
     0
175
     0
176
   256
177
   256
178
   256
  0
ENDTAB
  0
ENDSEC
  0
SECTION
  2
BLOCKS
  0
BLOCK
  8
0
  2
$MODEL_SPACE
 70
     0
 10
0.0
 20
0.0
 30
0.0
  3
$MODEL_SPACE
  1

  0
ENDBLK
  5
17
  8
0
  0
BLOCK
 67
     1
  8
0
  2
$PAPER_SPACE
 70
     0
 10
0.0
 20
0.0
 30
0.0
  3
$PAPER_SPACE
  1

  0
ENDBLK
  5
20
 67
     1
  8
0
  0
BLOCK
  8
0
  2
_ARCHTICK
 70
     0
 10
0.0
 20
0.0
 30
0.0
  3
_ARCHTICK
  1

  0
POLYLINE
  5
CA
  8
0
  6
BYBLOCK
 62
     0
 66
     1
 10
0.0
 20
0.0
 30
0.0
 40
0.15
 41
0.15
  0
VERTEX
  5
933
  8
0
  6
BYBLOCK
 62
     0
 10
-0.5
 20
-0.5
 30
0.0
  0
VERTEX
  5
934
  8
0
  6
BYBLOCK
 62
     0
 10
0.5
 20
0.5
 30
0.0
  0
SEQEND
  5
935
  8
0
  6
BYBLOCK
 62
     0
  0
ENDBLK
  5
CB
  8
0
  0
BLOCK
  8
0
  2
EURO_COMMON_PENE-LSECT$0$_
 70
     0
 10
0.0
 20
0.0
 30
0.0
  3
EURO_COMMON_PENE-LSECT$0$_
  1

  0
POLYLINE
  5
7C2
  8
0
  6
BYBLOCK
 62
     0
 66
     1
 10
0.0
 20
0.0
 30
0.0
 40
0.15
 41
0.15
  0
VERTEX
  5
957
  8
0
  6
BYBLOCK
 62
     0
 10
-0.5
 20
-0.5
 30
0.0
  0
VERTEX
  5
958
  8
0
  6
BYBLOCK
 62
     0
 10
0.5
 20
0.5
 30
0.0
  0
SEQEND
  5
959
  8
0
  6
BYBLOCK
 62
     0
  0
ENDBLK
  5
7C3
  8
0
  0
BLOCK
  8
0
  2
*D6
 70
     1
 10
0.0
 20
0.0
 30
0.0
  3
*D6
  1

  0
LINE
  5
8A5
  8
0
 10
377.88202900028239
 20
131.91753231368571
 30
0.0
 11
382.3859747766432
 21
166.62652930932941
 31
0.0
  0
LINE
  5
8A6
  8
0
 10
527.11716735503967
 20
112.5523235995912
 30
0.0
 11
531.62111313140053
 21
147.26132059523491
 31
0.0
  0
LINE
  5
8A7
  8
0
 10
371.18227684178481
 20
157.99651467524851
 30
0.0
 11
540.25112776548144
 21
136.05762266037641
 31
0.0
  0
INSERT
  5
8A8
  8
0
  6
CONTINUOUS
  2
*U26
 10
0.0
 20
0.0
 30
0.0
  0
INSERT
  5
8A9
  8
0
  2
EURO_COMMON_PENE-LSECT$0$_
 10
381.0991331262544
 20
156.7096730248598
 30
0.0
 41
10.0
 42
10.0
 43
10.0
 50
172.6064381324571
  0
INSERT
  5
8AA
  8
0
  2
EURO_COMMON_PENE-LSECT$0$_
 10
530.3342714810118
 20
137.3444643107652
 30
0.0
 41
10.0
 42
10.0
 43
10.0
 50
352.60643813245707
  0
POINT
  5
8AB
  8
DEFPOINTS
 62
     0
 10
360.40038056620688
 20
-2.8022252291120822
 30
0.0
  0
POINT
  5
8AC
  8
DEFPOINTS
 62
     0
 10
509.63551892096427
 20
-22.16743394320655
 30
0.0
  0
POINT
  5
8AD
  8
DEFPOINTS
 62
     0
 10
530.3342714810118
 20
137.3444643107652
 30
0.0
  0
ENDBLK
  5
867
  8
0
  0
BLOCK
  8
0
  2
*U7
 70
     1
 10
0.0
 20
0.0
 30
0.0
  3
*U7
  1

  0
SOLID
  5
976
  8
0
 10
362.12094522042298
 20
-23.098261404993458
 30
0.0
 11
359.28940727470763
 21
-13.36377782137424
 31
0.0
 12
365.12501892615268
 22
-21.653736472133389
 32
0.0
 13
365.12501892615268
 23
-21.653736472133389
 33
0.0
  0
POLYLINE
  5
977
  8
0
 66
     1
 10
0.0
 20
0.0
 30
0.0
  0
VERTEX
  5
978
  8
0
 10
363.6229820732878
 20
-22.375998938563431
 30
0.0
  0
VERTEX
  5
979
  8
0
 10
424.62146741164167
 20
-149.2301235894119
 30
0.0
  0
VERTEX
  5
97A
  8
0
 10
434.62146741164167
 20
-149.2301235894119
 30
0.0
  0
SEQEND
  5
97B
  8
0
  0
ENDBLK
  5
97D
  8
0
  0
BLOCK
  8
0
  2
*U8
 70
     1
 10
0.0
 20
0.0
 30
0.0
  3
*U8
  1

  0
TEXT
  5
97F
  8
0
  6
CONTINUOUS
 10
438.47549196825838
 20
-144.50865928745651
 30
0.0
 40
10.0
  1
Full height
 50
0.0000000000000413
  7
EURO_COMMON_PENE-LSECT$0$A
  0
TEXT
  5
980
  8
0
  6
CONTINUOUS
 10
439.191726620373
 20
-161.17532595412311
 30
0.0
 40
10.0
  1
stop end
 50
0.0000000000000413
  7
EURO_COMMON_PENE-LSECT$0$A
  0
ENDBLK
  5
982
  8
0
  0
BLOCK
  8
0
  2
*U9
 70
     1
 10
0.0
 20
0.0
 30
0.0
  3
*U9
  1

  0
SOLID
  5
984
  8
0
 10
378.47702129514153
 20
1.531085832713206
 30
0.0
 11
370.01337476255611
 21
-4.0496368041172586
 31
0.0
 12
376.20956278954321
 22
3.9743915926419771
 32
0.0
 13
376.20956278954321
 23
3.9743915926419771
 33
0.0
  0
POLYLINE
  5
985
  8
0
 66
     1
 10
0.0
 20
0.0
 30
0.0
  0
VERTEX
  5
986
  8
0
 10
377.34329204234228
 20
2.752738712677592
 30
0.0
  0
VERTEX
  5
987
  8
0
 10
464.13849587860739
 20
83.301201541747986
 30
0.0
  0
VERTEX
  5
988
  8
0
 10
474.1384958786075
 20
83.301201541748
 30
0.0
  0
SEQEND
  5
989
  8
0
  0
ENDBLK
  5
98B
  8
0
  0
BLOCK
  8
0
  2
*U10
 70
     1
 10
0.0
 20
0.0
 30
0.0
  3
*U10
  1

  0
TEXT
  5
98D
  8
0
  6
CONTINUOUS
 10
478.1153035184438
 20
86.801656293908081
 30
0.0
 40
10.0
  1
Bottom apron notched
 50
0.0000000000000413
  7
EURO_COMMON_PENE-LSECT$0$A
  0
TEXT
  5
98E
  8
0
  6
CONTINUOUS
 10
478.63372098092668
 20
69.964457567214126
 30
0.0
 40
10.0
  1
across roof
 50
0.0000000000000413
  7
EURO_COMMON_PENE-LSECT$0$A
  0
ENDBLK
  5
990
  8
0
  0
BLOCK
  8
0
  2
*U11
 70
     1
 10
0.0
 20
0.0
 30
0.0
  3
*U11
  1

  0
SOLID
  5
992
  8
0
 10
34.612078226810397
 20
5.0388960096943141
 30
0.0
 11
38.404840615366993
 21
-4.3628448525996637
 31
0.0
 12
31.767879157339738
 22
3.3006087019303409
 32
0.0
 13
31.767879157339738
 23
3.3006087019303409
 33
0.0
  0
POLYLINE
  5
993
  8
0
 66
     1
 10
0.0
 20
0.0
 30
0.0
  0
VERTEX
  5
994
  8
0
 10
33.189978692075073
 20
4.1697523558123271
 30
0.0
  0
VERTEX
  5
995
  8
0
 10
-42.828206709091312
 20
128.55129228603619
 30
0.0
  0
VERTEX
  5
996
  8
0
 10
-52.828206709091312
 20
128.55129228603619
 30
0.0
  0
SEQEND
  5
997
  8
0
  0
ENDBLK
  5
999
  8
0
  0
BLOCK
  8
0
  2
*U12
 70
     1
 10
0.0
 20
0.0
 30
0.0
  3
*U12
  1

  0
TEXT
  5
99B
  8
0
  6
CONTINUOUS
 10
-113.6126541852168
 20
125.02127864347131
 30
0.0
 40
10.0
  1
Underlay
 50
0.0000000000000413
  7
EURO_COMMON_PENE-LSECT$0$A
  0
ENDBLK
  5
99D
  8
0
  0
BLOCK
  8
0
  2
*U13
 70
     1
 10
0.0
 20
0.0
 30
0.0
  3
*U13
  1

  0
SOLID
  5
99F
  8
0
 10
-21.964450777751232
 20
63.829500525264571
 30
0.0
 11
-18.474644526060729
 21
54.311148246459197
 31
0.0
 12
-24.86284577348863
 22
62.183165942078169
 32
0.0
 13
-24.86284577348863
 23
62.183165942078169
 33
0.0
  0
POLYLINE
  5
9A0
  8
0
 66
     1
 10
0.0
 20
0.0
 30
0.0
  0
VERTEX
  5
9A1
  8
0
 10
-23.413648275619941
 20
63.00633323367137
 30
0.0
  0
VERTEX
  5
9A2
  8
0
 10
-42.828206709091312
 20
97.185934137829463
 30
0.0
  0
VERTEX
  5
9A3
  8
0
 10
-52.828206709091312
 20
97.185934137829463
 30
0.0
  0
SEQEND
  5
9A4
  8
0
  0
ENDBLK
  5
9A6
  8
0
  0
BLOCK
  8
0
  2
*U14
 70
     1
 10
0.0
 20
0.0
 30
0.0
  3
*U14
  1

  0
TEXT
  5
9A8
  8
0
  6
CONTINUOUS
 10
-150.43393658630819
 20
100.6011228599758
 30
0.0
 40
10.0
  1
Upper Euroline
 50
0.0000000000000413
  7
EURO_COMMON_PENE-LSECT$0$A
  0
TEXT
  5
9A9
  8
0
  6
CONTINUOUS
 10
-91.900512302542879
 20
83.934456193309202
 30
0.0
 40
10.0
  1
sheet
 50
0.0000000000000413
  7
EURO_COMMON_PENE-LSECT$0$A
  0
ENDBLK
  5
9AB
  8
0
  0
BLOCK
  8
0
  2
*U15
 70
     1
 10
0.0
 20
0.0
 30
0.0
  3
*U15
  1

  0
SOLID
  5
9B5
  8
0
 10
290.06200328726538
 20
-112.4209450514592
 30
0.0
 11
282.46317308446311
 21
-105.7100913556351
 31
0.0
 12
291.82774879927308
 22
-109.5937107318571
 32
0.0
 13
291.82774879927308
 23
-109.5937107318571
 33
0.0
  0
POLYLINE
  5
9B6
  8
0
 66
     1
 10
0.0
 20
0.0
 30
0.0
  0
VERTEX
  5
9B7
  8
0
 10
290.94487604326929
 20
-111.00732789165809
 30
0.0
  0
VERTEX
  5
9B8
  8
0
 10
424.62146741164167
 20
-194.4948689251905
 30
0.0
  0
VERTEX
  5
9B9
  8
0
 10
434.62146741164167
 20
-194.4948689251905
 30
0.0
  0
SEQEND
  5
9BA
  8
0
  0
ENDBLK
  5
9BC
  8
0
  0
BLOCK
  8
0
  2
*U16
 70
     1
 10
0.0
 20
0.0
 30
0.0
  3
*U16
  1

  0
TEXT
  5
9BE
  8
0
  6
CONTINUOUS
 10
439.29404585638929
 20
-189.6062832044083
 30
0.0
 40
10.0
  1
Typical penetration
 50
0.0000000000000413
  7
EURO_COMMON_PENE-LSECT$0$A
  0
TEXT
  5
9BF
  8
0
  6
CONTINUOUS
 10
438.7756283939064
 20
-206.4434819311023
 30
0.0
 40
10.0
  1
(actual may differ)
 50
0.0000000000000413
  7
EURO_COMMON_PENE-LSECT$0$A
  0
ENDBLK
  5
9C1
  8
0
  0
BLOCK
  8
0
  2
*U17
 70
     1
 10
0.0
 20
0.0
 30
0.0
  3
*U17
  1

  0
SOLID
  5
9C3
  8
0
 10
-148.55425578762279
 20
11.90970269841708
 30
0.0
 11
-145.21083518884549
 21
21.480455880766389
 31
0.0
 12
-145.26950229071079
 22
11.34268808164332
 32
0.0
 13
-145.26950229071079
 23
11.34268808164332
 33
0.0
  0
POLYLINE
  5
9C4
  8
0
 66
     1
 10
0.0
 20
0.0
 30
0.0
  0
VERTEX
  5
9C5
  8
0
 10
-146.91187903916679
 20
11.626195390030199
 30
0.0
  0
VERTEX
  5
9C6
  8
0
 10
-166.30836204460809
 20
-100.73892447660521
 30
0.0
  0
VERTEX
  5
9C7
  8
0
 10
-156.30836204460809
 20
-100.73892447660521
 30
0.0
  0
SEQEND
  5
9C8
  8
0
  0
ENDBLK
  5
9CA
  8
0
  0
BLOCK
  8
0
  2
*U18
 70
     1
 10
0.0
 20
0.0
 30
0.0
  3
*U18
  1

  0
TEXT
  5
9CC
  8
0
  6
CONTINUOUS
 10
-151.92227746070631
 20
-105.74233511780569
 30
0.0
 40
10.0
  1
'Hem' folds
 50
0.0000000000000413
  7
EURO_COMMON_PENE-LSECT$0$A
  0
ENDBLK
  5
9CE
  8
0
  0
BLOCK
  8
0
  2
*U19
 70
     1
 10
0.0
 20
0.0
 30
0.0
  3
*U19
  1

  0
SOLID
  5
9D0
  8
0
 10
-225.38443620721421
 20
6.115933389168104
 30
0.0
 11
-227.51823201005831
 21
16.02677055106027
 31
0.0
 12
-222.2854509548624
 22
7.3436961988414371
 32
0.0
 13
-222.2854509548624
 23
7.3436961988414371
 33
0.0
  0
POLYLINE
  5
9D1
  8
0
 66
     1
 10
0.0
 20
0.0
 30
0.0
  0
VERTEX
  5
9D2
  8
0
 10
-223.83494358103829
 20
6.7298147940047697
 30
0.0
  0
VERTEX
  5
9D3
  8
0
 10
-166.30836204460809
 20
-138.4725210277208
 30
0.0
  0
VERTEX
  5
9D4
  8
0
 10
-156.30836204460809
 20
-138.4725210277208
 30
0.0
  0
SEQEND
  5
9D5
  8
0
  0
ENDBLK
  5
9D7
  8
0
  0
BLOCK
  8
0
  2
*U20
 70
     1
 10
0.0
 20
0.0
 30
0.0
  3
*U20
  1

  0
TEXT
  5
9D9
  8
0
  6
CONTINUOUS
 10
-152.3861246639805
 20
-142.0025346702856
 30
0.0
 40
10.0
  1
Plywood
 50
0.0000000000000413
  7
EURO_COMMON_PENE-LSECT$0$A
  0
ENDBLK
  5
9DB
  8
0
  0
BLOCK
  8
0
  2
*U21
 70
     1
 10
0.0
 20
0.0
 30
0.0
  3
*U21
  1

  0
SOLID
  5
9DD
  8
0
 10
-5.744281031063549
 20
0.1013483989115835
 30
0.0
 11
3.5298871412378499
 21
4.1961722644336978
 31
0.0
 12
-3.914923659959002
 22
-2.6851480966714592
 32
0.0
 13
-3.914923659959002
 23
-2.6851480966714592
 33
0.0
  0
POLYLINE
  5
9DE
  8
0
 66
     1
 10
0.0
 20
0.0
 30
0.0
  0
VERTEX
  5
9DF
  8
0
 10
-4.8296023455112751
 20
-1.2918998488799369
 30
0.0
  0
VERTEX
  5
9E0
  8
0
 10
-156.30836204460809
 20
-100.73892447660521
 30
0.0
  0
SEQEND
  5
9E1
  8
0
  0
ENDBLK
  5
9E3
  8
0
  0
BLOCK
  8
0
  2
*U22
 70
     1
 10
0.0
 20
0.0
 30
0.0
  3
*U22
  1

  0
SOLID
  5
9E5
  8
0
 10
67.588890717371555
 20
60.865722130719909
 30
0.0
 11
74.173836765054148
 21
53.157527573828702
 31
0.0
 12
65.444878755551855
 22
58.313404787855767
 32
0.0
 13
65.444878755551855
 23
58.313404787855767
 33
0.0
  0
POLYLINE
  5
9E6
  8
0
 66
     1
 10
0.0
 20
0.0
 30
0.0
  0
VERTEX
  5
9E7
  8
0
 10
66.516884736461705
 20
59.589563459287831
 30
0.0
  0
VERTEX
  5
9E8
  8
0
 10
-42.828206709091312
 20
151.44224184231999
 30
0.0
  0
VERTEX
  5
9E9
  8
0
 10
-52.828206709091312
 20
151.44224184231999
 30
0.0
  0
SEQEND
  5
9EA
  8
0
  0
ENDBLK
  5
9EC
  8
0
  0
BLOCK
  8
0
  2
*U23
 70
     1
 10
0.0
 20
0.0
 30
0.0
  3
*U23
  1

  0
TEXT
  5
9EE
  8
0
  6
CONTINUOUS
 10
-136.1024222616152
 20
147.91222819975519
 30
0.0
 40
10.0
  1
Backflashing
 50
0.0000000000000413
  7
EURO_COMMON_PENE-LSECT$0$A
  0
ENDBLK
  5
9F0
  8
0
  0
BLOCK
  8
0
  2
*U24
 70
     1
 10
0.0
 20
0.0
 30
0.0
  3
*U24
  1

  0
SOLID
  5
9F2
  8
0
 10
405.47327699094922
 20
-43.911844688691033
 30
0.0
 11
398.47544965353882
 21
-51.247251312292057
 31
0.0
 12
402.71596525694832
 22
-42.038787531887728
 32
0.0
 13
402.71596525694832
 23
-42.038787531887728
 33
0.0
  0
POLYLINE
  5
9F3
  8
0
 66
     1
 10
0.0
 20
0.0
 30
0.0
  0
VERTEX
  5
9F4
  8
0
 10
404.09462112394868
 20
-42.975316110289377
 30
0.0
  0
VERTEX
  5
9F5
  8
0
 10
464.13849587860739
 20
45.414768417860593
 30
0.0
  0
VERTEX
  5
9F6
  8
0
 10
474.1384958786075
 20
45.4147684178606
 30
0.0
  0
SEQEND
  5
9F7
  8
0
  0
ENDBLK
  5
9F9
  8
0
  0
BLOCK
  8
0
  2
*U25
 70
     1
 10
0.0
 20
0.0
 30
0.0
  3
*U25
  1

  0
TEXT
  5
9FB
  8
0
  6
CONTINUOUS
 10
478.04026941203182
 20
41.799488745282169
 30
0.0
 40
10.0
  1
Roof underlay
 50
0.0000000000000413
  7
EURO_COMMON_PENE-LSECT$0$A
  0
ENDBLK
  5
9FD
  8
0
  0
BLOCK
  8
0
  2
*U26
 70
     1
 10
0.0
 20
0.0
 30
0.0
  3
*U26
  1

  0
TEXT
  5
A4D
  8
0
  6
CONTINUOUS
 10
445.34118037075518
 20
152.31102392233589
 30
0.0
 40
10.0
  1
150
 50
352.60643813245707
  7
EURO_COMMON_PENE-LSECT$0$A
  0
TEXT
  5
A4E
  8
0
  6
CONTINUOUS
 10
401.31016430966059
 20
141.1116057925791
 30
0.0
 40
10.0
  1
(200 for very high
 50
352.60643813245707
  7
EURO_COMMON_PENE-LSECT$0$A
  0
TEXT
  5
A4F
  8
0
  6
CONTINUOUS
 10
419.7280630363079
 20
121.7432796868727
 30
0.0
 40
10.0
  1
wind zone)
 50
352.60643813245707
  7
EURO_COMMON_PENE-LSECT$0$A
  0
ENDBLK
  5
A51
  8
0
  0
ENDSEC
  0
SECTION
  2
ENTITIES
  0
POLYLINE
  5
833
  8
0
 66
     1
 10
0.0
 20
0.0
 30
0.0
 70
   128
  0
VERTEX
  5
95A
  8
0
 10
-252.7904739151636
 20
19.30617407867976
 30
0.0
  0
VERTEX
  5
95B
  8
0
 10
64.439519229606958
 20
-21.85856162193522
 30
0.0
  0
VERTEX
  5
95C
  8
0
 10
65.983729210071033
 20
-9.9583340805693297
 30
0.0
  0
VERTEX
  5
95D
  8
0
 10
-259.85660141285189
 20
32.323705387781963
 30
0.0
  0
SEQEND
  5
95E
  8
0
  0
LINE
  5
834
  8
0
 10
66.241097540150804
 20
-7.9749628236750141
 30
0.0
 11
-257.36404441892228
 21
34.017031716473873
 31
0.0
  0
POLYLINE
  5
835
  8
0
 66
     1
 10
0.0
 20
0.0
 30
0.0
  0
VERTEX
  5
95F
  8
0
 10
77.393215556061477
 20
62.425269873085199
 30
0.0
  0
VERTEX
  5
960
  8
0
 10
146.64305215265631
 20
53.439198939027847
 30
0.0
  0
SEQEND
  5
961
  8
0
  0
LINE
  5
836
  8
0
 10
87.310071840533055
 20
61.138428222708171
 30
0.0
 11
67.203171053210099
 21
-93.812451222140226
 31
0.0
  0
POLYLINE
  5
837
  8
0
 66
     1
 10
0.0
 20
0.0
 30
0.0
 70
   128
  0
VERTEX
  5
962
  8
0
 10
648.77278503460536
 20
-97.683436216830145
 30
0.0
  0
VERTEX
  5
963
  8
0
 10
353.32275148907502
 20
-59.344934793698478
 30
0.0
  0
VERTEX
  5
964
  8
0
 10
354.86696146953909
 20
-47.444707252332577
 30
0.0
  0
VERTEX
  5
965
  8
0
 10
640.88208495120477
 20
-84.558905843034154
 30
0.0
  0
SEQEND
  5
966
  8
0
  0
LINE
  5
838
  8
0
 10
355.12432979961881
 20
-45.461335995438283
 30
0.0
 11
645.02378711655899
 21
-83.079577643729863
 31
0.0
  0
POLYLINE
  5
839
  8
0
 66
     1
 10
0.0
 20
0.0
 30
0.0
 70
   128
  0
VERTEX
  5
967
  8
0
 10
-234.69334407161659
 20
158.76904875766189
 30
0.0
  0
VERTEX
  5
968
  8
0
 10
-250.6877980110003
 20
35.510137284363744
 30
0.0
  0
VERTEX
  5
969
  8
0
 10
-261.38774064747849
 20
33.117154319013942
 30
0.0
  0
VERTEX
  5
96A
  8
0
 10
-241.91811785010211
 20
23.027835823013451
 30
0.0
  0
VERTEX
  5
96B
  8
0
 10
-252.61806048658039
 20
20.634852857663649
 30
0.0
  0
VERTEX
  5
96C
  8
0
 10
-282.30879244591
 20
-208.17241471286479
 30
0.0
  0
SEQEND
  5
96D
  8
0
  0
POLYLINE
  5
83A
  8
0
 66
     1
 10
0.0
 20
0.0
 30
0.0
 70
   128
  0
VERTEX
  5
96E
  8
0
 10
666.83097040351265
 20
41.479318584970308
 30
0.0
  0
VERTEX
  5
96F
  8
0
 10
650.83651646412909
 20
-81.779592888342435
 30
0.0
  0
VERTEX
  5
970
  8
0
 10
640.13657382765075
 20
-84.172575853692265
 30
0.0
  0
VERTEX
  5
971
  8
0
 10
659.60619662502722
 20
-94.261894349692724
 30
0.0
  0
VERTEX
  5
972
  8
0
 10
648.90625398854888
 20
-96.654877315042555
 30
0.0
  0
VERTEX
  5
973
  8
0
 10
619.57731011221472
 20
-322.67407813047981
 30
0.0
  0
SEQEND
  5
974
  8
0
  0
INSERT
  5
83B
  8
0
  6
CONTINUOUS
  2
*U7
 10
0.0
 20
0.0
 30
0.0
1001
ACAD
1000
DSTYLE
1002
{
1070
   147
1040
1.0
1070
    77
1070
     0
1002
}
  0
INSERT
  5
83C
  8
0
  6
CONTINUOUS
  2
*U8
 10
0.0
 20
0.0
 30
0.0
  0
INSERT
  5
83D
  8
0
  6
CONTINUOUS
  2
*U9
 10
0.0
 20
0.0
 30
0.0
1001
ACAD
1000
DSTYLE
1002
{
1070
   147
1040
1.0
1070
    77
1070
     0
1002
}
  0
INSERT
  5
83E
  8
0
  6
CONTINUOUS
  2
*U10
 10
0.0
 20
0.0
 30
0.0
  0
INSERT
  5
83F
  8
0
  6
CONTINUOUS
  2
*U11
 10
0.0
 20
0.0
 30
0.0
1001
ACAD
1000
DSTYLE
1002
{
1070
   147
1040
1.0
1070
    77
1070
     0
1002
}
  0
INSERT
  5
840
  8
0
  6
CONTINUOUS
  2
*U12
 10
0.0
 20
0.0
 30
0.0
  0
INSERT
  5
841
  8
0
  6
CONTINUOUS
  2
*U13
 10
0.0
 20
0.0
 30
0.0
1001
ACAD
1000
DSTYLE
1002
{
1070
   147
1040
1.0
1070
    77
1070
     0
1002
}
  0
INSERT
  5
842
  8
0
  6
CONTINUOUS
  2
*U14
 10
0.0
 20
0.0
 30
0.0
  0
POLYLINE
  5
843
  8
0
 66
     1
 10
0.0
 20
0.0
 30
0.0
 70
   128
 40
0.6166666666666667
 41
0.6166666666666667
  0
VERTEX
  5
9AC
  8
0
 10
-249.52189612318031
 20
44.494989041239023
 30
0.0
  0
VERTEX
  5
9AD
  8
0
 10
24.315862531468159
 20
8.9609626141609624
 30
0.0
  0
SEQEND
  5
9AE
  8
0
  0
POLYLINE
  5
844
  8
0
 66
     1
 10
0.0
 20
0.0
 30
0.0
 70
   128
 40
0.6166666666666667
 41
0.6166666666666667
  0
VERTEX
  5
9AF
  8
0
 10
650.73042318935029
 20
-81.803320062201237
 30
0.0
  0
VERTEX
  5
9B0
  8
0
 10
355.38169812969142
 20
-43.47796473854396
 30
0.0
  0
VERTEX
  5
9B1
  8
0
 10
360.14301223613438
 20
-6.7855964860063969
 30
0.0
  0
VERTEX
  5
9B2
  8
0
 10
655.59304578166484
 20
-45.124097909138072
 30
0.0
 40
0.0
 41
0.0
  0
SEQEND
  5
9B3
  8
0
  0
INSERT
  5
845
  8
0
  6
CONTINUOUS
  2
*U15
 10
0.0
 20
0.0
 30
0.0
1001
ACAD
1000
DSTYLE
1002
{
1070
   147
1040
1.0
1070
    77
1070
     0
1002
}
  0
INSERT
  5
846
  8
0
  6
CONTINUOUS
  2
*U16
 10
0.0
 20
0.0
 30
0.0
  0
INSERT
  5
847
  8
0
  6
CONTINUOUS
  2
*U17
 10
0.0
 20
0.0
 30
0.0
1001
ACAD
1000
DSTYLE
1002
{
1070
   147
1040
1.0
1070
    77
1070
     0
1002
}
  0
INSERT
  5
848
  8
0
  6
CONTINUOUS
  2
*U18
 10
0.0
 20
0.0
 30
0.0
  0
INSERT
  5
849
  8
0
  6
CONTINUOUS
  2
*U19
 10
0.0
 20
0.0
 30
0.0
1001
ACAD
1000
DSTYLE
1002
{
1070
   147
1040
1.0
1070
    77
1070
     0
1002
}
  0
INSERT
  5
84A
  8
0
  6
CONTINUOUS
  2
*U20
 10
0.0
 20
0.0
 30
0.0
  0
INSERT
  5
84B
  8
0
  6
CONTINUOUS
  2
*U21
 10
0.0
 20
0.0
 30
0.0
1001
ACAD
1000
DSTYLE
1002
{
1070
   147
1040
1.0
1070
    77
1070
     0
1002
}
  0
INSERT
  5
84C
  8
0
  6
CONTINUOUS
  2
*U22
 10
0.0
 20
0.0
 30
0.0
1001
ACAD
1000
DSTYLE
1002
{
1070
   147
1040
1.0
1070
    77
1070
     0
1002
}
  0
INSERT
  5
84D
  8
0
  6
CONTINUOUS
  2
*U23
 10
0.0
 20
0.0
 30
0.0
  0
LINE
  5
850
  8
0
 10
352.39284901726933
 20
26.740475011873059
 30
0.0
 11
332.28594822994643
 21
-128.21040443296079
 31
0.0
  0
INSERT
  5
851
  8
0
  6
CONTINUOUS
  2
*U24
 10
0.0
 20
0.0
 30
0.0
1001
ACAD
1000
DSTYLE
1002
{
1070
   147
1040
1.0
1070
    77
1070
     0
1002
}
  0
INSERT
  5
852
  8
0
  6
CONTINUOUS
  2
*U25
 10
0.0
 20
0.0
 30
0.0
  0
POLYLINE
  5
853
  8
0
 66
     1
 10
0.0
 20
0.0
 30
0.0
 70
   128
 40
0.6166666666666667
 41
0.6166666666666667
  0
VERTEX
  5
9FE
  8
0
 10
-15.98640448727383
 20
9.2160134487057803
 30
0.0
  0
VERTEX
  5
9FF
  8
0
 10
23.681020650605198
 20
4.0686468471540129
 30
0.0
 42
1.0
  0
VERTEX
  5
A00
  8
0
 10
24.315862531468159
 20
8.9609626141609624
 30
0.0
 42
0.8402403478616948
  0
SEQEND
  5
A01
  8
0
  0
POLYLINE
  5
854
  8
0
 66
     1
 10
0.0
 20
0.0
 30
0.0
 70
   128
  0
VERTEX
  5
A02
  8
0
 10
24.315862531468159
 20
8.9609626141609624
 30
0.0
  0
VERTEX
  5
A03
  8
0
 10
29.077176637903911
 20
45.653330866698518
 30
0.0
  0
VERTEX
  5
A04
  8
0
 10
-244.76058201673729
 20
81.187357293776586
 30
0.0
  0
SEQEND
  5
A05
  8
0
  0
POLYLINE
  5
855
  8
0
 66
     1
 10
0.0
 20
0.0
 30
0.0
 70
   128
 40
0.5
 41
0.5
  0
VERTEX
  5
A06
  8
0
 10
-104.90856817010351
 20
21.225405046221571
 30
0.0
  0
VERTEX
  5
A07
  8
0
 10
-144.57599330798249
 20
26.372771647773341
 30
0.0
 42
0.9999999999999998
  0
VERTEX
  5
A08
  8
0
 10
-145.21083518884549
 20
21.480455880766389
 30
0.0
  0
VERTEX
  5
A09
  8
0
 10
64.019251799109043
 20
-5.6698811541864407
 30
0.0
 42
0.4142135623730951
  0
VERTEX
  5
A0A
  8
0
 10
66.820176282824832
 20
-3.512377495673717
 30
0.0
  0
VERTEX
  5
A0B
  8
0
 10
75.409844299167162
 20
62.682638203172239
 30
0.0
  0
SEQEND
  5
A0C
  8
0
  0
POLYLINE
  5
856
  8
0
 66
     1
 10
0.0
 20
0.0
 30
0.0
 70
   128
 40
0.5
 41
0.5
  0
VERTEX
  5
A0D
  8
0
 10
23.998441591036681
 20
6.5148047306574881
 30
0.0
  0
VERTEX
  5
A0E
  8
0
 10
-15.98640448727383
 20
11.68268011538021
 30
0.0
  0
VERTEX
  5
A0F
  8
0
 10
-29.880241394079349
 20
8.5148047306574881
 30
0.0
  0
VERTEX
  5
A10
  8
0
 10
-69.865087472389845
 20
13.68268011538021
 30
0.0
  0
SEQEND
  5
A11
  8
0
  0
DIMENSION
  5
857
  8
0
  2
*D6
 10
530.3342714810118
 20
137.3444643107652
 30
0.0
 11
451.96348595945869
 21
109.4677894718041
 31
0.0
 70
   129
  1
150\P(200 for very high\Pwind zone)
 13
360.40038056620688
 23
-2.8022252291120822
 33
0.0
 14
509.63551892096439
 24
-22.167433943206561
 34
0.0
  0
POLYLINE
  5
858
  8
0
 66
     1
 10
0.0
 20
0.0
 30
0.0
 70
   128
  0
VERTEX
  5
A12
  8
0
 10
136.94139275922501
 20
90.839345311382203
 30
0.0
  0
VERTEX
  5
A13
  8
0
 10
171.62537481780601
 20
-42.868297181717942
 30
0.0
  0
VERTEX
  5
A14
  8
0
 10
162.59400115640159
 20
-49.085163730429493
 30
0.0
  0
VERTEX
  5
A15
  8
0
 10
184.4231179476773
 20
-51.170881759928299
 30
0.0
  0
VERTEX
  5
A16
  8
0
 10
175.391744286273
 20
-57.38774830863985
 30
0.0
  0
VERTEX
  5
A17
  8
0
 10
205.31568336984489
 20
-172.74530276168659
 30
0.0
  0
SEQEND
  5
A18
  8
0
  0
POLYLINE
  5
859
  8
0
 66
     1
 10
0.0
 20
0.0
 30
0.0
 70
   128
  0
VERTEX
  5
A19
  8
0
 10
174.8628841883764
 20
90.839345311382203
 30
0.0
  0
VERTEX
  5
A1A
  8
0
 10
207.15603604882199
 20
-33.651585304309272
 30
0.0
  0
VERTEX
  5
A1B
  8
0
 10
198.1246623874103
 20
-39.868451853020822
 30
0.0
  0
VERTEX
  5
A1C
  8
0
 10
219.95377917868609
 20
-41.954169882519629
 30
0.0
  0
VERTEX
  5
A1D
  8
0
 10
210.92240551728901
 20
-48.17103643123118
 30
0.0
  0
VERTEX
  5
A1E
  8
0
 10
243.2371747990037
 20
-172.74530276168659
 30
0.0
  0
SEQEND
  5
A1F
  8
0
  0
POLYLINE
  5
85A
  8
0
 66
     1
 10
0.0
 20
0.0
 30
0.0
  0
VERTEX
  5
A20
  8
0
 10
185.88547296704931
 20
48.346982200440827
 30
0.0
  0
VERTEX
  5
A21
  8
0
 10
362.30970530174091
 20
25.453633361481479
 30
0.0
  0
VERTEX
  5
A22
  8
0
 10
342.20280451441801
 20
-129.49724608335231
 30
0.0
  0
VERTEX
  5
A23
  8
0
 10
228.1804807326626
 20
-114.7013600578357
 30
0.0
  0
SEQEND
  5
A24
  8
0
  0
POLYLINE
  5
85B
  8
0
 66
     1
 10
0.0
 20
0.0
 30
0.0
  0
VERTEX
  5
A25
  8
0
 10
188.93805991827679
 20
-109.60914331923409
 30
0.0
  0
VERTEX
  5
A26
  8
0
 10
57.286314768738521
 20
-92.525609571748646
 30
0.0
  0
VERTEX
  5
A27
  8
0
 10
57.286314768738521
 20
-92.525609571748646
 30
0.0
  0
VERTEX
  5
A28
  8
0
 10
77.393215556061477
 20
62.425269873085199
 30
0.0
  0
VERTEX
  5
A29
  8
0
 10
77.393215556061477
 20
62.425269873085199
 30
0.0
  0
SEQEND
  5
A2A
  8
0
  0
LINE
  5
85F
  8
0
 10
-257.9378405167194
 20
-20.36125105919827
 30
0.0
 11
61.275523884943588
 21
-61.783355089891167
 31
0.0
  0
LINE
  5
860
  8
0
 10
-277.17612319003013
 20
-168.6182525120193
 30
0.0
 11
624.38713575973884
 21
-285.60786280752518
 31
0.0
  0
LINE
  5
861
  8
0
 10
346.1920136306228
 20
-98.754991601498006
 30
0.0
 11
643.62541843305075
 21
-137.35086135470431
 31
0.0
  0
LINE
  5
862
  8
0
  6
EURO_COMMON_PENE-LSECT$0$D
 10
61.275523884943588
 20
-61.783355089891181
 30
0.0
 11
180.54673037757249
 21
-77.260352215197528
 31
0.0
  0
LINE
  5
863
  8
0
  6
EURO_COMMON_PENE-LSECT$0$D
 10
219.78915119196961
 20
-82.352568953795057
 30
0.0
 11
346.19201363062268
 21
-98.754991601497792
 31
0.0
  0
POLYLINE
  5
864
  8
0
 66
     1
 10
0.0
 20
0.0
 30
0.0
 70
   128
 40
0.5
 41
0.5
  0
VERTEX
  5
A2B
  8
0
 10
487.69682214929571
 20
-47.097361447564829
 30
0.0
  0
VERTEX
  5
A2C
  8
0
 10
486.40998049890538
 20
-57.014217732034268
 30
0.0
 42
0.9999999999999996
  0
VERTEX
  5
A2D
  8
0
 10
488.39335175579919
 20
-57.271586062112341
 30
0.0
  0
VERTEX
  5
A2E
  8
0
 10
492.71016678239118
 20
-24.004684720863779
 30
0.0
 42
-0.4142135623730141
  0
VERTEX
  5
A2F
  8
0
 10
494.9509063693626
 20
-22.27868179404793
 30
0.0
  0
VERTEX
  5
A30
  8
0
 10
511.80956205296138
 20
-24.466312599707152
 30
0.0
 42
0.4142135623730326
  0
VERTEX
  5
A31
  8
0
 10
512.92993184644718
 20
-23.603311136299158
 30
0.0
  0
VERTEX
  5
A32
  8
0
 10
512.92993184644649
 20
-23.603311136304288
 30
0.0
 42
0.4142135623731586
  0
VERTEX
  5
A33
  8
0
 10
512.06693038303843
 20
-22.4829413428183
 30
0.0
  0
VERTEX
  5
A34
  8
0
 10
362.87959463732841
 20
-3.1239356417208901
 30
0.0
 42
-0.4142135623730951
  0
VERTEX
  5
A35
  8
0
 10
360.72209097880841
 20
-0.3230111580051016
 30
0.0
  0
VERTEX
  5
A36
  8
0
 10
364.03784808448108
 20
25.22938426006295
 30
0.0
  0
SEQEND
  5
A37
  8
0
  0
POLYLINE
  5
87A
  8
0
 66
     1
 10
0.0
 20
0.0
 30
0.0
 70
     1
1001
ACDBBLOCKREPETAG
1070
     1
1071
        0
1005
87A
  0
VERTEX
  5
A38
  8
0
 10
348.17538488752081
 20
-99.012359931577137
 30
0.0
  0
VERTEX
  5
A39
  8
0
 10
422.55523232229729
 20
-108.6641167870753
 30
0.0
  0
VERTEX
  5
A3A
  8
0
 10
427.70259892385161
 20
-68.996691649196691
 30
0.0
  0
VERTEX
  5
A3B
  8
0
 10
353.32275148907507
 20
-59.344934793698492
 30
0.0
  0
SEQEND
  5
A3C
  8
0
  0
POLYLINE
  5
87B
  8
0
 66
     1
 10
0.0
 20
0.0
 30
0.0
 70
     1
 40
0.25
 41
0.25
1001
ACDBBLOCKREPETAG
1070
     1
1071
        0
1005
87A
  0
VERTEX
  5
A3D
  8
0
 10
348.31543111170652
 20
-98.904484748651129
 30
0.0
  0
VERTEX
  5
A3E
  8
0
 10
422.44735713937132
 20
-108.52407056288951
 30
0.0
  0
VERTEX
  5
A3F
  8
0
 10
427.56255269966601
 20
-69.104566832122714
 30
0.0
  0
VERTEX
  5
A40
  8
0
 10
353.43062667200121
 20
-59.484981017884223
 30
0.0
  0
SEQEND
  5
A41
  8
0
  0
LINE
  5
87C
  8
0
 10
353.32275148907507
 20
-59.344934793698492
 30
0.0
 11
422.55523232229729
 21
-108.6641167870753
 31
0.0
1001
ACDBBLOCKREPETAG
1070
     1
1071
        1
1005
87C
  0
LINE
  5
87D
  8
0
 10
427.70259892385161
 20
-68.996691649196691
 30
0.0
 11
348.17538488752081
 21
-99.012359931577137
 31
0.0
1001
ACDBBLOCKREPETAG
1070
     1
1071
        2
1005
87D
  0
POLYLINE
  5
87E
  8
0
 66
     1
 10
0.0
 20
0.0
 30
0.0
 70
     1
1001
ACDBBLOCKREPETAG
1070
     1
1071
        0
1005
87E
  0
VERTEX
  5
A42
  8
0
 10
-15.08769480672408
 20
-51.874229904315669
 30
0.0
  0
VERTEX
  5
A43
  8
0
 10
59.292152628052548
 20
-61.525986759813811
 30
0.0
  0
VERTEX
  5
A44
  8
0
 10
64.439519229606944
 20
-21.85856162193522
 30
0.0
  0
VERTEX
  5
A45
  8
0
 10
-9.9403282051696706
 20
-12.206804766437029
 30
0.0
  0
SEQEND
  5
A46
  8
0
  0
POLYLINE
  5
87F
  8
0
 66
     1
 10
0.0
 20
0.0
 30
0.0
 70
     1
 40
0.25
 41
0.25
1001
ACDBBLOCKREPETAG
1070
     1
1071
        0
1005
87E
  0
VERTEX
  5
A47
  8
0
 10
-14.947648582538349
 20
-51.766354721389661
 30
0.0
  0
VERTEX
  5
A48
  8
0
 10
59.184277445126511
 20
-61.38594053562808
 30
0.0
  0
VERTEX
  5
A49
  8
0
 10
64.29947300542122
 20
-21.96643680486126
 30
0.0
  0
VERTEX
  5
A4A
  8
0
 10
-9.8324530222436461
 20
-12.346850990622761
 30
0.0
  0
SEQEND
  5
A4B
  8
0
  0
LINE
  5
880
  8
0
 10
-9.9403282051696706
 20
-12.206804766437029
 30
0.0
 11
59.292152628052548
 21
-61.525986759813811
 31
0.0
1001
ACDBBLOCKREPETAG
1070
     1
1071
        1
1005
880
  0
LINE
  5
881
  8
0
 10
64.439519229606944
 20
-21.85856162193522
 30
0.0
 11
-15.08769480672408
 21
-51.874229904315669
 31
0.0
1001
ACDBBLOCKREPETAG
1070
     1
1071
        2
1005
881
  0
LINE
  5
882
  8
0
 10
-47.903834965340359
 20
7.2181630044588001
 30
0.0
 11
-51.690279192048173
 21
-20.548471797309059
 31
0.0
1001
ACDBBLOCKREPETAG
1070
     1
1071
        0
1005
882
  0
LINE
  5
883
  8
0
 10
-52.76341466723877
 20
7.8462435095670031
 30
0.0
 11
-56.160912183050357
 21
-19.970661040127219
 31
0.0
1001
ACDBBLOCKREPETAG
1070
     1
1071
        1
1005
883
  0
LINE
  5
884
  8
0
 10
-54.358953755436083
 20
-23.612541161969979
 30
0.0
 11
-56.160912183050357
 21
-19.970661040127219
 31
0.0
1001
ACDBBLOCKREPETAG
1070
     1
1071
        2
1005
884
  0
LINE
  5
885
  8
0
 10
-54.358953755436083
 20
-23.612541161969979
 30
0.0
 11
-51.690279192048173
 21
-20.548471797309059
 31
0.0
1001
ACDBBLOCKREPETAG
1070
     1
1071
        3
1005
885
  0
LINE
  5
886
  8
0
 10
-55.432343436738023
 20
-14.02388559934821
 30
0.0
 11
-50.783488454914021
 21
-13.88031977077409
 31
0.0
1001
ACDBBLOCKREPETAG
1070
     1
1071
        6
1005
886
  0
LINE
  5
887
  8
0
 10
-55.018738141136403
 20
-22.151169366562431
 30
0.0
 11
-53.728809672334947
 21
-22.111333826381049
 31
0.0
1001
ACDBBLOCKREPETAG
1070
     1
1071
        7
1005
887
  0
LINE
  5
888
  8
0
 10
-54.358953755436083
 20
-23.612541161969979
 30
0.0
 11
-51.027753980801783
 21
-15.676544185911791
 31
0.0
1001
ACDBBLOCKREPETAG
1070
     1
1071
        8
1005
888
  0
LINE
  5
889
  8
0
 10
-55.59650438493928
 20
-15.363811721679809
 30
0.0
 11
-50.965778882611758
 21
-15.22080576725903
 31
0.0
1001
ACDBBLOCKREPETAG
1070
     1
1071
       10
1005
889
  0
LINE
  5
88A
  8
0
 10
-55.760665333140651
 20
-16.70373784401221
 30
0.0
 11
-51.402431313171391
 21
-16.569146965043881
 31
0.0
1001
ACDBBLOCKREPETAG
1070
     1
1071
       12
1005
88A
  0
LINE
  5
88B
  8
0
 10
-55.924826281341772
 20
-18.04366396634256
 30
0.0
 11
-51.970107032016152
 21
-17.92153442089025
 31
0.0
1001
ACDBBLOCKREPETAG
1070
     1
1071
       14
1005
88B
  0
LINE
  5
88C
  8
0
 10
-56.088987229543079
 20
-19.383590088674602
 30
0.0
 11
-52.537782750860949
 21
-19.273921876736729
 31
0.0
1001
ACDBBLOCKREPETAG
1070
     1
1071
       16
1005
88C
  0
LINE
  5
88D
  8
0
 10
-55.795402872568417
 20
-20.7093801314189
 30
0.0
 11
-53.10545846970561
 21
-20.626309332582849
 31
0.0
1001
ACDBBLOCKREPETAG
1070
     1
1071
       18
1005
88D
  0
LINE
  5
88E
  8
0
 10
-52.76341466723877
 20
7.8462435095670031
 30
0.0
 11
-52.676712883384369
 21
8.5170718914550942
 31
0.0
1001
ACDBBLOCKREPETAG
1070
     1
1071
       20
1005
88E
  0
LINE
  5
88F
  8
0
 10
-52.676712883384369
 20
8.5170718914550942
 30
0.0
 11
-54.73224413513303
 21
11.726822928126859
 31
0.0
1001
ACDBBLOCKREPETAG
1070
     1
1071
       22
1005
88F
  0
LINE
  5
890
  8
0
 10
-54.73224413513303
 20
11.726822928126859
 30
0.0
 11
-54.691840945708051
 21
12.03943017771468
 31
0.0
1001
ACDBBLOCKREPETAG
1070
     1
1071
       23
1005
890
  0
LINE
  5
891
  8
0
 10
-54.691840945708051
 20
12.03943017771468
 30
0.0
 11
-44.972681541911221
 21
10.78326916749837
 31
0.0
1001
ACDBBLOCKREPETAG
1070
     1
1071
       24
1005
891
  0
LINE
  5
892
  8
0
 10
-54.732244135133008
 20
11.726822928127049
 30
0.0
 11
-45.013084731336193
 21
10.47066191791064
 31
0.0
1001
ACDBBLOCKREPETAG
1070
     1
1071
       25
1005
892
  0
LINE
  5
893
  8
0
 10
-45.013084731336207
 20
10.470661917910549
 30
0.0
 11
-44.972681541911221
 21
10.78326916749837
 31
0.0
1001
ACDBBLOCKREPETAG
1070
     1
1071
       27
1005
893
  0
LINE
  5
894
  8
0
 10
-47.817133181485971
 20
7.8889913863468912
 30
0.0
 11
-52.676712883384369
 21
8.5170718914550942
 31
0.0
1001
ACDBBLOCKREPETAG
1070
     1
1071
       28
1005
894
  0
LINE
  5
895
  8
0
 10
-54.61153869573166
 20
-7.324254987690078
 30
0.0
 11
-49.872036316425529
 21
-7.1778897883507957
 31
0.0
1001
ACDBBLOCKREPETAG
1070
     1
1071
       30
1005
895
  0
LINE
  5
896
  8
0
 10
-54.77569964393291
 20
-8.6641811100215271
 30
0.0
 11
-50.054326744123273
 21
-8.5183757848357793
 31
0.0
1001
ACDBBLOCKREPETAG
1070
     1
1071
       32
1005
896
  0
LINE
  5
897
  8
0
 10
-54.939860592134302
 20
-10.00410723235405
 30
0.0
 11
-50.236617171820861
 21
-9.8588617813196162
 31
0.0
1001
ACDBBLOCKREPETAG
1070
     1
1071
       34
1005
897
  0
LINE
  5
898
  8
0
 10
-55.104021540335417
 20
-11.344033354684489
 30
0.0
 11
-50.418907599518633
 21
-11.199347777804819
 31
0.0
1001
ACDBBLOCKREPETAG
1070
     1
1071
       36
1005
898
  0
LINE
  5
899
  8
0
 10
-55.268182488536681
 20
-12.683959477016121
 30
0.0
 11
-50.601198027216398
 21
-12.53983377429002
 31
0.0
1001
ACDBBLOCKREPETAG
1070
     1
1071
       38
1005
899
  0
LINE
  5
89A
  8
0
 10
-54.447377747530467
 20
-5.9843288653590738
 30
0.0
 11
-49.68974588872792
 21
-5.8374037918667661
 31
0.0
1001
ACDBBLOCKREPETAG
1070
     1
1071
       45
1005
89A
  0
LINE
  5
89B
  8
0
 10
-53.626573006524112
 20
0.7153017462990583
 30
0.0
 11
-48.77829375023942
 21
0.8650261905565344
 31
0.0
1001
ACDBBLOCKREPETAG
1070
     1
1071
       47
1005
89B
  0
LINE
  5
89C
  8
0
 10
-53.790733954725368
 20
-0.6246243760323882
 30
0.0
 11
-48.960584177937172
 21
-0.4754598059284554
 31
0.0
1001
ACDBBLOCKREPETAG
1070
     1
1071
       49
1005
89C
  0
LINE
  5
89D
  8
0
 10
-53.954894902926753
 20
-1.9645504983649389
 30
0.0
 11
-49.142874605634752
 21
-1.815945802412269
 31
0.0
1001
ACDBBLOCKREPETAG
1070
     1
1071
       51
1005
89D
  0
LINE
  5
89E
  8
0
 10
-54.119055851127868
 20
-3.3044766206953522
 30
0.0
 11
-49.325165033332532
 21
-3.1564317988975041
 31
0.0
1001
ACDBBLOCKREPETAG
1070
     1
1071
       53
1005
89E
  0
LINE
  5
89F
  8
0
 10
-54.283216799329132
 20
-4.6444027430269719
 30
0.0
 11
-49.507455461030297
 21
-4.4969177953827053
 31
0.0
1001
ACDBBLOCKREPETAG
1070
     1
1071
       55
1005
89F
  0
LINE
  5
8A0
  8
0
 10
-53.134090161920369
 20
4.7350801132933888
 30
0.0
 11
-48.231422467146402
 21
4.8864841800099708
 31
0.0
1001
ACDBBLOCKREPETAG
1070
     1
1071
       56
1005
8A0
  0
LINE
  5
8A1
  8
0
 10
-53.298251110121619
 20
3.395153990961949
 30
0.0
 11
-48.413712894844153
 21
3.5459981835249739
 31
0.0
1001
ACDBBLOCKREPETAG
1070
     1
1071
       58
1005
8A1
  0
LINE
  5
8A2
  8
0
 10
-53.462412058322997
 20
2.0552278686293919
 30
0.0
 11
-48.596003322541733
 21
2.2055121870411738
 31
0.0
1001
ACDBBLOCKREPETAG
1070
     1
1071
       60
1005
8A2
  0
LINE
  5
8A3
  8
0
 10
-47.903834965340359
 20
7.2181630044588001
 30
0.0
 11
-47.817133181485971
 21
7.8889913863468912
 31
0.0
1001
ACDBBLOCKREPETAG
1070
     1
1071
       61
1005
8A3
  0
LINE
  5
8A4
  8
0
 10
-47.817133181485971
 20
7.8889913863468912
 30
0.0
 11
-45.013084731336207
 21
10.47066191791045
 31
0.0
1001
ACDBBLOCKREPETAG
1070
     1
1071
       62
1005
8A4
  0
LINE
  5
8AE
  8
0
 10
64.797365496448236
 20
-9.8043878908287176
 30
0.0
 11
51.352927974615959
 21
-20.16040545172768
 31
0.0
1001
ACAD
1010
0.0
1020
0.0
1030
0.0
  0
LINE
  5
8AF
  8
0
 10
51.438979093892137
 20
-8.0709627496665668
 30
0.0
 11
37.994541572060129
 21
-18.426980310565341
 31
0.0
1001
ACAD
1010
0.0
1020
0.0
1030
0.0
  0
LINE
  5
8B0
  8
0
 10
38.080592691336079
 20
-6.3375376085044026
 30
0.0
 11
24.63615516950426
 21
-16.69355516940302
 31
0.0
1001
ACAD
1010
0.0
1020
0.0
1030
0.0
  0
LINE
  5
8B1
  8
0
 10
24.722206288780011
 20
-4.6041124673422429
 30
0.0
 11
11.27776876694843
 21
-14.96013002824067
 31
0.0
1001
ACAD
1010
0.0
1020
0.0
1030
0.0
  0
LINE
  5
8B2
  8
0
 10
11.363819886223929
 20
-2.8706873261800849
 30
0.0
 11
-2.0806176356074011
 21
-13.226704887078331
 31
0.0
1001
ACAD
1010
0.0
1020
0.0
1030
0.0
  0
LINE
  5
8B3
  8
0
 10
-1.994566516332142
 20
-1.1372621850179301
 30
0.0
 11
-15.439004038163249
 21
-11.493279745916
 31
0.0
1001
ACAD
1010
0.0
1020
0.0
1030
0.0
  0
LINE
  5
8B4
  8
0
 10
-15.35295291888821
 20
0.5961629561442319
 30
0.0
 11
-28.797390440719091
 21
-9.7598546047536665
 31
0.0
1001
ACAD
1010
0.0
1020
0.0
1030
0.0
  0
LINE
  5
8B5
  8
0
 10
-28.711339321444289
 20
2.3295880973063841
 30
0.0
 11
-42.155776843274928
 21
-8.0264294635913274
 31
0.0
1001
ACAD
1010
0.0
1020
0.0
1030
0.0
  0
LINE
  5
8B6
  8
0
 10
-42.069725724000357
 20
4.063013238468546
 30
0.0
 11
-55.514163245830787
 21
-6.293004322428998
 31
0.0
1001
ACAD
1010
0.0
1020
0.0
1030
0.0
  0
LINE
  5
8B7
  8
0
 10
-55.428112126556442
 20
5.7964383796307031
 30
0.0
 11
-68.872549648386638
 21
-4.5595791812666562
 31
0.0
1001
ACAD
1010
0.0
1020
0.0
1030
0.0
  0
LINE
  5
8B8
  8
0
 10
-68.786498529112492
 20
7.5298635207928646
 30
0.0
 11
-82.230936050942475
 21
-2.8261540401043339
 31
0.0
1001
ACAD
1010
0.0
1020
0.0
1030
0.0
  0
LINE
  5
8B9
  8
0
 10
-82.144884931668585
 20
9.2632886619550163
 30
0.0
 11
-95.589322453498312
 21
-1.0927288989419841
 31
0.0
1001
ACAD
1010
0.0
1020
0.0
1030
0.0
  0
LINE
  5
8BA
  8
0
 10
-95.50327133422465
 20
10.99671380311718
 30
0.0
 11
-108.94770885605411
 21
0.6406962422203648
 31
0.0
1001
ACAD
1010
0.0
1020
0.0
1030
0.0
  0
LINE
  5
8BB
  8
0
 10
-108.8616577367807
 20
12.730138944279339
 30
0.0
 11
-122.30609525861
 21
2.3741213833826791
 31
0.0
1001
ACAD
1010
0.0
1020
0.0
1030
0.0
  0
LINE
  5
8BC
  8
0
 10
-122.22004413933681
 20
14.463564085441501
 30
0.0
 11
-135.66448166116581
 21
4.107546524545028
 31
0.0
1001
ACAD
1010
0.0
1020
0.0
1030
0.0
  0
LINE
  5
8BD
  8
0
 10
-135.57843054189291
 20
16.196989226603641
 30
0.0
 11
-149.02286806372169
 21
5.8409716657073432
 31
0.0
1001
ACAD
1010
0.0
1020
0.0
1030
0.0
  0
LINE
  5
8BE
  8
0
 10
-148.93681694444891
 20
17.93041436776582
 30
0.0
 11
-162.38125446627751
 21
7.5743968068697001
 31
0.0
1001
ACAD
1010
0.0
1020
0.0
1030
0.0
  0
LINE
  5
8BF
  8
0
 10
-162.29520334700501
 20
19.663839508927961
 30
0.0
 11
-175.73964086883331
 21
9.3078219480320286
 31
0.0
1001
ACAD
1010
0.0
1020
0.0
1030
0.0
  0
LINE
  5
8C0
  8
0
 10
-175.65358974956109
 20
21.397264650090129
 30
0.0
 11
-189.09802727138921
 21
11.0412470891944
 31
0.0
1001
ACAD
1010
0.0
1020
0.0
1030
0.0
  0
LINE
  5
8C1
  8
0
 10
-189.01197615211709
 20
23.130689791252269
 30
0.0
 11
-202.45641367394501
 21
12.7746722303567
 31
0.0
1001
ACAD
1010
0.0
1020
0.0
1030
0.0
  0
LINE
  5
8C2
  8
0
 10
-202.37036255467319
 20
24.864114932414431
 30
0.0
 11
-215.81480007650089
 21
14.508097371519041
 31
0.0
1001
ACAD
1010
0.0
1020
0.0
1030
0.0
  0
LINE
  5
8C3
  8
0
 10
-215.7287489572293
 20
26.597540073576599
 30
0.0
 11
-229.17318647905671
 21
16.241522512681399
 31
0.0
1001
ACAD
1010
0.0
1020
0.0
1030
0.0
  0
LINE
  5
8C4
  8
0
 10
-229.08713535978541
 20
28.330965214738772
 30
0.0
 11
-242.53157288161259
 21
17.97494765384371
 31
0.0
1001
ACAD
1010
0.0
1020
0.0
1030
0.0
  0
LINE
  5
8C5
  8
0
 10
-242.4455217623414
 20
30.064390355900908
 30
0.0
 11
-247.69449126386991
 21
26.021199984702481
 31
0.0
1001
ACAD
1010
0.0
1020
0.0
1030
0.0
  0
LINE
  5
8C6
  8
0
 10
-255.80390816489751
 20
31.797815497063091
 30
0.0
 11
-257.02568554370231
 21
30.856701525588591
 31
0.0
1001
ACAD
1010
0.0
1020
0.0
1030
0.0
  0
LINE
  5
8C7
  8
0
 10
653.90975277533732
 20
-91.309950344806168
 30
0.0
 11
646.08784541047112
 21
-97.335030226261836
 31
0.0
1001
ACAD
1010
0.0
1020
0.0
1030
0.0
  0
LINE
  5
8C8
  8
0
 10
644.57855849550992
 20
-86.474448803916175
 30
0.0
 11
632.72945900791535
 21
-95.601605085099322
 31
0.0
1001
ACAD
1010
0.0
1020
0.0
1030
0.0
  0
LINE
  5
8C9
  8
0
 10
632.81551012719467
 20
-83.512162383035786
 30
0.0
 11
619.37107260535993
 21
-93.868179943936795
 31
0.0
1001
ACAD
1010
0.0
1020
0.0
1030
0.0
  0
LINE
  5
8CA
  8
0
 10
619.45712372463902
 20
-81.778737241873444
 30
0.0
 11
606.01268620280416
 21
-92.13475480277441
 31
0.0
1001
ACAD
1010
0.0
1020
0.0
1030
0.0
  0
LINE
  5
8CB
  8
0
 10
606.09873732208325
 20
-80.045312100711044
 30
0.0
 11
592.65429980024874
 21
-90.401329661611797
 31
0.0
1001
ACAD
1010
0.0
1020
0.0
1030
0.0
  0
LINE
  5
8CC
  8
0
 10
592.74035091952749
 20
-78.311886959548644
 30
0.0
 11
579.29591339769286
 21
-88.667904520449383
 31
0.0
1001
ACAD
1010
0.0
1020
0.0
1030
0.0
  0
LINE
  5
8CD
  8
0
 10
579.38196451697172
 20
-76.578461818386302
 30
0.0
 11
565.9375269951372
 21
-86.934479379286984
 31
0.0
1001
ACAD
1010
0.0
1020
0.0
1030
0.0
  0
LINE
  5
8CE
  8
0
 10
566.02357811441584
 20
-74.845036677223902
 30
0.0
 11
552.57914059258155
 21
-85.201054238124357
 31
0.0
1001
ACAD
1010
0.0
1020
0.0
1030
0.0
  0
LINE
  5
8CF
  8
0
 10
552.66519171186007
 20
-73.111611536061503
 30
0.0
 11
539.22075419002579
 21
-83.467629096961943
 31
0.0
1001
ACAD
1010
0.0
1020
0.0
1030
0.0
  0
LINE
  5
8D0
  8
0
 10
539.30680530930431
 20
-71.378186394899103
 30
0.0
 11
525.86236778747025
 21
-81.734203955799373
 31
0.0
1001
ACAD
1010
0.0
1020
0.0
1030
0.0
  0
LINE
  5
8D1
  8
0
 10
525.94841890674854
 20
-69.64476125373676
 30
0.0
 11
512.5039813849146
 21
-80.000778814636988
 31
0.0
1001
ACAD
1010
0.0
1020
0.0
1030
0.0
  0
LINE
  5
8D2
  8
0
 10
512.59003250419278
 20
-67.911336112574418
 30
0.0
 11
499.14559498235889
 21
-78.267353673474531
 31
0.0
1001
ACAD
1010
0.0
1020
0.0
1030
0.0
  0
LINE
  5
8D3
  8
0
 10
499.23164610163678
 20
-66.177910971412075
 30
0.0
 11
485.78720857980329
 21
-76.533928532311961
 31
0.0
1001
ACAD
1010
0.0
1020
0.0
1030
0.0
  0
LINE
  5
8D4
  8
0
 10
485.87325969908119
 20
-64.444485830249619
 30
0.0
 11
472.4288221772477
 21
-74.800503391149562
 31
0.0
1001
ACAD
1010
0.0
1020
0.0
1030
0.0
  0
LINE
  5
8D5
  8
0
 10
472.51487329652542
 20
-62.711060689087162
 30
0.0
 11
459.0704357746921
 21
-73.067078249986992
 31
0.0
1001
ACAD
1010
0.0
1020
0.0
1030
0.0
  0
LINE
  5
8D6
  8
0
 10
459.15648689396971
 20
-60.977635547924869
 30
0.0
 11
445.71204937213628
 21
-71.333653108824592
 31
0.0
1001
ACAD
1010
0.0
1020
0.0
1030
0.0
  0
LINE
  5
8D7
  8
0
 10
445.79810049141378
 20
-59.24421040676247
 30
0.0
 11
432.3536629695808
 21
-69.600227967662079
 31
0.0
1001
ACAD
1010
0.0
1020
0.0
1030
0.0
  0
LINE
  5
8D8
  8
0
 10
432.43971408885812
 20
-57.51078526560002
 30
0.0
 11
418.99527656702497
 21
-67.866802826499566
 31
0.0
1001
ACAD
1010
0.0
1020
0.0
1030
0.0
  0
LINE
  5
8D9
  8
0
 10
419.0813276863023
 20
-55.777360124437678
 30
0.0
 11
405.63689016446932
 21
-66.133377685337095
 31
0.0
1001
ACAD
1010
0.0
1020
0.0
1030
0.0
  0
LINE
  5
8DA
  8
0
 10
405.72294128374648
 20
-54.043934983275278
 30
0.0
 11
392.2785037619139
 21
-64.399952544174596
 31
0.0
1001
ACAD
1010
0.0
1020
0.0
1030
0.0
  0
LINE
  5
8DB
  8
0
 10
392.36455488119083
 20
-52.310509842112879
 30
0.0
 11
378.92011735935807
 21
-62.66652740301214
 31
0.0
1001
ACAD
1010
0.0
1020
0.0
1030
0.0
  0
LINE
  5
8DC
  8
0
 10
379.006168478635
 20
-50.577084700950479
 30
0.0
 11
365.56173095680248
 21
-60.933102261849619
 31
0.0
1001
ACAD
1010
0.0
1020
0.0
1030
0.0
  0
LINE
  5
8DD
  8
0
 10
365.64778207607918
 20
-48.843659559788136
 30
0.0
 11
353.46800916208628
 21
-58.225527858870521
 31
0.0
1001
ACAD
1010
0.0
1020
0.0
1030
0.0
  0
ENDSEC
  0
EOF
