  0
SECTION
  2
HEADER
  9
$ACADVER
  1
AC1009
  9
$INSBASE
 10
0.0
 20
0.0
 30
0.0
  9
$EXTMIN
 10
-386.87465572870752
 20
-286.47595768204889
 30
-0.0015258207003583
  9
$EXTMAX
 10
395.5746749691794
 20
444.11439087424537
 30
0.0000000349246037
  9
$LIMMIN
 10
0.0
 20
0.0
  9
$LIMMAX
 10
12.0
 20
9.0
  9
$ORTHOMODE
 70
     0
  9
$REGENMODE
 70
     1
  9
$FILLMODE
 70
     1
  9
$QTEXTMODE
 70
     0
  9
$MIRRTEXT
 70
     0
  9
$DRAGMODE
 70
     2
  9
$LTSCALE
 40
0.2
  9
$OSMODE
 70
     0
  9
$ATTMODE
 70
     1
  9
$TEXTSIZE
 40
25.0
  9
$TRACEWID
 40
0.05
  9
$TEXTSTYLE
  7
ARIAL
  9
$CLAYER
  8
0
  9
$CELTYPE
  6
CONTINUOUS
  9
$CECOLOR
 62
   256
  9
$DIMSCALE
 40
5.0
  9
$DIMASZ
 40
2.0
  9
$DIMEXO
 40
2.0
  9
$DIMDLI
 40
6.0
  9
$DIMRND
 40
0.0
  9
$DIMDLE
 40
2.0
  9
$DIMEXE
 40
2.0
  9
$DIMTP
 40
0.0
  9
$DIMTM
 40
0.0
  9
$DIMTXT
 40
2.0
  9
$DIMCEN
 40
2.0
  9
$DIMTSZ
 40
0.0
  9
$DIMTOL
 70
     0
  9
$DIMLIM
 70
     0
  9
$DIMTIH
 70
     0
  9
$DIMTOH
 70
     0
  9
$DIMSE1
 70
     0
  9
$DIMSE2
 70
     0
  9
$DIMTAD
 70
     1
  9
$DIMZIN
 70
     0
  9
$DIMBLK
  1
ARCHTICK
  9
$DIMASO
 70
     1
  9
$DIMSHO
 70
     1
  9
$DIMPOST
  1

  9
$DIMAPOST
  1

  9
$DIMALT
 70
     0
  9
$DIMALTD
 70
     2
  9
$DIMALTF
 40
0.0394
  9
$DIMLFAC
 40
1.0
  9
$DIMTOFL
 70
     0
  9
$DIMTVP
 40
0.0
  9
$DIMTIX
 70
     0
  9
$DIMSOXD
 70
     0
  9
$DIMSAH
 70
     0
  9
$DIMBLK1
  1

  9
$DIMBLK2
  1

  9
$DIMSTYLE
  2
1_TO_5
  9
$DIMCLRD
 70
   256
  9
$DIMCLRE
 70
   256
  9
$DIMCLRT
 70
   256
  9
$DIMTFAC
 40
1.0
  9
$DIMGAP
 40
1.0
  9
$LUNITS
 70
     2
  9
$LUPREC
 70
     1
  9
$SKETCHINC
 40
0.1
  9
$FILLETRAD
 40
0.0
  9
$AUNITS
 70
     1
  9
$AUPREC
 70
     4
  9
$MENU
  1
.
  9
$ELEVATION
 40
0.0
  9
$PELEVATION
 40
0.0
  9
$THICKNESS
 40
0.0
  9
$LIMCHECK
 70
     0
  9
$BLIPMODE
 70
     0
  9
$CHAMFERA
 40
0.0
  9
$CHAMFERB
 40
0.0
  9
$SKPOLY
 70
     0
  9
$TDCREATE
 40
2452152.65359294
  9
$TDUPDATE
 40
2455419.5926689589
  9
$TDINDWG
 40
25.8501235417
  9
$TDUSRTIMER
 40
25.8501235417
  9
$USRTIMER
 70
     1
  9
$ANGBASE
 50
0.0
  9
$ANGDIR
 70
     0
  9
$PDMODE
 70
     0
  9
$PDSIZE
 40
0.0
  9
$PLINEWID
 40
0.0
  9
$COORDS
 70
     1
  9
$SPLFRAME
 70
     0
  9
$SPLINETYPE
 70
     6
  9
$SPLINESEGS
 70
     8
  9
$ATTDIA
 70
     0
  9
$ATTREQ
 70
     0
  9
$HANDLING
 70
     1
  9
$HANDSEED
  5
8D2
  9
$SURFTAB1
 70
     6
  9
$SURFTAB2
 70
     6
  9
$SURFTYPE
 70
     6
  9
$SURFU
 70
     6
  9
$SURFV
 70
     6
  9
$UCSNAME
  2

  9
$UCSORG
 10
0.0
 20
0.0
 30
0.0
  9
$UCSXDIR
 10
1.0
 20
0.0
 30
0.0
  9
$UCSYDIR
 10
0.0
 20
1.0
 30
0.0
  9
$PUCSNAME
  2

  9
$PUCSORG
 10
0.0
 20
0.0
 30
0.0
  9
$PUCSXDIR
 10
1.0
 20
0.0
 30
0.0
  9
$PUCSYDIR
 10
0.0
 20
1.0
 30
0.0
  9
$USERI1
 70
     0
  9
$USERI2
 70
     0
  9
$USERI3
 70
     0
  9
$USERI4
 70
     0
  9
$USERI5
 70
     0
  9
$USERR1
 40
0.0
  9
$USERR2
 40
0.0
  9
$USERR3
 40
0.0
  9
$USERR4
 40
0.0
  9
$USERR5
 40
0.0
  9
$WORLDVIEW
 70
     1
  9
$SHADEDGE
 70
     3
  9
$SHADEDIF
 70
    70
  9
$TILEMODE
 70
     1
  9
$MAXACTVP
 70
    48
  9
$PLIMCHECK
 70
     0
  9
$PEXTMIN
 10
0.0
 20
0.0
 30
0.0
  9
$PEXTMAX
 10
208.41041893864801
 20
295.40953368001158
 30
0.0
  9
$PLIMMIN
 10
-0.793749988079071
 20
-0.793749988079071
  9
$PLIMMAX
 10
209.2062500119209
 20
296.20625001192087
  9
$UNITMODE
 70
     0
  9
$VISRETAIN
 70
     1
  9
$PLINEGEN
 70
     1
  9
$PSLTSCALE
 70
     1
  0
ENDSEC
  0
SECTION
  2
TABLES
  0
TABLE
  2
VPORT
 70
     1
  0
VPORT
  2
*ACTIVE
 70
     0
 10
0.0
 20
0.0
 11
1.0
 21
1.0
 12
4.3500096202359941
 22
78.819216596098272
 13
0.0
 23
0.0
 14
1.0
 24
1.0
 15
50.0
 25
50.0
 16
0.0
 26
0.0
 36
1.0
 17
0.0
 27
0.0
 37
0.0
 40
736.72976325004447
 41
1.978962131837307
 42
50.0
 43
0.0
 44
0.0
 50
0.0
 51
0.0
 71
     0
 72
 20000
 73
     1
 74
     3
 75
     0
 76
     0
 77
     0
 78
     0
  0
ENDTAB
  0
TABLE
  2
LTYPE
 70
     4
  0
LTYPE
  2
CONTINUOUS
 70
     0
  3
Solid line
 72
    65
 73
     0
 40
0.0
  0
LTYPE
  2
EURO_COMMON_RIDGE-APEX$0$H
 70
     0
  3
Hidden __ __ __ __ __ __ __ __ __ __ __ __ __ __
 72
    65
 73
     2
 40
9.5249999999999986
 49
6.3499999999999988
 49
-3.1749999999999989
  0
LTYPE
  2
EURO_COMMON_RIDGE-APEX$0$0
 70
     0
  3
_ _ _ _ _ _ _ _ _ _ _ _ _ _ _ _ _ _ _ _ _ _ _ _
 72
    65
 73
     2
 40
4.7619999999999987
 49
3.1749999999999989
 49
-1.5869999999999991
  0
ENDTAB
  0
TABLE
  2
LAYER
 70
    11
  0
LAYER
  2
0
 70
     0
 62
     7
  6
CONTINUOUS
  0
LAYER
  2
DEFPOINTS
 70
     0
 62
   211
  6
CONTINUOUS
  0
LAYER
  2
EURO_COMMON_RIDGE-APEX$0$_
 70
     0
 62
    93
  6
CONTINUOUS
  0
ENDTAB
  0
TABLE
  2
STYLE
 70
     4
  0
STYLE
  2
STANDARD
 70
     0
 40
0.0
 41
1.0
 50
0.0
 71
     0
 42
1.5
  3
romans.shx
  4

  0
STYLE
  2
ARIAL
 70
     0
 40
0.0
 41
1.0
 50
0.0
 71
     0
 42
25.0
  3
txt
  4

  0
STYLE
  2
EURO_COMMON_RIDGE-APEX$0$A
 70
     0
 40
0.0
 41
1.0
 50
0.0
 71
     0
 42
25.0
  3
txt
  4

  0
ENDTAB
  0
TABLE
  2
VIEW
 70
     2
  0
VIEW
  2
09
 70
     0
 40
2970.0
 10
19050.0
 20
1485.0
 41
2100.0
 11
0.0
 21
0.0
 31
1.0
 12
0.0
 22
0.0
 32
0.0
 42
50.0
 43
0.0
 44
0.0
 50
0.0
 71
     0
  0
VIEW
  2
COMM-04
 70
     1
 40
477.26027331217421
 10
194.21746115522001
 20
180.60494410563541
 41
755.81685306636155
 11
0.0
 21
0.0
 31
1.0
 12
0.0
 22
0.0
 32
0.0
 42
50.0
 43
0.0
 44
0.0
 50
0.0
 71
     0
  0
ENDTAB
  0
TABLE
  2
UCS
 70
     0
  0
ENDTAB
  0
TABLE
  2
APPID
 70
     9
  0
APPID
  2
ACAD
 70
     0
  0
APPID
  2
ACAD_PSEXT
 70
     0
  0
APPID
  2
ACDBDYNAMICBLOCKGUID
 70
     0
  0
APPID
  2
ACDBBLOCKREPETAG
 70
     0
  0
APPID
  2
ACAD_MLEADERVER
 70
     0
  0
APPID
  2
ACAD_EXEMPT_FROM_CAD_STANDARDS
 70
     0
  0
APPID
  2
ACADANNOTATIVE
 70
     0
  0
APPID
  2
GENIUS_GENOREF_13
 70
     0
  0
APPID
  2
CONTENTBLOCKICON
 70
     0
  0
ENDTAB
  0
TABLE
  2
DIMSTYLE
 70
     3
  0
DIMSTYLE
  2
1_TO_5
 70
     0
  3

  4

  5
ARCHTICK
  6

  7

 40
5.0
 41
2.0
 42
2.0
 43
6.0
 44
2.0
 45
0.0
 46
2.0
 47
0.0
 48
0.0
140
2.0
141
2.0
142
0.0
143
0.0394
144
1.0
145
0.0
146
1.0
147
1.0
 71
     0
 72
     0
 73
     0
 74
     0
 75
     0
 76
     0
 77
     1
 78
     0
170
     0
171
     2
172
     0
173
     0
174
     0
175
     0
176
   256
177
   256
178
   256
  0
DIMSTYLE
  2
EURO_COMMON_RIDGE-APEX$0$1
 70
     0
  3

  4

  5
EURO_COMMON_RIDGE-APEX$0$_
  6

  7

 40
5.0
 41
2.0
 42
2.0
 43
6.0
 44
2.0
 45
0.0
 46
2.0
 47
0.0
 48
0.0
140
2.0
141
2.0
142
0.0
143
0.0394
144
1.0
145
0.0
146
1.0
147
1.0
 71
     0
 72
     0
 73
     0
 74
     0
 75
     0
 76
     0
 77
     1
 78
     0
170
     0
171
     2
172
     0
173
     0
174
     0
175
     0
176
   256
177
   256
178
   256
  0
DIMSTYLE
  2
EURO_COMMON_RIDGE-APEX$0$0
 70
     0
  3

  4

  5
EURO_COMMON_RIDGE-APEX$0$_
  6

  7

 40
5.0
 41
2.0
 42
2.0
 43
6.0
 44
1.5
 45
0.0
 46
1.5
 47
0.0
 48
0.0
140
2.0
141
2.0
142
0.0
143
0.0394
144
1.0
145
0.0
146
1.0
147
1.0
 71
     0
 72
     0
 73
     0
 74
     0
 75
     0
 76
     0
 77
     0
 78
     0
170
     0
171
     2
172
     1
173
     0
174
     1
175
     0
176
     0
177
     0
178
     0
  0
ENDTAB
  0
ENDSEC
  0
SECTION
  2
BLOCKS
  0
BLOCK
  8
0
  2
$MODEL_SPACE
 70
     0
 10
0.0
 20
0.0
 30
0.0
  3
$MODEL_SPACE
  1

  0
ENDBLK
  5
17
  8
0
  0
BLOCK
 67
     1
  8
0
  2
$PAPER_SPACE
 70
     0
 10
0.0
 20
0.0
 30
0.0
  3
$PAPER_SPACE
  1

  0
ENDBLK
  5
20
 67
     1
  8
0
  0
BLOCK
  8
0
  2
_ARCHTICK
 70
     0
 10
0.0
 20
0.0
 30
0.0
  3
_ARCHTICK
  1

  0
POLYLINE
  5
82
  8
0
  6
BYBLOCK
 62
     0
 66
     1
 10
0.0
 20
0.0
 30
0.0
 40
0.15
 41
0.15
  0
VERTEX
  5
68A
  8
0
  6
BYBLOCK
 62
     0
 10
-0.5
 20
-0.5
 30
0.0
  0
VERTEX
  5
68B
  8
0
  6
BYBLOCK
 62
     0
 10
0.5
 20
0.5
 30
0.0
  0
SEQEND
  5
68C
  8
0
  6
BYBLOCK
 62
     0
  0
ENDBLK
  5
83
  8
0
  0
BLOCK
  8
0
  2
EURO_COMMON_RIDGE-APEX$0$_
 70
     0
 10
0.0
 20
0.0
 30
0.0
  3
EURO_COMMON_RIDGE-APEX$0$_
  1

  0
POLYLINE
  5
45B
  8
0
  6
BYBLOCK
 62
     0
 66
     1
 10
0.0
 20
0.0
 30
0.0
 40
0.15
 41
0.15
  0
VERTEX
  5
6AE
  8
0
  6
BYBLOCK
 62
     0
 10
-0.5
 20
-0.5
 30
0.0
  0
VERTEX
  5
6AF
  8
0
  6
BYBLOCK
 62
     0
 10
0.5
 20
0.5
 30
0.0
  0
SEQEND
  5
6B0
  8
0
  6
BYBLOCK
 62
     0
  0
ENDBLK
  5
45C
  8
0
  0
BLOCK
  8
0
  2
*D6
 70
     1
 10
0.0
 20
0.0
 30
0.0
  3
*D6
  1

  0
LINE
  5
5FF
  8
0
  6
CONTINUOUS
 10
-38.258902633009669
 20
410.28469076586288
 30
0.0
 11
-47.317569211594652
 21
444.09209468598118
 31
0.0
  0
LINE
  5
600
  8
0
  6
CONTINUOUS
 10
-183.14777657637811
 20
371.46183400049767
 30
0.0
 11
-192.20644315496301
 21
405.26923792061598
 31
0.0
  0
LINE
  5
601
  8
0
  6
CONTINUOUS
 10
-35.07012049767944
 20
437.02102687411451
 30
0.0
 11
-199.27751096682971
 21
393.02178920670082
 31
0.0
  0
INSERT
  5
602
  8
0
  6
CONTINUOUS
  2
*U29
 10
0.0
 20
0.0
 30
0.0
  0
INSERT
  5
603
  8
0
  6
CONTINUOUS
  2
EURO_COMMON_RIDGE-APEX$0$_
 10
-44.72937876057037
 20
434.43283642309029
 30
0.0
 41
10.0
 42
10.0
 43
10.0
 50
14.999999999994509
  0
INSERT
  5
604
  8
0
  6
CONTINUOUS
  2
EURO_COMMON_RIDGE-APEX$0$_
 10
-189.61825270393871
 20
395.60997965772498
 30
0.0
 41
10.0
 42
10.0
 43
10.0
 50
194.9999999999944
  0
POINT
  5
605
  8
DEFPOINTS
  6
CONTINUOUS
 62
     0
 10
-27.18835505736881
 20
368.96884474594691
 30
0.0
  0
POINT
  5
606
  8
DEFPOINTS
  6
CONTINUOUS
 62
     0
 10
-172.98309565858969
 20
333.52672837257097
 30
0.0
  0
POINT
  5
607
  8
DEFPOINTS
  6
CONTINUOUS
 62
     0
 10
-189.61825270393871
 20
395.60997965772498
 30
0.0
  0
ENDBLK
  5
5C0
  8
0
  0
BLOCK
  8
0
  2
*D7
 70
     1
 10
0.0
 20
0.0
 30
0.0
  3
*D7
  1

  0
LINE
  5
5F4
  8
0
  6
CONTINUOUS
 10
-12.500000000000011
 20
-26.014735007076549
 30
0.0
 11
-12.500000000000011
 21
-61.014735007076553
 31
0.0
  0
LINE
  5
5F5
  8
0
  6
CONTINUOUS
 10
12.499999999999989
 20
-26.014735007076549
 30
0.0
 11
12.49999999999998
 21
-61.014735007076553
 31
0.0
  0
LINE
  5
5F6
  8
0
  6
CONTINUOUS
 10
-22.500000000000011
 20
-51.01473500707656
 30
0.0
 11
22.499999999999989
 21
-51.01473500707656
 31
0.0
  0
LINE
  5
5F7
  8
0
  6
CONTINUOUS
 10
-0.0000000000000142
 20
-51.01473500707656
 30
0.0
 11
11.09140518417461
 21
-87.986085620991986
 31
0.0
  0
LINE
  5
5F8
  8
0
  6
CONTINUOUS
 10
11.09140518417461
 20
-87.986085620991986
 30
0.0
 11
166.07094133697129
 21
-87.986085620991986
 31
0.0
  0
INSERT
  5
5F9
  8
0
  6
CONTINUOUS
  2
*U28
 10
0.0
 20
0.0
 30
0.0
  0
INSERT
  5
5FA
  8
0
  6
CONTINUOUS
  2
EURO_COMMON_RIDGE-APEX$0$_
 10
-12.500000000000011
 20
-51.01473500707656
 30
0.0
 41
10.0
 42
10.0
 43
10.0
 50
180.0
  0
INSERT
  5
5FB
  8
0
  6
CONTINUOUS
  2
EURO_COMMON_RIDGE-APEX$0$_
 10
12.499999999999989
 20
-51.01473500707656
 30
0.0
 41
10.0
 42
10.0
 43
10.0
  0
POINT
  5
5FC
  8
DEFPOINTS
  6
CONTINUOUS
 62
     0
 10
-12.5
 20
159.70663350920401
 30
0.0
  0
POINT
  5
5FD
  8
DEFPOINTS
  6
CONTINUOUS
 62
     0
 10
12.5
 20
159.70663350920401
 30
0.0
  0
POINT
  5
5FE
  8
DEFPOINTS
  6
CONTINUOUS
 62
     0
 10
12.499999999999989
 20
-51.01473500707656
 30
0.0
  0
ENDBLK
  5
5CC
  8
0
  0
BLOCK
  8
0
  2
*U8
 70
     1
 10
0.0
 20
0.0
 30
0.0
  3
*U8
  1

  0
SOLID
  5
6B2
  8
0
  6
CONTINUOUS
 10
240.7053861919704
 20
130.15664466376921
 30
0.0
 11
232.64035895231791
 21
124.0139161656634
 31
0.0
 12
238.2772025039549
 22
132.44028979565081
 32
0.0
 13
238.2772025039549
 23
132.44028979565081
 33
0.0
  0
POLYLINE
  5
6B3
  8
0
  6
CONTINUOUS
 66
     1
 10
0.0
 20
0.0
 30
0.0
  0
VERTEX
  5
6B4
  8
0
  6
CONTINUOUS
 10
239.49129434796259
 20
131.29846722971001
 30
0.0
  0
VERTEX
  5
6B5
  8
0
  6
CONTINUOUS
 10
294.67085071649848
 20
189.9704985429189
 30
0.0
  0
VERTEX
  5
6B6
  8
0
  6
CONTINUOUS
 10
304.67085071649848
 20
189.9704985429189
 30
0.0
  0
SEQEND
  5
6B7
  8
0
  6
CONTINUOUS
  0
ENDBLK
  5
6B9
  8
0
  0
BLOCK
  8
0
  2
*U9
 70
     1
 10
0.0
 20
0.0
 30
0.0
  3
*U9
  1

  0
TEXT
  5
6BB
  8
0
  6
CONTINUOUS
 10
308.5726242499228
 20
186.35521887034039
 30
0.0
 40
10.0
  1
Roof underlay
  7
EURO_COMMON_RIDGE-APEX$0$A
  0
ENDBLK
  5
6BD
  8
0
  0
BLOCK
  8
0
  2
*U10
 70
     1
 10
0.0
 20
0.0
 30
0.0
  3
*U10
  1

  0
SOLID
  5
6BF
  8
0
  6
CONTINUOUS
 10
227.90800698116999
 20
-31.535850442416351
 30
0.0
 11
226.0221246347391
 21
-16.446335944745439
 31
0.0
 12
232.69996398871569
 22
-30.108563492348459
 32
0.0
 13
232.69996398871569
 23
-30.108563492348459
 33
0.0
  0
POLYLINE
  5
6C0
  8
0
  6
CONTINUOUS
 66
     1
 10
0.0
 20
0.0
 30
0.0
  0
VERTEX
  5
6C1
  8
0
  6
CONTINUOUS
 10
230.3039854849429
 20
-30.8222069673824
 30
0.0
  0
VERTEX
  5
6C2
  8
0
  6
CONTINUOUS
 10
266.77494909091553
 20
-153.26940626060781
 30
0.0
  0
VERTEX
  5
6C3
  8
0
  6
CONTINUOUS
 10
281.77494909091553
 20
-153.26940626060781
 30
0.0
  0
SEQEND
  5
6C4
  8
0
  6
CONTINUOUS
  0
ENDBLK
  5
6C6
  8
0
  0
BLOCK
  8
0
  2
*U11
 70
     1
 10
0.0
 20
0.0
 30
0.0
  3
*U11
  1

  0
TEXT
  5
6C8
  8
0
  6
CONTINUOUS
 10
286.44752753566308
 20
-158.18755087179471
 30
0.0
 40
10.0
  1
Truss chord
  7
EURO_COMMON_RIDGE-APEX$0$A
  0
ENDBLK
  5
6CA
  8
0
  0
BLOCK
  8
0
  2
*U12
 70
     1
 10
0.0
 20
0.0
 30
0.0
  3
*U12
  1

  0
SOLID
  5
823
  8
0
  6
CONTINUOUS
 10
98.945271745050263
 20
211.96936159472949
 30
0.0
 11
91.464689725233598
 21
205.12694459321801
 31
0.0
 12
96.321753689434829
 22
214.02563592539909
 32
0.0
 13
96.321753689434829
 23
214.02563592539909
 33
0.0
  0
POLYLINE
  5
824
  8
0
  6
CONTINUOUS
 66
     1
 10
0.0
 20
0.0
 30
0.0
  0
VERTEX
  5
825
  8
0
  6
CONTINUOUS
 10
97.633512717242525
 20
212.9974987600643
 30
0.0
  0
VERTEX
  5
826
  8
0
  6
CONTINUOUS
 10
148.61946325913769
 20
278.04843084353621
 30
0.0
  0
VERTEX
  5
827
  8
0
  6
CONTINUOUS
 10
158.6194632591378
 20
278.04843084353621
 30
0.0
  0
SEQEND
  5
828
  8
0
  6
CONTINUOUS
  0
ENDBLK
  5
82A
  8
0
  0
BLOCK
  8
0
  2
*U13
 70
     1
 10
0.0
 20
0.0
 30
0.0
  3
*U13
  1

  0
TEXT
  5
82C
  8
0
  6
CONTINUOUS
 10
162.52123679256201
 20
274.43315117095767
 30
0.0
 40
10.0
  1
Ridge flashing
  7
EURO_COMMON_RIDGE-APEX$0$A
  0
ENDBLK
  5
82E
  8
0
  0
BLOCK
  8
0
  2
*U14
 70
     1
 10
0.0
 20
0.0
 30
0.0
  3
*U14
  1

  0
SOLID
  5
830
  8
0
  6
CONTINUOUS
 10
190.00083911542171
 20
179.08193577661081
 30
0.0
 11
182.5956168833055
 21
172.1580307028284
 31
0.0
 12
187.35496599786441
 22
181.10936433438999
 32
0.0
 13
187.35496599786441
 23
181.10936433438999
 33
0.0
  0
POLYLINE
  5
831
  8
0
  6
CONTINUOUS
 66
     1
 10
0.0
 20
0.0
 30
0.0
  0
VERTEX
  5
832
  8
0
  6
CONTINUOUS
 10
188.67790255664309
 20
180.09565005550041
 30
0.0
  0
VERTEX
  5
833
  8
0
  6
CONTINUOUS
 10
231.93987477399421
 20
236.5542063203811
 30
0.0
  0
VERTEX
  5
834
  8
0
  6
CONTINUOUS
 10
241.93987477399429
 20
236.5542063203811
 30
0.0
  0
SEQEND
  5
835
  8
0
  6
CONTINUOUS
  0
ENDBLK
  5
837
  8
0
  0
BLOCK
  8
0
  2
*U15
 70
     1
 10
0.0
 20
0.0
 30
0.0
  3
*U15
  1

  0
TEXT
  5
839
  8
0
  6
CONTINUOUS
 10
245.8348270250174
 20
231.63606170919419
 30
0.0
 40
10.0
  1
Euroline
  7
EURO_COMMON_RIDGE-APEX$0$A
  0
ENDBLK
  5
83B
  8
0
  0
BLOCK
  8
0
  2
*U16
 70
     1
 10
0.0
 20
0.0
 30
0.0
  3
*U16
  1

  0
SOLID
  5
83D
  8
0
  6
CONTINUOUS
 10
-9.4541412654966273
 20
209.7391358267088
 30
0.0
 11
-16.64685702960923
 21
202.5947241844205
 31
0.0
 12
-12.16004319078538
 22
211.68572409386491
 32
0.0
 13
-12.16004319078538
 23
211.68572409386491
 33
0.0
  0
POLYLINE
  5
83E
  8
0
  6
CONTINUOUS
 66
     1
 10
0.0
 20
0.0
 30
0.0
  0
VERTEX
  5
83F
  8
0
  6
CONTINUOUS
 10
-10.807092228141
 20
210.71242996028681
 30
0.0
  0
VERTEX
  5
840
  8
0
  6
CONTINUOUS
 10
112.52499024034481
 20
382.1531629761659
 30
0.0
  0
VERTEX
  5
841
  8
0
  6
CONTINUOUS
 10
122.52499024034471
 20
382.1531629761659
 30
0.0
  0
SEQEND
  5
842
  8
0
  6
CONTINUOUS
  0
ENDBLK
  5
844
  8
0
  0
BLOCK
  8
0
  2
*U17
 70
     1
 10
0.0
 20
0.0
 30
0.0
  3
*U17
  1

  0
TEXT
  5
846
  8
0
  6
CONTINUOUS
 10
126.8974322594443
 20
375.35680019590808
 30
0.0
 40
10.0
  1
Stop ended trays
  7
EURO_COMMON_RIDGE-APEX$0$A
  0
ENDBLK
  5
848
  8
0
  0
BLOCK
  8
0
  2
*U18
 70
     1
 10
0.0
 20
0.0
 30
0.0
  3
*U18
  1

  0
SOLID
  5
84A
  8
0
  6
CONTINUOUS
 10
-209.4291737188704
 20
124.70760971669191
 30
0.0
 11
-204.9820407425614
 21
115.59713299651951
 31
0.0
 12
-212.1435373591259
 22
122.7728381178796
 32
0.0
 13
-212.1435373591259
 23
122.7728381178796
 33
0.0
  0
POLYLINE
  5
84B
  8
0
  6
CONTINUOUS
 66
     1
 10
0.0
 20
0.0
 30
0.0
  0
VERTEX
  5
84C
  8
0
  6
CONTINUOUS
 10
-210.78635553899821
 20
123.7402239172858
 30
0.0
  0
VERTEX
  5
84D
  8
0
  6
CONTINUOUS
 10
-275.94231341718478
 20
215.14996092145341
 30
0.0
  0
VERTEX
  5
84E
  8
0
  6
CONTINUOUS
 10
-285.94231341718478
 20
215.14996092145341
 30
0.0
  0
SEQEND
  5
84F
  8
0
  6
CONTINUOUS
  0
ENDBLK
  5
851
  8
0
  0
BLOCK
  8
0
  2
*U19
 70
     1
 10
0.0
 20
0.0
 30
0.0
  3
*U19
  1

  0
TEXT
  5
853
  8
0
  6
CONTINUOUS
 10
-342.73631068867178
 20
211.61994727888859
 30
0.0
 40
10.0
  1
Plywood
  7
EURO_COMMON_RIDGE-APEX$0$A
  0
ENDBLK
  5
855
  8
0
  0
BLOCK
  8
0
  2
*U20
 70
     1
 10
0.0
 20
0.0
 30
0.0
  3
*U20
  1

  0
SOLID
  5
867
  8
0
  6
CONTINUOUS
 10
25.341489593428509
 20
190.25601520704981
 30
0.0
 11
18.323428514804618
 21
182.93996460071301
 31
0.0
 12
22.589361770907139
 22
192.13668092950431
 32
0.0
 13
22.589361770907139
 23
192.13668092950431
 33
0.0
  0
POLYLINE
  5
868
  8
0
  6
CONTINUOUS
 66
     1
 10
0.0
 20
0.0
 30
0.0
  0
VERTEX
  5
869
  8
0
  6
CONTINUOUS
 10
23.965425682167819
 20
191.19634806827699
 30
0.0
  0
VERTEX
  5
86A
  8
0
  6
CONTINUOUS
 10
118.6486900679629
 20
329.75390411455669
 30
0.0
  0
VERTEX
  5
86B
  8
0
  6
CONTINUOUS
 10
128.64869006796289
 20
329.75390411455669
 30
0.0
  0
SEQEND
  5
86C
  8
0
  6
CONTINUOUS
  0
ENDBLK
  5
86E
  8
0
  0
BLOCK
  8
0
  2
*U21
 70
     1
 10
0.0
 20
0.0
 30
0.0
  3
*U21
  1

  0
TEXT
  5
870
  8
0
  6
CONTINUOUS
 10
132.55046360138721
 20
331.46140672765961
 30
0.0
 40
10.0
  1
Underlay to be stopped short
  7
EURO_COMMON_RIDGE-APEX$0$A
  0
TEXT
  5
871
  8
0
  6
CONTINUOUS
 10
132.8028510502275
 20
314.62420800096561
 30
0.0
 40
10.0
  1
(not continuous over ridge)
  7
EURO_COMMON_RIDGE-APEX$0$A
  0
ENDBLK
  5
873
  8
0
  0
BLOCK
  8
0
  2
*U22
 70
     1
 10
0.0
 20
0.0
 30
0.0
  3
*U22
  1

  0
SOLID
  5
875
  8
0
  6
CONTINUOUS
 10
-139.9654800533356
 20
202.4332794023392
 30
0.0
 11
-135.5183470770265
 21
193.32280268216681
 31
0.0
 12
-142.67984369359101
 22
200.49850780352691
 32
0.0
 13
-142.67984369359101
 23
200.49850780352691
 33
0.0
  0
POLYLINE
  5
876
  8
0
  6
CONTINUOUS
 66
     1
 10
0.0
 20
0.0
 30
0.0
  0
VERTEX
  5
877
  8
0
  6
CONTINUOUS
 10
-141.32266187346329
 20
201.46589360293299
 30
0.0
  0
VERTEX
  5
878
  8
0
  6
CONTINUOUS
 10
-205.8665856130865
 20
292.01698495955679
 30
0.0
  0
VERTEX
  5
879
  8
0
  6
CONTINUOUS
 10
-215.8665856130865
 20
292.01698495955679
 30
0.0
  0
SEQEND
  5
87A
  8
0
  6
CONTINUOUS
  0
ENDBLK
  5
87C
  8
0
  0
BLOCK
  8
0
  2
*U23
 70
     1
 10
0.0
 20
0.0
 30
0.0
  3
*U23
  1

  0
TEXT
  5
87E
  8
0
  6
CONTINUOUS
 10
-303.02211085183143
 20
288.40170528697831
 30
0.0
 40
10.0
  1
Grab flashing
  7
EURO_COMMON_RIDGE-APEX$0$A
  0
ENDBLK
  5
880
  8
0
  0
BLOCK
  8
0
  2
*U24
 70
     1
 10
0.0
 20
0.0
 30
0.0
  3
*U24
  1

  0
SOLID
  5
882
  8
0
  6
CONTINUOUS
 10
-115.6513317465637
 20
208.4416588624519
 30
0.0
 11
-110.9611200197582
 21
199.45390654412921
 31
0.0
 12
-118.31275348619241
 22
206.43468466357859
 32
0.0
 13
-118.31275348619241
 23
206.43468466357859
 33
0.0
  0
POLYLINE
  5
883
  8
0
  6
CONTINUOUS
 66
     1
 10
0.0
 20
0.0
 30
0.0
  0
VERTEX
  5
884
  8
0
  6
CONTINUOUS
 10
-116.982042616378
 20
207.4381717630153
 30
0.0
  0
VERTEX
  5
885
  8
0
  6
CONTINUOUS
 10
-205.8665856130865
 20
325.306779730774
 30
0.0
  0
VERTEX
  5
886
  8
0
  6
CONTINUOUS
 10
-215.8665856130865
 20
325.306779730774
 30
0.0
  0
SEQEND
  5
887
  8
0
  6
CONTINUOUS
  0
ENDBLK
  5
889
  8
0
  0
BLOCK
  8
0
  2
*U25
 70
     1
 10
0.0
 20
0.0
 30
0.0
  3
*U25
  1

  0
TEXT
  5
88B
  8
0
  6
CONTINUOUS
 10
-252.59237006056259
 20
320.38863511958721
 30
0.0
 40
10.0
  1
Rivet
  7
EURO_COMMON_RIDGE-APEX$0$A
  0
ENDBLK
  5
88D
  8
0
  0
BLOCK
  8
0
  2
*U26
 70
     1
 10
0.0
 20
0.0
 30
0.0
  3
*U26
  1

  0
TEXT
  5
88F
  8
0
  6
CONTINUOUS
 10
-310.78381697490261
 20
-233.15216421353699
 30
0.0
 40
10.0
  1
Note:
  7
EURO_COMMON_RIDGE-APEX$0$A
  0
TEXT
  5
890
  8
0
  6
CONTINUOUS
 10
-310.8656723637157
 20
-249.9893629402309
 30
0.0
 40
10.0
  1
For installation of ply refer to ecoply: Structural
  7
EURO_COMMON_RIDGE-APEX$0$A
  0
TEXT
  5
891
  8
0
  6
CONTINUOUS
 10
-310.79745953970479
 20
-266.65602960689762
 30
0.0
 40
10.0
  1
Plywood Properties and Applications Manual
  7
EURO_COMMON_RIDGE-APEX$0$A
  0
TEXT
  5
892
  8
0
  6
CONTINUOUS
 10
-310.22447181801311
 20
-283.49322833359162
 30
0.0
 40
10.0
  1
available from www.ecoply.co.nz
  7
EURO_COMMON_RIDGE-APEX$0$A
  0
ENDBLK
  5
894
  8
0
  0
BLOCK
  8
0
  2
*U27
 70
     1
 10
0.0
 20
0.0
 30
0.0
  3
*U27
  1

  0
TEXT
  5
8B1
  8
0
  6
CONTINUOUS
 10
-310.43656207366979
 20
-132.48162194188811
 30
0.0
 40
10.0
  1
* 150mm for low medium high wind zones where pitch >
  7
EURO_COMMON_RIDGE-APEX$0$A
  0
TEXT
  5
8B2
  8
0
  6
CONTINUOUS
 10
-311.5211459754434
 20
-149.31882066858211
 30
0.0
 40
10.0
  1
10° 200mm for very high windzones and all windzones
  7
EURO_COMMON_RIDGE-APEX$0$A
  0
TEXT
  5
8B3
  8
0
  6
CONTINUOUS
 10
-310.12960436562082
 20
-166.15601939527599
 30
0.0
 40
10.0
  1
for pitches <10°
  7
EURO_COMMON_RIDGE-APEX$0$A
  0
ENDBLK
  5
8B5
  8
0
  0
BLOCK
  8
0
  2
*U28
 70
     1
 10
0.0
 20
0.0
 30
0.0
  3
*U28
  1

  0
TEXT
  5
8CB
  8
0
  6
CONTINUOUS
 10
15.682128240109121
 20
-80.025649058918304
 30
0.0
 40
10.0
  1
25mm minimum air gap
  7
EURO_COMMON_RIDGE-APEX$0$A
  0
ENDBLK
  5
8CD
  8
0
  0
BLOCK
  8
0
  2
*U29
 70
     1
 10
0.0
 20
0.0
 30
0.0
  3
*U29
  1

  0
TEXT
  5
8CF
  8
0
  6
CONTINUOUS
 10
-143.0820541032106
 20
413.45343090696912
 30
0.0
 40
10.0
  1
150mm *
 50
14.99999999999447
  7
EURO_COMMON_RIDGE-APEX$0$A
  0
ENDBLK
  5
8D1
  8
0
  0
ENDSEC
  0
SECTION
  2
ENTITIES
  0
LINE
  5
523
  8
0
  6
CONTINUOUS
 10
-379.9820870004678
 20
15.687953126482149
 30
0.0
 11
0.0
 21
117.5038464765493
 31
0.0
  0
INSERT
  5
524
  8
0
  6
CONTINUOUS
  2
*U8
 10
0.0
 20
0.0
 30
0.0
1001
ACAD
1000
DSTYLE
1002
{
1070
   176
1070
   256
1002
}
  0
INSERT
  5
525
  8
0
  6
CONTINUOUS
  2
*U9
 10
0.0
 20
0.0
 30
0.0
  0
INSERT
  5
526
  8
0
  6
CONTINUOUS
  2
*U10
 10
0.0
 20
0.0
 30
0.0
1001
ACAD
1000
DSTYLE
1002
{
1070
   176
1070
   256
1070
    41
1040
3.0
1070
   341
1005
0
1002
}
  0
INSERT
  5
527
  8
0
  6
CONTINUOUS
  2
*U11
 10
0.0
 20
0.0
 30
0.0
  0
POLYLINE
  5
528
  8
0
  6
CONTINUOUS
 66
     1
 10
0.0
 20
0.0
 30
0.0
 70
   128
  0
VERTEX
  5
6CB
  8
0
  6
CONTINUOUS
 10
-379.9820870004678
 20
-87.839664914526125
 30
0.0
  0
VERTEX
  5
6CC
  8
0
  6
CONTINUOUS
 10
0.0000000000000002
 20
13.97622843554289
 30
0.0
  0
SEQEND
  5
6CD
  8
0
  6
CONTINUOUS
  0
POLYLINE
  5
529
  8
0
  6
CONTINUOUS
 66
     1
 10
0.0
 20
0.0
 30
0.0
  0
VERTEX
  5
52A
  8
0
  6
CONTINUOUS
 10
-379.9820870004678
 20
21.71172469093926
 30
0.0
  0
VERTEX
  5
52B
  8
0
  6
CONTINUOUS
 10
-379.9820870004678
 20
-45.052084329565332
 30
0.0
  0
VERTEX
  5
52C
  8
0
  6
CONTINUOUS
 10
-386.85078054910809
 20
-47.552084329565332
 30
0.0
  0
VERTEX
  5
52D
  8
0
  6
CONTINUOUS
 10
-373.11339345182751
 20
-52.552084329565332
 30
0.0
  0
VERTEX
  5
52E
  8
0
  6
CONTINUOUS
 10
-379.9820870004678
 20
-55.052084329565332
 30
0.0
  0
VERTEX
  5
52F
  8
0
  6
CONTINUOUS
 10
-379.9820870004678
 20
-121.815893350069
 30
0.0
  0
SEQEND
  5
530
  8
0
  6
CONTINUOUS
  0
LINE
  5
531
  8
0
  6
CONTINUOUS
 10
378.15257288681818
 20
16.178169955776848
 30
0.0
 11
0.0
 21
117.5038464765493
 31
0.0
  0
POLYLINE
  5
532
  8
0
  6
CONTINUOUS
 66
     1
 10
0.0
 20
0.0
 30
0.0
 70
   128
  0
VERTEX
  5
6CE
  8
0
  6
CONTINUOUS
 10
378.15257288681818
 20
-87.349448085231444
 30
0.0
  0
VERTEX
  5
6CF
  8
0
  6
CONTINUOUS
 10
0.0
 20
13.97622843554289
 30
0.0
  0
SEQEND
  5
6D0
  8
0
  6
CONTINUOUS
  0
POLYLINE
  5
533
  8
0
  6
CONTINUOUS
 66
     1
 10
0.0
 20
0.0
 30
0.0
  0
VERTEX
  5
534
  8
0
  6
CONTINUOUS
 10
378.15257288681818
 20
22.201941520233959
 30
0.0
  0
VERTEX
  5
535
  8
0
  6
CONTINUOUS
 10
378.15257288681818
 20
-44.561867500270637
 30
0.0
  0
VERTEX
  5
536
  8
0
  6
CONTINUOUS
 10
385.02126643545859
 20
-47.061867500270637
 30
0.0
  0
VERTEX
  5
537
  8
0
  6
CONTINUOUS
 10
371.28387933817788
 20
-52.061867500270637
 30
0.0
  0
VERTEX
  5
538
  8
0
  6
CONTINUOUS
 10
378.15257288681818
 20
-54.561867500270637
 30
0.0
  0
VERTEX
  5
539
  8
0
  6
CONTINUOUS
 10
378.15257288681818
 20
-121.32567652077429
 30
0.0
  0
SEQEND
  5
53A
  8
0
  6
CONTINUOUS
  0
LINE
  5
53B
  8
0
  6
CONTINUOUS
 10
0.0
 20
13.97622843554289
 30
0.0
 11
0.0
 21
20.957809608922599
 31
0.0
  0
POLYLINE
  5
53C
  8
0
 66
     1
 10
0.0
 20
0.0
 30
0.0
 70
   129
  0
VERTEX
  5
6D1
  8
0
 10
-102.0
 20
20.957809608922599
 30
0.0
  0
VERTEX
  5
6D2
  8
0
 10
102.0
 20
20.957809608922599
 30
0.0
  0
VERTEX
  5
6D3
  8
0
 10
102.0
 20
80.957809608922616
 30
0.0
  0
VERTEX
  5
6D4
  8
0
 10
-102.0
 20
80.957809608922616
 30
0.0
  0
SEQEND
  5
6D5
  8
0
  0
POLYLINE
  5
53D
  8
0
 66
     1
 10
0.0
 20
0.0
 30
0.0
 70
   129
  0
VERTEX
  5
6D6
  8
0
 10
-93.0
 20
27.55780960892297
 30
0.0
  0
VERTEX
  5
6D7
  8
0
 10
-75.0
 20
27.557809608923868
 30
0.0
 42
0.4142135623730951
  0
VERTEX
  5
6D8
  8
0
 10
-73.199999999998909
 20
29.357809608923152
 30
0.0
  0
VERTEX
  5
6D9
  8
0
 10
-73.199999999998909
 20
29.357809608923152
 30
0.0
 42
0.4142135623730882
  0
VERTEX
  5
6DA
  8
0
 10
-75.0
 20
31.15780960892333
 30
0.0
  0
VERTEX
  5
6DB
  8
0
 10
-93.0
 20
31.15780960892333
 30
0.0
 42
0.4142135623730947
  0
VERTEX
  5
6DC
  8
0
 10
-94.799999999999272
 20
29.357809608923152
 30
0.0
  0
VERTEX
  5
6DD
  8
0
 10
-94.799999999999272
 20
29.357809608923152
 30
0.0
 42
0.4142135623730996
  0
SEQEND
  5
6DE
  8
0
  0
POLYLINE
  5
53E
  8
0
 66
     1
 10
0.0
 20
0.0
 30
0.0
 70
   129
  0
VERTEX
  5
6DF
  8
0
 10
-93.0
 20
38.357809608923148
 30
0.0
  0
VERTEX
  5
6E0
  8
0
 10
-74.999999999998181
 20
38.357809608924057
 30
0.0
 42
0.4142135623730951
  0
VERTEX
  5
6E1
  8
0
 10
-73.199999999998909
 20
40.15780960892333
 30
0.0
  0
VERTEX
  5
6E2
  8
0
 10
-73.199999999998909
 20
40.15780960892333
 30
0.0
 42
0.4142135623730882
  0
VERTEX
  5
6E3
  8
0
 10
-74.999999999998181
 20
41.957809608923512
 30
0.0
  0
VERTEX
  5
6E4
  8
0
 10
-93.0
 20
41.957809608923512
 30
0.0
 42
0.4142135623730947
  0
VERTEX
  5
6E5
  8
0
 10
-94.799999999999272
 20
40.15780960892333
 30
0.0
  0
VERTEX
  5
6E6
  8
0
 10
-94.799999999999272
 20
40.15780960892333
 30
0.0
 42
0.4142135623730996
  0
SEQEND
  5
6E7
  8
0
  0
POLYLINE
  5
53F
  8
0
 66
     1
 10
0.0
 20
0.0
 30
0.0
 70
   129
  0
VERTEX
  5
6E8
  8
0
 10
-92.999999999998167
 20
49.15780960892333
 30
0.0
  0
VERTEX
  5
6E9
  8
0
 10
-74.999999999998181
 20
49.15780960892333
 30
0.0
 42
0.4142135623730951
  0
VERTEX
  5
6EA
  8
0
 10
-73.199999999998909
 20
50.957809608923512
 30
0.0
  0
VERTEX
  5
6EB
  8
0
 10
-73.199999999998909
 20
50.957809608923512
 30
0.0
 42
0.4142135623730882
  0
VERTEX
  5
6EC
  8
0
 10
-74.999999999998181
 20
52.757809608923687
 30
0.0
  0
VERTEX
  5
6ED
  8
0
 10
-92.999999999998167
 20
52.757809608923687
 30
0.0
 42
0.4142135623730947
  0
VERTEX
  5
6EE
  8
0
 10
-94.799999999999272
 20
50.957809608923512
 30
0.0
  0
VERTEX
  5
6EF
  8
0
 10
-94.799999999999272
 20
50.957809608923512
 30
0.0
 42
0.4142135623730996
  0
SEQEND
  5
6F0
  8
0
  0
POLYLINE
  5
540
  8
0
 66
     1
 10
0.0
 20
0.0
 30
0.0
 70
   129
  0
VERTEX
  5
6F1
  8
0
 10
-92.999999999998167
 20
59.957809608923512
 30
0.0
  0
VERTEX
  5
6F2
  8
0
 10
-74.999999999998181
 20
59.957809608923512
 30
0.0
 42
0.4142135623730951
  0
VERTEX
  5
6F3
  8
0
 10
-73.199999999998909
 20
61.757809608923687
 30
0.0
  0
VERTEX
  5
6F4
  8
0
 10
-73.199999999998909
 20
61.757809608923687
 30
0.0
 42
0.4142135623730882
  0
VERTEX
  5
6F5
  8
0
 10
-74.999999999998181
 20
63.557809608923883
 30
0.0
  0
VERTEX
  5
6F6
  8
0
 10
-92.999999999998167
 20
63.557809608922959
 30
0.0
 42
0.4142135623730947
  0
VERTEX
  5
6F7
  8
0
 10
-94.799999999999272
 20
61.757809608923687
 30
0.0
  0
VERTEX
  5
6F8
  8
0
 10
-94.799999999999272
 20
61.757809608923687
 30
0.0
 42
0.4142135623730996
  0
SEQEND
  5
6F9
  8
0
  0
POLYLINE
  5
541
  8
0
 66
     1
 10
0.0
 20
0.0
 30
0.0
 70
   129
  0
VERTEX
  5
6FA
  8
0
 10
-92.999999999998167
 20
70.757809608923694
 30
0.0
  0
VERTEX
  5
6FB
  8
0
 10
-74.999999999998181
 20
70.757809608923694
 30
0.0
 42
0.4142135623730951
  0
VERTEX
  5
6FC
  8
0
 10
-73.199999999998909
 20
72.557809608923876
 30
0.0
  0
VERTEX
  5
6FD
  8
0
 10
-73.199999999998909
 20
72.557809608923876
 30
0.0
 42
0.4142135623730882
  0
VERTEX
  5
6FE
  8
0
 10
-74.999999999998181
 20
74.357809608924043
 30
0.0
  0
VERTEX
  5
6FF
  8
0
 10
-92.999999999998167
 20
74.357809608923148
 30
0.0
 42
0.4142135623730947
  0
VERTEX
  5
700
  8
0
 10
-94.799999999999272
 20
72.557809608923876
 30
0.0
  0
VERTEX
  5
701
  8
0
 10
-94.799999999999272
 20
72.557809608923876
 30
0.0
 42
0.4142135623730996
  0
SEQEND
  5
702
  8
0
  0
POLYLINE
  5
542
  8
0
 66
     1
 10
0.0
 20
0.0
 30
0.0
 70
   129
  0
VERTEX
  5
703
  8
0
 10
-68.999999999998181
 20
32.957809608923512
 30
0.0
  0
VERTEX
  5
704
  8
0
 10
-50.999999999998181
 20
32.957809608923512
 30
0.0
 42
0.4142135623730951
  0
VERTEX
  5
705
  8
0
 10
-49.199999999998909
 20
34.757809608923687
 30
0.0
  0
VERTEX
  5
706
  8
0
 10
-49.199999999998909
 20
34.757809608923687
 30
0.0
 42
0.4142135623730882
  0
VERTEX
  5
707
  8
0
 10
-50.999999999998181
 20
36.557809608923883
 30
0.0
  0
VERTEX
  5
708
  8
0
 10
-68.999999999998181
 20
36.557809608923883
 30
0.0
 42
0.4142135623730947
  0
VERTEX
  5
709
  8
0
 10
-70.799999999999272
 20
34.757809608923687
 30
0.0
  0
VERTEX
  5
70A
  8
0
 10
-70.799999999999272
 20
34.757809608923687
 30
0.0
 42
0.4142135623730996
  0
SEQEND
  5
70B
  8
0
  0
POLYLINE
  5
543
  8
0
 66
     1
 10
0.0
 20
0.0
 30
0.0
 70
   129
  0
VERTEX
  5
70C
  8
0
 10
-68.999999999998181
 20
43.757809608923687
 30
0.0
  0
VERTEX
  5
70D
  8
0
 10
-50.999999999998181
 20
43.757809608923687
 30
0.0
 42
0.4142135623730951
  0
VERTEX
  5
70E
  8
0
 10
-49.199999999998909
 20
45.557809608923868
 30
0.0
  0
VERTEX
  5
70F
  8
0
 10
-49.199999999998909
 20
45.557809608923868
 30
0.0
 42
0.4142135623730882
  0
VERTEX
  5
710
  8
0
 10
-50.999999999998181
 20
47.35780960892405
 30
0.0
  0
VERTEX
  5
711
  8
0
 10
-68.999999999998181
 20
47.357809608923148
 30
0.0
 42
0.4142135623730947
  0
VERTEX
  5
712
  8
0
 10
-70.799999999999272
 20
45.557809608923868
 30
0.0
  0
VERTEX
  5
713
  8
0
 10
-70.799999999999272
 20
45.557809608923868
 30
0.0
 42
0.4142135623730996
  0
SEQEND
  5
714
  8
0
  0
POLYLINE
  5
544
  8
0
 66
     1
 10
0.0
 20
0.0
 30
0.0
 70
   129
  0
VERTEX
  5
715
  8
0
 10
-68.999999999998181
 20
54.557809608923868
 30
0.0
  0
VERTEX
  5
716
  8
0
 10
-50.999999999998181
 20
54.557809608923868
 30
0.0
 42
0.4142135623730951
  0
VERTEX
  5
717
  8
0
 10
-49.199999999998909
 20
56.357809608924057
 30
0.0
  0
VERTEX
  5
718
  8
0
 10
-49.199999999998909
 20
56.357809608924057
 30
0.0
 42
0.4142135623730882
  0
VERTEX
  5
719
  8
0
 10
-50.999999999998181
 20
58.157809608924239
 30
0.0
  0
VERTEX
  5
71A
  8
0
 10
-68.999999999998181
 20
58.157809608923323
 30
0.0
 42
0.4142135623730947
  0
VERTEX
  5
71B
  8
0
 10
-70.799999999999272
 20
56.357809608923148
 30
0.0
  0
VERTEX
  5
71C
  8
0
 10
-70.799999999999272
 20
56.357809608923148
 30
0.0
 42
0.4142135623730996
  0
SEQEND
  5
71D
  8
0
  0
POLYLINE
  5
545
  8
0
 66
     1
 10
0.0
 20
0.0
 30
0.0
 70
   129
  0
VERTEX
  5
71E
  8
0
 10
-68.999999999998181
 20
65.357809608924057
 30
0.0
  0
VERTEX
  5
71F
  8
0
 10
-50.999999999998181
 20
65.357809608924057
 30
0.0
 42
0.4142135623730951
  0
VERTEX
  5
720
  8
0
 10
-49.199999999998909
 20
67.157809608924225
 30
0.0
  0
VERTEX
  5
721
  8
0
 10
-49.199999999998909
 20
67.157809608924225
 30
0.0
 42
0.4142135623730882
  0
VERTEX
  5
722
  8
0
 10
-50.999999999998181
 20
68.957809608924421
 30
0.0
  0
VERTEX
  5
723
  8
0
 10
-68.999999999998181
 20
68.957809608923512
 30
0.0
 42
0.4142135623730947
  0
VERTEX
  5
724
  8
0
 10
-70.799999999999272
 20
67.15780960892333
 30
0.0
  0
VERTEX
  5
725
  8
0
 10
-70.799999999999272
 20
67.15780960892333
 30
0.0
 42
0.4142135623730996
  0
SEQEND
  5
726
  8
0
  0
POLYLINE
  5
546
  8
0
 66
     1
 10
0.0
 20
0.0
 30
0.0
 70
   129
  0
VERTEX
  5
727
  8
0
 10
-45.0
 20
27.557809608923868
 30
0.0
  0
VERTEX
  5
728
  8
0
 10
-26.999999999998181
 20
27.557809608923868
 30
0.0
 42
0.4142135623730951
  0
VERTEX
  5
729
  8
0
 10
-25.199999999998909
 20
29.357809608924061
 30
0.0
  0
VERTEX
  5
72A
  8
0
 10
-25.199999999998909
 20
29.357809608924061
 30
0.0
 42
0.4142135623730882
  0
VERTEX
  5
72B
  8
0
 10
-26.999999999998181
 20
31.157809608924239
 30
0.0
  0
VERTEX
  5
72C
  8
0
 10
-45.0
 20
31.15780960892333
 30
0.0
 42
0.4142135623730947
  0
VERTEX
  5
72D
  8
0
 10
-46.799999999999272
 20
29.357809608923152
 30
0.0
  0
VERTEX
  5
72E
  8
0
 10
-46.799999999999272
 20
29.357809608923152
 30
0.0
 42
0.4142135623730996
  0
SEQEND
  5
72F
  8
0
  0
POLYLINE
  5
547
  8
0
 66
     1
 10
0.0
 20
0.0
 30
0.0
 70
   129
  0
VERTEX
  5
730
  8
0
 10
-44.999999999998167
 20
38.357809608923148
 30
0.0
  0
VERTEX
  5
731
  8
0
 10
-26.999999999998181
 20
38.357809608924057
 30
0.0
 42
0.4142135623730951
  0
VERTEX
  5
732
  8
0
 10
-25.199999999998909
 20
40.157809608924232
 30
0.0
  0
VERTEX
  5
733
  8
0
 10
-25.199999999998909
 20
40.157809608924232
 30
0.0
 42
0.4142135623730882
  0
VERTEX
  5
734
  8
0
 10
-26.999999999998181
 20
41.957809608924421
 30
0.0
  0
VERTEX
  5
735
  8
0
 10
-44.999999999998167
 20
41.957809608923512
 30
0.0
 42
0.4142135623730947
  0
VERTEX
  5
736
  8
0
 10
-46.799999999999272
 20
40.15780960892333
 30
0.0
  0
VERTEX
  5
737
  8
0
 10
-46.799999999999272
 20
40.15780960892333
 30
0.0
 42
0.4142135623730996
  0
SEQEND
  5
738
  8
0
  0
POLYLINE
  5
548
  8
0
 66
     1
 10
0.0
 20
0.0
 30
0.0
 70
   129
  0
VERTEX
  5
739
  8
0
 10
-44.999999999998167
 20
49.15780960892333
 30
0.0
  0
VERTEX
  5
73A
  8
0
 10
-26.999999999998181
 20
49.157809608924239
 30
0.0
 42
0.4142135623730951
  0
VERTEX
  5
73B
  8
0
 10
-25.199999999998909
 20
50.957809608923512
 30
0.0
  0
VERTEX
  5
73C
  8
0
 10
-25.199999999998909
 20
50.957809608923512
 30
0.0
 42
0.4142135623730882
  0
VERTEX
  5
73D
  8
0
 10
-26.999999999998181
 20
52.757809608923687
 30
0.0
  0
VERTEX
  5
73E
  8
0
 10
-44.999999999998167
 20
52.757809608923687
 30
0.0
 42
0.4142135623730947
  0
VERTEX
  5
73F
  8
0
 10
-46.799999999999272
 20
50.957809608923512
 30
0.0
  0
VERTEX
  5
740
  8
0
 10
-46.799999999999272
 20
50.957809608923512
 30
0.0
 42
0.4142135623730996
  0
SEQEND
  5
741
  8
0
  0
POLYLINE
  5
549
  8
0
 66
     1
 10
0.0
 20
0.0
 30
0.0
 70
   129
  0
VERTEX
  5
742
  8
0
 10
-44.999999999998167
 20
59.957809608923512
 30
0.0
  0
VERTEX
  5
743
  8
0
 10
-26.999999999998181
 20
59.957809608923512
 30
0.0
 42
0.4142135623730951
  0
VERTEX
  5
744
  8
0
 10
-25.199999999998909
 20
61.757809608923687
 30
0.0
  0
VERTEX
  5
745
  8
0
 10
-25.199999999998909
 20
61.757809608923687
 30
0.0
 42
0.4142135623730882
  0
VERTEX
  5
746
  8
0
 10
-26.999999999998181
 20
63.557809608923883
 30
0.0
  0
VERTEX
  5
747
  8
0
 10
-44.999999999998167
 20
63.557809608923883
 30
0.0
 42
0.4142135623730947
  0
VERTEX
  5
748
  8
0
 10
-46.799999999999272
 20
61.757809608923687
 30
0.0
  0
VERTEX
  5
749
  8
0
 10
-46.799999999999272
 20
61.757809608923687
 30
0.0
 42
0.4142135623730996
  0
SEQEND
  5
74A
  8
0
  0
POLYLINE
  5
54A
  8
0
 66
     1
 10
0.0
 20
0.0
 30
0.0
 70
   129
  0
VERTEX
  5
74B
  8
0
 10
-44.999999999998167
 20
70.757809608923694
 30
0.0
  0
VERTEX
  5
74C
  8
0
 10
-26.999999999998181
 20
70.757809608923694
 30
0.0
 42
0.4142135623730951
  0
VERTEX
  5
74D
  8
0
 10
-25.199999999998909
 20
72.557809608923876
 30
0.0
  0
VERTEX
  5
74E
  8
0
 10
-25.199999999998909
 20
72.557809608923876
 30
0.0
 42
0.4142135623730882
  0
VERTEX
  5
74F
  8
0
 10
-26.999999999998181
 20
74.357809608924043
 30
0.0
  0
VERTEX
  5
750
  8
0
 10
-44.999999999998167
 20
74.357809608924043
 30
0.0
 42
0.4142135623730947
  0
VERTEX
  5
751
  8
0
 10
-46.799999999999272
 20
72.557809608923876
 30
0.0
  0
VERTEX
  5
752
  8
0
 10
-46.799999999999272
 20
72.557809608923876
 30
0.0
 42
0.4142135623730996
  0
SEQEND
  5
753
  8
0
  0
POLYLINE
  5
54B
  8
0
 66
     1
 10
0.0
 20
0.0
 30
0.0
 70
   129
  0
VERTEX
  5
754
  8
0
 10
-20.999999999998181
 20
32.957809608924421
 30
0.0
  0
VERTEX
  5
755
  8
0
 10
-2.999999999998181
 20
32.957809608924421
 30
0.0
 42
0.4142135623730951
  0
VERTEX
  5
756
  8
0
 10
-1.1999999999989079
 20
34.75780960892461
 30
0.0
  0
VERTEX
  5
757
  8
0
 10
-1.1999999999989079
 20
34.75780960892461
 30
0.0
 42
0.4142135623730882
  0
VERTEX
  5
758
  8
0
 10
-2.999999999998181
 20
36.557809608923883
 30
0.0
  0
VERTEX
  5
759
  8
0
 10
-20.999999999998181
 20
36.557809608923883
 30
0.0
 42
0.4142135623730947
  0
VERTEX
  5
75A
  8
0
 10
-22.799999999999269
 20
34.757809608923687
 30
0.0
  0
VERTEX
  5
75B
  8
0
 10
-22.799999999999269
 20
34.757809608923687
 30
0.0
 42
0.4142135623730996
  0
SEQEND
  5
75C
  8
0
  0
POLYLINE
  5
54C
  8
0
 66
     1
 10
0.0
 20
0.0
 30
0.0
 70
   129
  0
VERTEX
  5
75D
  8
0
 10
-20.999999999998181
 20
43.757809608923687
 30
0.0
  0
VERTEX
  5
75E
  8
0
 10
-2.999999999998181
 20
43.757809608923687
 30
0.0
 42
0.4142135623730951
  0
VERTEX
  5
75F
  8
0
 10
-1.1999999999989079
 20
45.557809608923868
 30
0.0
  0
VERTEX
  5
760
  8
0
 10
-1.1999999999989079
 20
45.557809608923868
 30
0.0
 42
0.4142135623730882
  0
VERTEX
  5
761
  8
0
 10
-2.999999999998181
 20
47.35780960892405
 30
0.0
  0
VERTEX
  5
762
  8
0
 10
-20.999999999998181
 20
47.35780960892405
 30
0.0
 42
0.4142135623730947
  0
VERTEX
  5
763
  8
0
 10
-22.799999999999269
 20
45.557809608923868
 30
0.0
  0
VERTEX
  5
764
  8
0
 10
-22.799999999999269
 20
45.557809608923868
 30
0.0
 42
0.4142135623730996
  0
SEQEND
  5
765
  8
0
  0
POLYLINE
  5
54D
  8
0
 66
     1
 10
0.0
 20
0.0
 30
0.0
 70
   129
  0
VERTEX
  5
766
  8
0
 10
-20.999999999998181
 20
54.557809608923868
 30
0.0
  0
VERTEX
  5
767
  8
0
 10
-2.999999999998181
 20
54.557809608923868
 30
0.0
 42
0.4142135623730951
  0
VERTEX
  5
768
  8
0
 10
-1.1999999999989079
 20
56.357809608924057
 30
0.0
  0
VERTEX
  5
769
  8
0
 10
-1.1999999999989079
 20
56.357809608924057
 30
0.0
 42
0.4142135623730882
  0
VERTEX
  5
76A
  8
0
 10
-2.999999999998181
 20
58.157809608924239
 30
0.0
  0
VERTEX
  5
76B
  8
0
 10
-20.999999999998181
 20
58.157809608924239
 30
0.0
 42
0.4142135623730947
  0
VERTEX
  5
76C
  8
0
 10
-22.799999999999269
 20
56.357809608924057
 30
0.0
  0
VERTEX
  5
76D
  8
0
 10
-22.799999999999269
 20
56.357809608924057
 30
0.0
 42
0.4142135623730996
  0
SEQEND
  5
76E
  8
0
  0
POLYLINE
  5
54E
  8
0
 66
     1
 10
0.0
 20
0.0
 30
0.0
 70
   129
  0
VERTEX
  5
76F
  8
0
 10
-20.999999999998181
 20
65.357809608924057
 30
0.0
  0
VERTEX
  5
770
  8
0
 10
-2.999999999998181
 20
65.357809608924057
 30
0.0
 42
0.4142135623730951
  0
VERTEX
  5
771
  8
0
 10
-1.1999999999989079
 20
67.157809608924225
 30
0.0
  0
VERTEX
  5
772
  8
0
 10
-1.1999999999989079
 20
67.157809608924225
 30
0.0
 42
0.4142135623730882
  0
VERTEX
  5
773
  8
0
 10
-2.999999999998181
 20
68.957809608924421
 30
0.0
  0
VERTEX
  5
774
  8
0
 10
-20.999999999998181
 20
68.957809608924421
 30
0.0
 42
0.4142135623730947
  0
VERTEX
  5
775
  8
0
 10
-22.79999999999745
 20
67.157809608924225
 30
0.0
  0
VERTEX
  5
776
  8
0
 10
-22.79999999999745
 20
67.157809608924225
 30
0.0
 42
0.4142135623730996
  0
SEQEND
  5
777
  8
0
  0
POLYLINE
  5
54F
  8
0
 66
     1
 10
0.0
 20
0.0
 30
0.0
 70
   129
  0
VERTEX
  5
778
  8
0
 10
3.0
 20
27.557809608923868
 30
0.0
  0
VERTEX
  5
779
  8
0
 10
21.000000000001819
 20
27.557809608923868
 30
0.0
 42
0.4142135623730951
  0
VERTEX
  5
77A
  8
0
 10
22.800000000001091
 20
29.357809608924061
 30
0.0
  0
VERTEX
  5
77B
  8
0
 10
22.800000000001091
 20
29.357809608924061
 30
0.0
 42
0.4142135623730882
  0
VERTEX
  5
77C
  8
0
 10
21.000000000001819
 20
31.157809608924239
 30
0.0
  0
VERTEX
  5
77D
  8
0
 10
3.0
 20
31.15780960892333
 30
0.0
 42
0.4142135623730947
  0
VERTEX
  5
77E
  8
0
 10
1.2000000000007269
 20
29.357809608923152
 30
0.0
  0
VERTEX
  5
77F
  8
0
 10
1.2000000000007269
 20
29.357809608924061
 30
0.0
 42
0.4142135623730996
  0
SEQEND
  5
780
  8
0
  0
POLYLINE
  5
550
  8
0
 66
     1
 10
0.0
 20
0.0
 30
0.0
 70
   129
  0
VERTEX
  5
781
  8
0
 10
3.0000000000018181
 20
38.357809608924057
 30
0.0
  0
VERTEX
  5
782
  8
0
 10
21.000000000001819
 20
38.357809608924057
 30
0.0
 42
0.4142135623730951
  0
VERTEX
  5
783
  8
0
 10
22.800000000001091
 20
40.157809608924232
 30
0.0
  0
VERTEX
  5
784
  8
0
 10
22.800000000001091
 20
40.157809608924232
 30
0.0
 42
0.4142135623730882
  0
VERTEX
  5
785
  8
0
 10
21.000000000001819
 20
41.957809608924421
 30
0.0
  0
VERTEX
  5
786
  8
0
 10
3.0000000000018181
 20
41.957809608923512
 30
0.0
 42
0.4142135623730947
  0
VERTEX
  5
787
  8
0
 10
1.2000000000007269
 20
40.15780960892333
 30
0.0
  0
VERTEX
  5
788
  8
0
 10
1.2000000000007269
 20
40.157809608924232
 30
0.0
 42
0.4142135623730996
  0
SEQEND
  5
789
  8
0
  0
POLYLINE
  5
551
  8
0
 66
     1
 10
0.0
 20
0.0
 30
0.0
 70
   129
  0
VERTEX
  5
78A
  8
0
 10
3.0000000000018181
 20
49.15780960892333
 30
0.0
  0
VERTEX
  5
78B
  8
0
 10
21.000000000001819
 20
49.157809608924239
 30
0.0
 42
0.4142135623730951
  0
VERTEX
  5
78C
  8
0
 10
22.800000000001091
 20
50.957809608923512
 30
0.0
  0
VERTEX
  5
78D
  8
0
 10
22.800000000001091
 20
50.957809608924421
 30
0.0
 42
0.4142135623730882
  0
VERTEX
  5
78E
  8
0
 10
21.000000000001819
 20
52.757809608923687
 30
0.0
  0
VERTEX
  5
78F
  8
0
 10
3.0000000000018181
 20
52.757809608923687
 30
0.0
 42
0.4142135623730947
  0
VERTEX
  5
790
  8
0
 10
1.2000000000007269
 20
50.957809608923512
 30
0.0
  0
VERTEX
  5
791
  8
0
 10
1.2000000000007269
 20
50.957809608923512
 30
0.0
 42
0.4142135623730996
  0
SEQEND
  5
792
  8
0
  0
POLYLINE
  5
552
  8
0
 66
     1
 10
0.0
 20
0.0
 30
0.0
 70
   129
  0
VERTEX
  5
793
  8
0
 10
3.0000000000018181
 20
59.957809608923512
 30
0.0
  0
VERTEX
  5
794
  8
0
 10
21.000000000001819
 20
59.957809608923512
 30
0.0
 42
0.4142135623730951
  0
VERTEX
  5
795
  8
0
 10
22.800000000001091
 20
61.757809608923687
 30
0.0
  0
VERTEX
  5
796
  8
0
 10
22.800000000001091
 20
61.757809608923687
 30
0.0
 42
0.4142135623730882
  0
VERTEX
  5
797
  8
0
 10
21.000000000001819
 20
63.557809608923883
 30
0.0
  0
VERTEX
  5
798
  8
0
 10
3.0000000000018181
 20
63.557809608923883
 30
0.0
 42
0.4142135623730947
  0
VERTEX
  5
799
  8
0
 10
1.2000000000007269
 20
61.757809608923687
 30
0.0
  0
VERTEX
  5
79A
  8
0
 10
1.2000000000007269
 20
61.757809608923687
 30
0.0
 42
0.4142135623730996
  0
SEQEND
  5
79B
  8
0
  0
POLYLINE
  5
553
  8
0
 66
     1
 10
0.0
 20
0.0
 30
0.0
 70
   129
  0
VERTEX
  5
79C
  8
0
 10
3.0000000000018181
 20
70.757809608923694
 30
0.0
  0
VERTEX
  5
79D
  8
0
 10
21.000000000001819
 20
70.757809608923694
 30
0.0
 42
0.4142135623730951
  0
VERTEX
  5
79E
  8
0
 10
22.800000000001091
 20
72.557809608923876
 30
0.0
  0
VERTEX
  5
79F
  8
0
 10
22.800000000001091
 20
72.557809608923876
 30
0.0
 42
0.4142135623730882
  0
VERTEX
  5
7A0
  8
0
 10
21.000000000001819
 20
74.357809608924043
 30
0.0
  0
VERTEX
  5
7A1
  8
0
 10
3.0000000000018181
 20
74.357809608924043
 30
0.0
 42
0.4142135623730947
  0
VERTEX
  5
7A2
  8
0
 10
1.2000000000007269
 20
72.557809608923876
 30
0.0
  0
VERTEX
  5
7A3
  8
0
 10
1.2000000000007269
 20
72.557809608923876
 30
0.0
 42
0.4142135623730996
  0
SEQEND
  5
7A4
  8
0
  0
POLYLINE
  5
554
  8
0
 66
     1
 10
0.0
 20
0.0
 30
0.0
 70
   129
  0
VERTEX
  5
7A5
  8
0
 10
27.000000000001819
 20
32.957809608924421
 30
0.0
  0
VERTEX
  5
7A6
  8
0
 10
45.000000000001819
 20
32.957809608924421
 30
0.0
 42
0.4142135623730951
  0
VERTEX
  5
7A7
  8
0
 10
46.800000000001077
 20
34.75780960892461
 30
0.0
  0
VERTEX
  5
7A8
  8
0
 10
46.800000000001077
 20
34.75780960892461
 30
0.0
 42
0.4142135623730882
  0
VERTEX
  5
7A9
  8
0
 10
45.000000000001819
 20
36.557809608924778
 30
0.0
  0
VERTEX
  5
7AA
  8
0
 10
27.000000000001819
 20
36.557809608923883
 30
0.0
 42
0.4142135623730947
  0
VERTEX
  5
7AB
  8
0
 10
25.200000000000731
 20
34.757809608923687
 30
0.0
  0
VERTEX
  5
7AC
  8
0
 10
25.200000000000731
 20
34.757809608923687
 30
0.0
 42
0.4142135623730996
  0
SEQEND
  5
7AD
  8
0
  0
POLYLINE
  5
555
  8
0
 66
     1
 10
0.0
 20
0.0
 30
0.0
 70
   129
  0
VERTEX
  5
7AE
  8
0
 10
27.000000000001819
 20
43.757809608923687
 30
0.0
  0
VERTEX
  5
7AF
  8
0
 10
45.000000000001819
 20
43.757809608924603
 30
0.0
 42
0.4142135623730951
  0
VERTEX
  5
7B0
  8
0
 10
46.800000000001077
 20
45.557809608923868
 30
0.0
  0
VERTEX
  5
7B1
  8
0
 10
46.800000000001077
 20
45.557809608923868
 30
0.0
 42
0.4142135623730882
  0
VERTEX
  5
7B2
  8
0
 10
45.000000000001819
 20
47.35780960892405
 30
0.0
  0
VERTEX
  5
7B3
  8
0
 10
27.000000000001819
 20
47.35780960892405
 30
0.0
 42
0.4142135623730947
  0
VERTEX
  5
7B4
  8
0
 10
25.200000000000731
 20
45.557809608923868
 30
0.0
  0
VERTEX
  5
7B5
  8
0
 10
25.200000000000731
 20
45.557809608923868
 30
0.0
 42
0.4142135623730996
  0
SEQEND
  5
7B6
  8
0
  0
POLYLINE
  5
556
  8
0
 66
     1
 10
0.0
 20
0.0
 30
0.0
 70
   129
  0
VERTEX
  5
7B7
  8
0
 10
27.000000000001819
 20
54.557809608923868
 30
0.0
  0
VERTEX
  5
7B8
  8
0
 10
45.000000000001819
 20
54.557809608923868
 30
0.0
 42
0.4142135623730951
  0
VERTEX
  5
7B9
  8
0
 10
46.800000000001077
 20
56.357809608924057
 30
0.0
  0
VERTEX
  5
7BA
  8
0
 10
46.800000000001077
 20
56.357809608924057
 30
0.0
 42
0.4142135623730882
  0
VERTEX
  5
7BB
  8
0
 10
45.000000000001819
 20
58.157809608924239
 30
0.0
  0
VERTEX
  5
7BC
  8
0
 10
27.000000000001819
 20
58.157809608924239
 30
0.0
 42
0.4142135623730947
  0
VERTEX
  5
7BD
  8
0
 10
25.200000000000731
 20
56.357809608924057
 30
0.0
  0
VERTEX
  5
7BE
  8
0
 10
25.200000000000731
 20
56.357809608924057
 30
0.0
 42
0.4142135623730996
  0
SEQEND
  5
7BF
  8
0
  0
POLYLINE
  5
557
  8
0
 66
     1
 10
0.0
 20
0.0
 30
0.0
 70
   129
  0
VERTEX
  5
7C0
  8
0
 10
27.000000000001819
 20
65.357809608924057
 30
0.0
  0
VERTEX
  5
7C1
  8
0
 10
45.000000000001819
 20
65.357809608924057
 30
0.0
 42
0.4142135623730951
  0
VERTEX
  5
7C2
  8
0
 10
46.800000000001077
 20
67.157809608924225
 30
0.0
  0
VERTEX
  5
7C3
  8
0
 10
46.800000000001077
 20
67.157809608924225
 30
0.0
 42
0.4142135623730882
  0
VERTEX
  5
7C4
  8
0
 10
45.000000000001819
 20
68.957809608924421
 30
0.0
  0
VERTEX
  5
7C5
  8
0
 10
27.000000000001819
 20
68.957809608924421
 30
0.0
 42
0.4142135623730947
  0
VERTEX
  5
7C6
  8
0
 10
25.20000000000255
 20
67.157809608924225
 30
0.0
  0
VERTEX
  5
7C7
  8
0
 10
25.20000000000255
 20
67.157809608924225
 30
0.0
 42
0.4142135623730996
  0
SEQEND
  5
7C8
  8
0
  0
POLYLINE
  5
558
  8
0
 66
     1
 10
0.0
 20
0.0
 30
0.0
 70
   129
  0
VERTEX
  5
7C9
  8
0
 10
51.0
 20
27.557809608923868
 30
0.0
  0
VERTEX
  5
7CA
  8
0
 10
69.000000000001819
 20
27.557809608923868
 30
0.0
 42
0.4142135623730951
  0
VERTEX
  5
7CB
  8
0
 10
70.800000000001091
 20
29.357809608924061
 30
0.0
  0
VERTEX
  5
7CC
  8
0
 10
70.800000000001091
 20
29.357809608924061
 30
0.0
 42
0.4142135623730882
  0
VERTEX
  5
7CD
  8
0
 10
69.000000000001819
 20
31.157809608924239
 30
0.0
  0
VERTEX
  5
7CE
  8
0
 10
51.0
 20
31.157809608924239
 30
0.0
 42
0.4142135623730947
  0
VERTEX
  5
7CF
  8
0
 10
49.20000000000072
 20
29.357809608924061
 30
0.0
  0
VERTEX
  5
7D0
  8
0
 10
49.20000000000072
 20
29.357809608924061
 30
0.0
 42
0.4142135623730996
  0
SEQEND
  5
7D1
  8
0
  0
POLYLINE
  5
559
  8
0
 66
     1
 10
0.0
 20
0.0
 30
0.0
 70
   129
  0
VERTEX
  5
7D2
  8
0
 10
51.000000000001819
 20
38.357809608924057
 30
0.0
  0
VERTEX
  5
7D3
  8
0
 10
69.000000000001819
 20
38.357809608924057
 30
0.0
 42
0.4142135623730951
  0
VERTEX
  5
7D4
  8
0
 10
70.800000000001091
 20
40.157809608924232
 30
0.0
  0
VERTEX
  5
7D5
  8
0
 10
70.800000000001091
 20
40.157809608924232
 30
0.0
 42
0.4142135623730882
  0
VERTEX
  5
7D6
  8
0
 10
69.000000000001819
 20
41.957809608924421
 30
0.0
  0
VERTEX
  5
7D7
  8
0
 10
51.000000000001819
 20
41.957809608924421
 30
0.0
 42
0.4142135623730947
  0
VERTEX
  5
7D8
  8
0
 10
49.20000000000072
 20
40.157809608924232
 30
0.0
  0
VERTEX
  5
7D9
  8
0
 10
49.20000000000072
 20
40.157809608924232
 30
0.0
 42
0.4142135623730996
  0
SEQEND
  5
7DA
  8
0
  0
POLYLINE
  5
55A
  8
0
 66
     1
 10
0.0
 20
0.0
 30
0.0
 70
   129
  0
VERTEX
  5
7DB
  8
0
 10
51.000000000001819
 20
49.157809608924239
 30
0.0
  0
VERTEX
  5
7DC
  8
0
 10
69.000000000001819
 20
49.157809608924239
 30
0.0
 42
0.4142135623730951
  0
VERTEX
  5
7DD
  8
0
 10
70.800000000001091
 20
50.957809608924421
 30
0.0
  0
VERTEX
  5
7DE
  8
0
 10
70.800000000001091
 20
50.957809608924421
 30
0.0
 42
0.4142135623730882
  0
VERTEX
  5
7DF
  8
0
 10
69.000000000001819
 20
52.757809608924603
 30
0.0
  0
VERTEX
  5
7E0
  8
0
 10
51.000000000001819
 20
52.757809608923687
 30
0.0
 42
0.4142135623730947
  0
VERTEX
  5
7E1
  8
0
 10
49.20000000000072
 20
50.957809608923512
 30
0.0
  0
VERTEX
  5
7E2
  8
0
 10
49.20000000000072
 20
50.957809608923512
 30
0.0
 42
0.4142135623730996
  0
SEQEND
  5
7E3
  8
0
  0
POLYLINE
  5
55B
  8
0
 66
     1
 10
0.0
 20
0.0
 30
0.0
 70
   129
  0
VERTEX
  5
7E4
  8
0
 10
51.000000000001819
 20
59.957809608923512
 30
0.0
  0
VERTEX
  5
7E5
  8
0
 10
69.000000000001819
 20
59.957809608924421
 30
0.0
 42
0.4142135623730951
  0
VERTEX
  5
7E6
  8
0
 10
70.800000000001091
 20
61.757809608924603
 30
0.0
  0
VERTEX
  5
7E7
  8
0
 10
70.800000000001091
 20
61.757809608924603
 30
0.0
 42
0.4142135623730882
  0
VERTEX
  5
7E8
  8
0
 10
69.000000000001819
 20
63.557809608923883
 30
0.0
  0
VERTEX
  5
7E9
  8
0
 10
51.000000000001819
 20
63.557809608923883
 30
0.0
 42
0.4142135623730947
  0
VERTEX
  5
7EA
  8
0
 10
49.20000000000072
 20
61.757809608923687
 30
0.0
  0
VERTEX
  5
7EB
  8
0
 10
49.20000000000072
 20
61.757809608923687
 30
0.0
 42
0.4142135623730996
  0
SEQEND
  5
7EC
  8
0
  0
POLYLINE
  5
55C
  8
0
 66
     1
 10
0.0
 20
0.0
 30
0.0
 70
   129
  0
VERTEX
  5
7ED
  8
0
 10
51.000000000001819
 20
70.757809608923694
 30
0.0
  0
VERTEX
  5
7EE
  8
0
 10
69.000000000001819
 20
70.757809608924603
 30
0.0
 42
0.4142135623730951
  0
VERTEX
  5
7EF
  8
0
 10
70.800000000001091
 20
72.557809608924785
 30
0.0
  0
VERTEX
  5
7F0
  8
0
 10
70.800000000001091
 20
72.557809608924785
 30
0.0
 42
0.4142135623730882
  0
VERTEX
  5
7F1
  8
0
 10
69.000000000001819
 20
74.357809608924043
 30
0.0
  0
VERTEX
  5
7F2
  8
0
 10
51.000000000001819
 20
74.357809608924043
 30
0.0
 42
0.4142135623730947
  0
VERTEX
  5
7F3
  8
0
 10
49.20000000000072
 20
72.557809608923876
 30
0.0
  0
VERTEX
  5
7F4
  8
0
 10
49.20000000000072
 20
72.557809608923876
 30
0.0
 42
0.4142135623730996
  0
SEQEND
  5
7F5
  8
0
  0
POLYLINE
  5
55D
  8
0
 66
     1
 10
0.0
 20
0.0
 30
0.0
 70
   129
  0
VERTEX
  5
7F6
  8
0
 10
75.000000000001819
 20
32.957809608924421
 30
0.0
  0
VERTEX
  5
7F7
  8
0
 10
93.000000000001805
 20
32.957809608924421
 30
0.0
 42
0.4142135623730951
  0
VERTEX
  5
7F8
  8
0
 10
94.800000000001077
 20
34.75780960892461
 30
0.0
  0
VERTEX
  5
7F9
  8
0
 10
94.800000000001077
 20
34.75780960892461
 30
0.0
 42
0.4142135623730882
  0
VERTEX
  5
7FA
  8
0
 10
93.000000000001805
 20
36.557809608924778
 30
0.0
  0
VERTEX
  5
7FB
  8
0
 10
75.000000000001819
 20
36.557809608923883
 30
0.0
 42
0.4142135623730947
  0
VERTEX
  5
7FC
  8
0
 10
73.200000000000728
 20
34.75780960892461
 30
0.0
  0
VERTEX
  5
7FD
  8
0
 10
73.200000000000728
 20
34.75780960892461
 30
0.0
 42
0.4142135623730996
  0
SEQEND
  5
7FE
  8
0
  0
POLYLINE
  5
55E
  8
0
 66
     1
 10
0.0
 20
0.0
 30
0.0
 70
   129
  0
VERTEX
  5
7FF
  8
0
 10
75.000000000001819
 20
43.757809608923687
 30
0.0
  0
VERTEX
  5
800
  8
0
 10
93.000000000001805
 20
43.757809608924603
 30
0.0
 42
0.4142135623730951
  0
VERTEX
  5
801
  8
0
 10
94.800000000001077
 20
45.557809608924778
 30
0.0
  0
VERTEX
  5
802
  8
0
 10
94.800000000001077
 20
45.557809608924778
 30
0.0
 42
0.4142135623730882
  0
VERTEX
  5
803
  8
0
 10
93.000000000001805
 20
47.35780960892405
 30
0.0
  0
VERTEX
  5
804
  8
0
 10
75.000000000001819
 20
47.35780960892405
 30
0.0
 42
0.4142135623730947
  0
VERTEX
  5
805
  8
0
 10
73.200000000000728
 20
45.557809608923868
 30
0.0
  0
VERTEX
  5
806
  8
0
 10
73.200000000000728
 20
45.557809608923868
 30
0.0
 42
0.4142135623730996
  0
SEQEND
  5
807
  8
0
  0
POLYLINE
  5
55F
  8
0
 66
     1
 10
0.0
 20
0.0
 30
0.0
 70
   129
  0
VERTEX
  5
808
  8
0
 10
75.000000000001819
 20
54.557809608923868
 30
0.0
  0
VERTEX
  5
809
  8
0
 10
93.000000000001805
 20
54.557809608924792
 30
0.0
 42
0.4142135623730951
  0
VERTEX
  5
80A
  8
0
 10
94.800000000001077
 20
56.35780960892496
 30
0.0
  0
VERTEX
  5
80B
  8
0
 10
94.800000000001077
 20
56.35780960892496
 30
0.0
 42
0.4142135623730882
  0
VERTEX
  5
80C
  8
0
 10
93.000000000001805
 20
58.157809608924239
 30
0.0
  0
VERTEX
  5
80D
  8
0
 10
75.000000000001819
 20
58.157809608924239
 30
0.0
 42
0.4142135623730947
  0
VERTEX
  5
80E
  8
0
 10
73.200000000000728
 20
56.357809608924057
 30
0.0
  0
VERTEX
  5
80F
  8
0
 10
73.200000000000728
 20
56.357809608924057
 30
0.0
 42
0.4142135623730996
  0
SEQEND
  5
810
  8
0
  0
POLYLINE
  5
560
  8
0
 66
     1
 10
0.0
 20
0.0
 30
0.0
 70
   129
  0
VERTEX
  5
811
  8
0
 10
75.000000000001819
 20
65.357809608924057
 30
0.0
  0
VERTEX
  5
812
  8
0
 10
93.000000000001805
 20
65.357809608924967
 30
0.0
 42
0.4142135623730951
  0
VERTEX
  5
813
  8
0
 10
94.80000000000291
 20
67.157809608924225
 30
0.0
  0
VERTEX
  5
814
  8
0
 10
94.80000000000291
 20
67.157809608924225
 30
0.0
 42
0.4142135623730882
  0
VERTEX
  5
815
  8
0
 10
93.000000000001805
 20
68.957809608924421
 30
0.0
  0
VERTEX
  5
816
  8
0
 10
75.000000000001819
 20
68.957809608924421
 30
0.0
 42
0.4142135623730947
  0
VERTEX
  5
817
  8
0
 10
73.200000000002547
 20
67.157809608924225
 30
0.0
  0
VERTEX
  5
818
  8
0
 10
73.200000000002547
 20
67.157809608924225
 30
0.0
 42
0.4142135623730996
  0
SEQEND
  5
819
  8
0
  0
LINE
  5
561
  8
0
  6
EURO_COMMON_RIDGE-APEX$0$0
 10
0.0
 20
20.957809608922599
 30
0.0
 11
0.0
 21
80.957809608922616
 31
0.0
  0
LINE
  5
562
  8
0
  6
CONTINUOUS
 10
0.0
 20
80.957809608922616
 30
0.0
 11
0.0
 21
117.5038464765493
 31
0.0
  0
POLYLINE
  5
563
  8
0
  6
CONTINUOUS
 66
     1
 10
0.0
 20
0.0
 30
0.0
  0
VERTEX
  5
564
  8
0
  6
CONTINUOUS
 10
-379.9820870004678
 20
155.77916308034489
 30
0.0
  0
VERTEX
  5
565
  8
0
  6
CONTINUOUS
 10
-379.9820870004678
 20
75.089726119750594
 30
0.0
  0
VERTEX
  5
566
  8
0
  6
CONTINUOUS
 10
-386.85078054910809
 20
72.589726119750594
 30
0.0
  0
VERTEX
  5
567
  8
0
  6
CONTINUOUS
 10
-373.11339345182751
 20
67.589726119750594
 30
0.0
  0
VERTEX
  5
568
  8
0
  6
CONTINUOUS
 10
-379.9820870004678
 20
65.089726119750594
 30
0.0
  0
VERTEX
  5
569
  8
0
  6
CONTINUOUS
 10
-379.9820870004678
 20
21.71172469093926
 30
0.0
  0
SEQEND
  5
56A
  8
0
  6
CONTINUOUS
  0
POLYLINE
  5
56B
  8
0
  6
CONTINUOUS
 66
     1
 10
0.0
 20
0.0
 30
0.0
  0
VERTEX
  5
56C
  8
0
  6
CONTINUOUS
 10
378.15257288681818
 20
22.201941520233959
 30
0.0
  0
VERTEX
  5
56D
  8
0
  6
CONTINUOUS
 10
378.15257288681818
 20
65.579942949045289
 30
0.0
  0
VERTEX
  5
56E
  8
0
  6
CONTINUOUS
 10
385.02126643545859
 20
68.079942949045289
 30
0.0
  0
VERTEX
  5
56F
  8
0
  6
CONTINUOUS
 10
371.28387933819607
 20
73.079942949045289
 30
0.0
  0
VERTEX
  5
570
  8
0
  6
CONTINUOUS
 10
378.15257288681818
 20
75.579942949045289
 30
0.0
  0
VERTEX
  5
571
  8
0
  6
CONTINUOUS
 10
378.15257288681818
 20
156.26937990964049
 30
0.0
  0
SEQEND
  5
572
  8
0
  6
CONTINUOUS
  0
DIMENSION
  5
573
  8
0
  6
CONTINUOUS
  2
*D6
 10
-189.61825270393871
 20
395.60997965772498
 30
0.0
 11
-114.2432425996135
 21
415.80665274466639
 31
0.0
 70
   128
  1
150mm *
 13
-27.18835505736882
 23
368.9688447459468
 33
0.0
 14
-172.9830956585896
 24
333.52672837257091
 34
0.0
 50
14.99999999999447
  0
POLYLINE
  5
574
  8
0
  6
CONTINUOUS
 66
     1
 10
0.0
 20
0.0
 30
0.0
 70
   128
 40
0.5
 41
0.5
  0
VERTEX
  5
81A
  8
0
  6
CONTINUOUS
 10
-379.9820870004678
 20
88.210200025800987
 30
0.0
  0
VERTEX
  5
81B
  8
0
  6
CONTINUOUS
 10
-12.764571353072821
 20
186.60583679008411
 30
0.0
  0
VERTEX
  5
81C
  8
0
  6
CONTINUOUS
 10
-20.529142706145649
 20
215.583611578757
 30
0.0
  0
SEQEND
  5
81D
  8
0
  6
CONTINUOUS
  0
LINE
  5
575
  8
0
  6
CONTINUOUS
 10
-379.98208700046962
 20
119.2684854381059
 30
0.0
 11
-20.529142706145649
 21
215.583611578757
 31
0.0
  0
POLYLINE
  5
576
  8
0
  6
CONTINUOUS
 66
     1
 10
0.0
 20
0.0
 30
0.0
 70
   128
 40
0.5
 41
0.5
  0
VERTEX
  5
81E
  8
0
  6
CONTINUOUS
 10
378.15257288681818
 20
88.700416855095668
 30
0.0
  0
VERTEX
  5
81F
  8
0
  6
CONTINUOUS
 10
12.764571353072821
 20
186.60583679008411
 30
0.0
  0
VERTEX
  5
820
  8
0
  6
CONTINUOUS
 10
20.529142706145649
 20
215.583611578757
 30
0.0
  0
SEQEND
  5
821
  8
0
  6
CONTINUOUS
  0
LINE
  5
577
  8
0
  6
CONTINUOUS
 10
378.15257288681818
 20
119.7587022673997
 30
0.0
 11
20.529142706145649
 21
215.583611578757
 31
0.0
  0
INSERT
  5
578
  8
0
  6
CONTINUOUS
  2
*U12
 10
0.0
 20
0.0
 30
0.0
1001
ACAD
1000
DSTYLE
1002
{
1070
   176
1070
   256
1002
}
  0
INSERT
  5
579
  8
0
  6
CONTINUOUS
  2
*U13
 10
0.0
 20
0.0
 30
0.0
  0
INSERT
  5
57A
  8
0
  6
CONTINUOUS
  2
*U14
 10
0.0
 20
0.0
 30
0.0
1001
ACAD
1000
DSTYLE
1002
{
1070
   176
1070
   256
1002
}
  0
INSERT
  5
57B
  8
0
  6
CONTINUOUS
  2
*U15
 10
0.0
 20
0.0
 30
0.0
  0
INSERT
  5
57C
  8
0
  6
CONTINUOUS
  2
*U16
 10
0.0
 20
0.0
 30
0.0
1001
ACAD
1000
DSTYLE
1002
{
1070
   176
1070
   256
1002
}
  0
INSERT
  5
57D
  8
0
  6
CONTINUOUS
  2
*U17
 10
0.0
 20
0.0
 30
0.0
  0
INSERT
  5
57E
  8
0
  6
CONTINUOUS
  2
*U18
 10
0.0
 20
0.0
 30
0.0
1001
ACAD
1000
DSTYLE
1002
{
1070
   176
1070
   256
1002
}
  0
INSERT
  5
57F
  8
0
  6
CONTINUOUS
  2
*U19
 10
0.0
 20
0.0
 30
0.0
  0
POLYLINE
  5
580
  8
0
  6
EURO_COMMON_RIDGE-APEX$0$H
 66
     1
 10
0.0
 20
0.0
 30
0.0
 70
   128
  0
VERTEX
  5
856
  8
0
  6
EURO_COMMON_RIDGE-APEX$0$H
 10
378.15257288681818
 20
85.024035953048966
 30
0.0
  0
VERTEX
  5
857
  8
0
  6
EURO_COMMON_RIDGE-APEX$0$H
 10
18.323428514804618
 20
181.43996460071301
 30
0.0
  0
SEQEND
  5
858
  8
0
  6
EURO_COMMON_RIDGE-APEX$0$H
  0
POLYLINE
  5
583
  8
0
  6
CONTINUOUS
 66
     1
 10
0.0
 20
0.0
 30
0.0
 70
   128
  0
VERTEX
  5
859
  8
0
  6
CONTINUOUS
 10
-379.9820870004678
 20
61.240105064524442
 30
0.0
  0
VERTEX
  5
85A
  8
0
  6
CONTINUOUS
 10
-12.5
 20
159.70663350920401
 30
0.0
  0
VERTEX
  5
85B
  8
0
  6
CONTINUOUS
 10
-17.029333289291682
 20
176.6103354692633
 30
0.0
  0
VERTEX
  5
85C
  8
0
  6
CONTINUOUS
 10
-379.9820870004678
 20
79.357438221706019
 30
0.0
  0
SEQEND
  5
85D
  8
0
  6
CONTINUOUS
  0
POLYLINE
  5
586
  8
0
  6
CONTINUOUS
 66
     1
 10
0.0
 20
0.0
 30
0.0
 70
   128
  0
VERTEX
  5
85E
  8
0
  6
CONTINUOUS
 10
378.15257288681818
 20
61.730321893818143
 30
0.0
  0
VERTEX
  5
85F
  8
0
  6
CONTINUOUS
 10
12.500000000000011
 20
159.70663350920401
 30
0.0
  0
VERTEX
  5
860
  8
0
  6
CONTINUOUS
 10
17.029333289291689
 20
176.6103354692633
 30
0.0
  0
VERTEX
  5
861
  8
0
  6
CONTINUOUS
 10
378.15257288681818
 20
79.847655050999705
 30
0.0
  0
SEQEND
  5
862
  8
0
  6
CONTINUOUS
  0
POLYLINE
  5
587
  8
0
  6
EURO_COMMON_RIDGE-APEX$0$H
 66
     1
 10
0.0
 20
0.0
 30
0.0
 70
   128
  0
VERTEX
  5
863
  8
0
  6
EURO_COMMON_RIDGE-APEX$0$H
 10
-18.32342851480492
 20
181.43996460071381
 30
0.0
  0
VERTEX
  5
864
  8
0
  6
EURO_COMMON_RIDGE-APEX$0$H
 10
-379.9820870004678
 20
84.533819123754256
 30
0.0
  0
SEQEND
  5
865
  8
0
  6
EURO_COMMON_RIDGE-APEX$0$H
  0
DIMENSION
  5
588
  8
0
  6
CONTINUOUS
  2
*D7
 10
12.499999999999989
 20
-51.01473500707656
 30
0.0
 11
16.091405184174612
 21
-76.495635416353508
 31
0.0
 70
     0
  1
25mm minimum air gap
 13
-12.5
 23
159.70663350920401
 33
0.0
 14
12.5
 24
159.70663350920401
 34
0.0
  0
LINE
  5
589
  8
0
 10
107.444688843609
 20
197.67694685804281
 30
0.0
 11
105.58090452757619
 21
190.72120909625741
 31
0.0
1001
GENIUS_GENOREF_13
1005
0
1001
ACDBBLOCKREPETAG
1070
     1
1071
        0
1005
0
  0
LINE
  5
58A
  8
0
 10
110.9141367094637
 20
196.74731110420529
 30
0.0
 11
109.0503523934314
 21
189.7915733424197
 31
0.0
1001
GENIUS_GENOREF_13
1005
0
1001
ACDBBLOCKREPETAG
1070
     1
1071
        1
1005
0
  0
ARC
  5
58B
  8
0
 10
111.65709017214409
 20
197.64365812047151
 30
0.0
 40
1.568435374149667
 50
345.00000000000222
 51
75.000000000002004
1001
GENIUS_GENOREF_13
1005
0
1001
ACDBBLOCKREPETAG
1070
     1
1071
        2
1005
0
  0
LINE
  5
58C
  8
0
 10
111.1985409261558
 20
197.3605850747816
 30
0.0
 11
113.07059717044
 21
196.85896911594011
 31
0.0
1001
GENIUS_GENOREF_13
1005
0
1001
ACDBBLOCKREPETAG
1070
     1
1071
        3
1005
0
  0
LINE
  5
58D
  8
0
 10
105.7344535444747
 20
199.2306238219183
 30
0.0
 11
113.1720824069006
 21
197.23771717462921
 31
0.0
1001
GENIUS_GENOREF_13
1005
0
1001
ACDBBLOCKREPETAG
1070
     1
1071
        4
1005
0
  0
LINE
  5
58E
  8
0
 10
113.07059717044
 20
196.85896911594011
 30
0.0
 11
113.1720824069006
 21
197.23771717462921
 31
0.0
1001
GENIUS_GENOREF_13
1005
0
1001
ACDBBLOCKREPETAG
1070
     1
1071
        5
1005
0
  0
LINE
  5
58F
  8
0
 10
107.50502455229829
 20
198.35025980438769
 30
0.0
 11
111.1985409261558
 21
197.3605850747816
 31
0.0
1001
GENIUS_GENOREF_13
1005
0
1001
ACDBBLOCKREPETAG
1070
     1
1071
        6
1005
0
  0
LINE
  5
590
  8
0
 10
107.444688843609
 20
197.67694685804281
 30
0.0
 11
110.9141367094637
 21
196.74731110420529
 31
0.0
1001
GENIUS_GENOREF_13
1005
0
1001
ACDBBLOCKREPETAG
1070
     1
1071
        7
1005
0
  0
LINE
  5
591
  8
0
 10
107.6553867250736
 20
200.3396751108327
 30
0.0
 11
109.85920892153
 21
199.74916273303029
 31
0.0
1001
GENIUS_GENOREF_13
1005
0
1001
ACDBBLOCKREPETAG
1070
     1
1071
        8
1005
0
  0
LINE
  5
592
  8
0
 10
112.0630311179865
 20
199.15865035522819
 30
0.0
 11
109.85920892153
 21
199.74916273303029
 31
0.0
1001
GENIUS_GENOREF_13
1005
0
1001
ACDBBLOCKREPETAG
1070
     1
1071
        9
1005
0
  0
LINE
  5
593
  8
0
 10
110.9141367094637
 20
196.74731110420529
 30
0.0
 11
111.1985409261558
 21
197.3605850747816
 31
0.0
1001
GENIUS_GENOREF_13
1005
0
1001
ACDBBLOCKREPETAG
1070
     1
1071
       10
1005
0
  0
ARC
  5
594
  8
0
 10
107.24944577923119
 20
198.82468287607591
 30
0.0
 40
1.568435374149667
 50
75.000000000002004
 51
165.0000000000021
1001
GENIUS_GENOREF_13
1005
0
1001
ACDBBLOCKREPETAG
1070
     1
1071
       11
1005
0
  0
LINE
  5
595
  8
0
 10
107.50502455229829
 20
198.35025980438769
 30
0.0
 11
105.6329683080141
 21
198.8518757632292
 31
0.0
1001
GENIUS_GENOREF_13
1005
0
1001
ACDBBLOCKREPETAG
1070
     1
1071
       12
1005
0
  0
LINE
  5
596
  8
0
 10
105.6329683080141
 20
198.8518757632292
 30
0.0
 11
105.7344535444747
 21
199.2306238219183
 31
0.0
1001
GENIUS_GENOREF_13
1005
0
1001
ACDBBLOCKREPETAG
1070
     1
1071
       13
1005
0
  0
LINE
  5
597
  8
0
 10
107.444688843609
 20
197.67694685804281
 30
0.0
 11
107.50502455229829
 21
198.35025980438769
 31
0.0
1001
GENIUS_GENOREF_13
1005
0
1001
ACDBBLOCKREPETAG
1070
     1
1071
       14
1005
0
  0
ARC
  5
598
  8
0
 10
102.2950057052249
 20
189.37104067688989
 30
0.0
 40
7.7000000000000268
 50
316.05117962299482
 51
1.249475541914973
1001
GENIUS_GENOREF_13
1005
0
1001
ACDBBLOCKREPETAG
1070
     1
1071
       15
1005
0
  0
LINE
  5
599
  8
0
 10
109.0503523934309
 20
189.79157334241989
 30
0.0
 11
109.9931748509769
 21
189.53894482631449
 31
0.0
1001
GENIUS_GENOREF_13
1005
0
1001
ACDBBLOCKREPETAG
1070
     1
1071
       16
1005
0
  0
ARC
  5
59A
  8
0
 10
111.220940038169
 20
186.97934378068459
 30
0.0
 40
7.7000000000000268
 50
148.75052445808839
 51
193.9488203770097
1001
GENIUS_GENOREF_13
1005
0
1001
ACDBBLOCKREPETAG
1070
     1
1071
       17
1005
0
  0
LINE
  5
59B
  8
0
 10
105.58090452757619
 20
190.72120909625741
 30
0.0
 11
109.0503523934309
 21
189.79157334241989
 31
0.0
1001
GENIUS_GENOREF_13
1005
0
1001
ACDBBLOCKREPETAG
1070
     1
1071
       18
1005
0
  0
LINE
  5
59C
  8
0
 10
103.7480019764276
 20
185.1232196670062
 30
0.0
 11
107.8386978507617
 21
184.02712101099721
 31
0.0
1001
GENIUS_GENOREF_13
1005
0
1001
ACDBBLOCKREPETAG
1070
     1
1071
       19
1005
0
  0
LINE
  5
59D
  8
0
 10
105.58090452757619
 20
190.72120909625741
 30
0.0
 11
104.63808207003019
 21
190.9738376123627
 31
0.0
1001
GENIUS_GENOREF_13
1005
0
1001
ACDBBLOCKREPETAG
1070
     1
1071
       20
1005
0
  0
INSERT
  5
59E
  8
0
  6
CONTINUOUS
  2
*U20
 10
0.0
 20
0.0
 30
0.0
1001
ACAD
1000
DSTYLE
1002
{
1070
   176
1070
   256
1002
}
  0
INSERT
  5
59F
  8
0
  6
CONTINUOUS
  2
*U21
 10
0.0
 20
0.0
 30
0.0
  0
INSERT
  5
5A0
  8
0
  6
CONTINUOUS
  2
*U22
 10
0.0
 20
0.0
 30
0.0
1001
ACAD
1000
DSTYLE
1002
{
1070
   176
1070
   256
1002
}
  0
INSERT
  5
5A1
  8
0
  6
CONTINUOUS
  2
*U23
 10
0.0
 20
0.0
 30
0.0
  0
INSERT
  5
5A2
  8
0
  6
CONTINUOUS
  2
*U24
 10
0.0
 20
0.0
 30
0.0
1001
ACAD
1000
DSTYLE
1002
{
1070
   176
1070
   256
1002
}
  0
INSERT
  5
5A3
  8
0
  6
CONTINUOUS
  2
*U25
 10
0.0
 20
0.0
 30
0.0
  0
INSERT
  5
5A4
  8
0
  6
CONTINUOUS
  2
*U26
 10
0.0
 20
0.0
 30
0.0
  0
POLYLINE
  5
5A5
  8
0
  6
CONTINUOUS
 66
     1
 10
0.0
 20
0.0
 30
0.0
 70
   128
 40
0.5
 41
0.5
  0
VERTEX
  5
895
  8
0
  6
CONTINUOUS
 10
82.029919527071741
 20
204.48681377223289
 30
0.0
  0
VERTEX
  5
896
  8
0
  6
CONTINUOUS
 10
164.57747714434859
 20
182.3682623715203
 30
0.0
 42
-1.000000000000004
  0
VERTEX
  5
897
  8
0
  6
CONTINUOUS
 10
164.12454381541971
 20
180.67789217551569
 30
0.0
  0
VERTEX
  5
898
  8
0
  6
CONTINUOUS
 10
138.5903156209915
 20
187.51976799956441
 30
0.0
 42
0.4142135623730951
  0
VERTEX
  5
899
  8
0
  6
CONTINUOUS
 10
136.75319831390601
 20
186.4591078277835
 30
0.0
  0
VERTEX
  5
89A
  8
0
  6
CONTINUOUS
 10
129.71149499479361
 20
160.17911326903231
 30
0.0
 42
-0.9999999999999918
  0
VERTEX
  5
89B
  8
0
  6
CONTINUOUS
 10
126.08927314620711
 20
161.1496846881677
 30
0.0
  0
VERTEX
  5
89C
  8
0
  6
CONTINUOUS
 10
128.2750441726275
 20
169.30709321246829
 30
0.0
  0
SEQEND
  5
89D
  8
0
  6
CONTINUOUS
  0
POLYLINE
  5
5A6
  8
0
  6
CONTINUOUS
 66
     1
 10
0.0
 20
0.0
 30
0.0
 70
   128
 40
0.5
 41
0.5
  0
VERTEX
  5
89E
  8
0
  6
CONTINUOUS
 10
-82.029919527071726
 20
204.48681377223289
 30
0.0
  0
VERTEX
  5
89F
  8
0
  6
CONTINUOUS
 10
-164.57747714434859
 20
182.3682623715203
 30
0.0
 42
1.000000000000004
  0
VERTEX
  5
8A0
  8
0
  6
CONTINUOUS
 10
-164.12454381541971
 20
180.67789217551569
 30
0.0
  0
VERTEX
  5
8A1
  8
0
  6
CONTINUOUS
 10
-138.5903156209915
 20
187.51976799956449
 30
0.0
 42
-0.4142135623730951
  0
VERTEX
  5
8A2
  8
0
  6
CONTINUOUS
 10
-136.75319831390601
 20
186.45910782778361
 30
0.0
  0
VERTEX
  5
8A3
  8
0
  6
CONTINUOUS
 10
-129.71149499479361
 20
160.17911326903231
 30
0.0
 42
0.9999999999999918
  0
VERTEX
  5
8A4
  8
0
  6
CONTINUOUS
 10
-126.08927314620711
 20
161.14968468816781
 30
0.0
  0
VERTEX
  5
8A5
  8
0
  6
CONTINUOUS
 10
-128.2750441726275
 20
169.30709321246829
 30
0.0
  0
SEQEND
  5
8A6
  8
0
  6
CONTINUOUS
  0
POLYLINE
  5
5A7
  8
0
  6
CONTINUOUS
 66
     1
 10
0.0
 20
0.0
 30
0.0
 70
   128
 40
0.5
 41
0.5
  0
VERTEX
  5
8A7
  8
0
  6
CONTINUOUS
 10
139.32267753078631
 20
185.25297985644741
 30
0.0
  0
VERTEX
  5
8A8
  8
0
  6
CONTINUOUS
 10
163.6069057252146
 20
178.74604052293751
 30
0.0
 42
0.9999999999999811
  0
VERTEX
  5
8A9
  8
0
  6
CONTINUOUS
 10
165.3695196134376
 20
185.3242051079128
 30
0.0
  0
VERTEX
  5
8AA
  8
0
  6
CONTINUOUS
 10
0.517638090205085
 20
229.4961336328173
 30
0.0
 42
0.131652497587405
  0
VERTEX
  5
8AB
  8
0
  6
CONTINUOUS
 10
-0.5176380902050675
 20
229.49613363281739
 30
0.0
  0
VERTEX
  5
8AC
  8
0
  6
CONTINUOUS
 10
-165.3695196134376
 20
185.3242051079128
 30
0.0
 42
0.9999999999999811
  0
VERTEX
  5
8AD
  8
0
  6
CONTINUOUS
 10
-163.6069057252146
 20
178.74604052293759
 30
0.0
  0
VERTEX
  5
8AE
  8
0
  6
CONTINUOUS
 10
-139.32267753078631
 20
185.2529798564475
 30
0.0
  0
SEQEND
  5
8AF
  8
0
  6
CONTINUOUS
  0
LINE
  5
5A8
  8
0
 10
-107.4446888436089
 20
197.67694685804281
 30
0.0
 11
-105.5809045275761
 21
190.72120909625741
 31
0.0
1001
GENIUS_GENOREF_13
1005
0
1001
ACDBBLOCKREPETAG
1070
     1
1071
        0
1005
0
  0
LINE
  5
5A9
  8
0
 10
-110.9141367094637
 20
196.74731110420529
 30
0.0
 11
-109.0503523934314
 21
189.7915733424197
 31
0.0
1001
GENIUS_GENOREF_13
1005
0
1001
ACDBBLOCKREPETAG
1070
     1
1071
        1
1005
0
  0
ARC
  5
5AA
  8
0
 10
-111.657090172144
 20
197.64365812047151
 30
0.0
 40
1.568435374149667
 50
104.999999999998
 51
194.99999999999781
1001
GENIUS_GENOREF_13
1005
0
1001
ACDBBLOCKREPETAG
1070
     1
1071
        2
1005
0
  0
LINE
  5
5AB
  8
0
 10
-111.1985409261558
 20
197.3605850747816
 30
0.0
 11
-113.07059717044
 21
196.85896911594011
 31
0.0
1001
GENIUS_GENOREF_13
1005
0
1001
ACDBBLOCKREPETAG
1070
     1
1071
        3
1005
0
  0
LINE
  5
5AC
  8
0
 10
-105.7344535444747
 20
199.2306238219183
 30
0.0
 11
-113.1720824069006
 21
197.23771717462921
 31
0.0
1001
GENIUS_GENOREF_13
1005
0
1001
ACDBBLOCKREPETAG
1070
     1
1071
        4
1005
0
  0
LINE
  5
5AD
  8
0
 10
-113.07059717044
 20
196.85896911594011
 30
0.0
 11
-113.1720824069006
 21
197.23771717462921
 31
0.0
1001
GENIUS_GENOREF_13
1005
0
1001
ACDBBLOCKREPETAG
1070
     1
1071
        5
1005
0
  0
LINE
  5
5AE
  8
0
 10
-107.50502455229829
 20
198.35025980438769
 30
0.0
 11
-111.1985409261558
 21
197.3605850747816
 31
0.0
1001
GENIUS_GENOREF_13
1005
0
1001
ACDBBLOCKREPETAG
1070
     1
1071
        6
1005
0
  0
LINE
  5
5AF
  8
0
 10
-107.4446888436089
 20
197.67694685804281
 30
0.0
 11
-110.9141367094637
 21
196.74731110420529
 31
0.0
1001
GENIUS_GENOREF_13
1005
0
1001
ACDBBLOCKREPETAG
1070
     1
1071
        7
1005
0
  0
LINE
  5
5B0
  8
0
 10
-107.6553867250736
 20
200.3396751108327
 30
0.0
 11
-109.85920892153
 21
199.74916273303029
 31
0.0
1001
GENIUS_GENOREF_13
1005
0
1001
ACDBBLOCKREPETAG
1070
     1
1071
        8
1005
0
  0
LINE
  5
5B1
  8
0
 10
-112.0630311179865
 20
199.15865035522819
 30
0.0
 11
-109.85920892153
 21
199.74916273303029
 31
0.0
1001
GENIUS_GENOREF_13
1005
0
1001
ACDBBLOCKREPETAG
1070
     1
1071
        9
1005
0
  0
LINE
  5
5B2
  8
0
 10
-110.9141367094637
 20
196.74731110420529
 30
0.0
 11
-111.1985409261558
 21
197.3605850747816
 31
0.0
1001
GENIUS_GENOREF_13
1005
0
1001
ACDBBLOCKREPETAG
1070
     1
1071
       10
1005
0
  0
ARC
  5
5B3
  8
0
 10
-107.24944577923119
 20
198.82468287607591
 30
0.0
 40
1.568435374149667
 50
14.99999999999784
 51
104.999999999998
1001
GENIUS_GENOREF_13
1005
0
1001
ACDBBLOCKREPETAG
1070
     1
1071
       11
1005
0
  0
LINE
  5
5B4
  8
0
 10
-107.50502455229829
 20
198.35025980438769
 30
0.0
 11
-105.6329683080141
 21
198.8518757632292
 31
0.0
1001
GENIUS_GENOREF_13
1005
0
1001
ACDBBLOCKREPETAG
1070
     1
1071
       12
1005
0
  0
LINE
  5
5B5
  8
0
 10
-105.6329683080141
 20
198.8518757632292
 30
0.0
 11
-105.7344535444747
 21
199.2306238219183
 31
0.0
1001
GENIUS_GENOREF_13
1005
0
1001
ACDBBLOCKREPETAG
1070
     1
1071
       13
1005
0
  0
LINE
  5
5B6
  8
0
 10
-107.4446888436089
 20
197.67694685804281
 30
0.0
 11
-107.50502455229829
 21
198.35025980438769
 31
0.0
1001
GENIUS_GENOREF_13
1005
0
1001
ACDBBLOCKREPETAG
1070
     1
1071
       14
1005
0
  0
ARC
  5
5B7
  8
0
 10
-102.2950057052249
 20
189.37104067688989
 30
0.0
 40
7.7000000000000268
 50
178.75052445808501
 51
223.94882037700521
1001
GENIUS_GENOREF_13
1005
0
1001
ACDBBLOCKREPETAG
1070
     1
1071
       15
1005
0
  0
LINE
  5
5B8
  8
0
 10
-109.0503523934309
 20
189.79157334241989
 30
0.0
 11
-109.9931748509769
 21
189.53894482631449
 31
0.0
1001
GENIUS_GENOREF_13
1005
0
1001
ACDBBLOCKREPETAG
1070
     1
1071
       16
1005
0
  0
ARC
  5
5B9
  8
0
 10
-111.220940038169
 20
186.97934378068459
 30
0.0
 40
7.7000000000000268
 50
346.05117962299028
 51
31.249475541911561
1001
GENIUS_GENOREF_13
1005
0
1001
ACDBBLOCKREPETAG
1070
     1
1071
       17
1005
0
  0
LINE
  5
5BA
  8
0
 10
-105.5809045275761
 20
190.72120909625741
 30
0.0
 11
-109.0503523934309
 21
189.79157334241989
 31
0.0
1001
GENIUS_GENOREF_13
1005
0
1001
ACDBBLOCKREPETAG
1070
     1
1071
       18
1005
0
  0
LINE
  5
5BB
  8
0
 10
-103.7480019764276
 20
185.1232196670062
 30
0.0
 11
-107.8386978507617
 21
184.02712101099721
 31
0.0
1001
GENIUS_GENOREF_13
1005
0
1001
ACDBBLOCKREPETAG
1070
     1
1071
       19
1005
0
  0
LINE
  5
5BC
  8
0
 10
-105.5809045275761
 20
190.72120909625741
 30
0.0
 11
-104.63808207003019
 21
190.9738376123627
 31
0.0
1001
GENIUS_GENOREF_13
1005
0
1001
ACDBBLOCKREPETAG
1070
     1
1071
       20
1005
0
  0
INSERT
  5
5BD
  8
0
  6
CONTINUOUS
  2
*U27
 10
0.0
 20
0.0
 30
0.0
  0
POLYLINE
  5
5EC
  8
0
 66
     1
 10
0.0
 20
0.0
 30
0.0
 70
     1
1001
ACDBBLOCKREPETAG
1070
     1
1071
        0
1005
5EC
  0
VERTEX
  5
8B6
  8
0
 10
139.83274141726361
 20
82.106328699183607
 30
0.0
  0
VERTEX
  5
8B7
  8
0
 10
67.38496811918192
 20
101.51865104783769
 30
0.0
  0
VERTEX
  5
8B8
  8
0
 10
77.737729923282757
 20
140.15568409940039
 30
0.0
  0
VERTEX
  5
8B9
  8
0
 10
150.18550322136451
 20
120.7433617507464
 30
0.0
  0
SEQEND
  5
8BA
  8
0
  0
POLYLINE
  5
5ED
  8
0
 66
     1
 10
0.0
 20
0.0
 30
0.0
 70
     1
1001
ACDBBLOCKREPETAG
1070
     1
1071
        0
1005
5EC
  0
VERTEX
  5
8BB
  8
0
 10
139.7443530696153
 20
82.259421808107547
 30
0.0
  0
VERTEX
  5
8BC
  8
0
 10
67.538061228105889
 20
101.607039395486
 30
0.0
  0
VERTEX
  5
8BD
  8
0
 10
77.826118270931062
 20
140.00259099047639
 30
0.0
  0
VERTEX
  5
8BE
  8
0
 10
150.03241011244049
 20
120.654973403098
 30
0.0
  0
SEQEND
  5
8BF
  8
0
  0
LINE
  5
5EE
  8
0
 10
150.18550322136451
 20
120.7433617507464
 30
0.0
 11
67.38496811918192
 21
101.51865104783769
 31
0.0
1001
ACDBBLOCKREPETAG
1070
     1
1071
        1
1005
5EE
  0
LINE
  5
5EF
  8
0
 10
77.737729923282757
 20
140.15568409940039
 30
0.0
 11
139.83274141726361
 21
82.106328699183607
 31
0.0
1001
ACDBBLOCKREPETAG
1070
     1
1071
        2
1005
5EF
  0
POLYLINE
  5
5F0
  8
0
 66
     1
 10
0.0
 20
0.0
 30
0.0
 70
     1
1001
ACDBBLOCKREPETAG
1070
     1
1071
        0
1005
5F0
  0
VERTEX
  5
8C0
  8
0
 10
-139.83274141726361
 20
82.106328699183649
 30
0.0
  0
VERTEX
  5
8C1
  8
0
 10
-67.38496811918192
 20
101.51865104783769
 30
0.0
  0
VERTEX
  5
8C2
  8
0
 10
-77.737729923282728
 20
140.15568409940039
 30
0.0
  0
VERTEX
  5
8C3
  8
0
 10
-150.18550322136451
 20
120.7433617507464
 30
0.0
  0
SEQEND
  5
8C4
  8
0
  0
POLYLINE
  5
5F1
  8
0
 66
     1
 10
0.0
 20
0.0
 30
0.0
 70
     1
 40
0.25
 41
0.25
1001
ACDBBLOCKREPETAG
1070
     1
1071
        0
1005
5F0
  0
VERTEX
  5
8C5
  8
0
 10
-139.74435306961541
 20
82.259421808107604
 30
0.0
  0
VERTEX
  5
8C6
  8
0
 10
-67.538061228105889
 20
101.607039395486
 30
0.0
  0
VERTEX
  5
8C7
  8
0
 10
-77.826118270931048
 20
140.00259099047651
 30
0.0
  0
VERTEX
  5
8C8
  8
0
 10
-150.03241011244049
 20
120.6549734030981
 30
0.0
  0
SEQEND
  5
8C9
  8
0
  0
LINE
  5
5F2
  8
0
 10
-150.18550322136451
 20
120.7433617507464
 30
0.0
 11
-67.38496811918192
 21
101.51865104783769
 31
0.0
1001
ACDBBLOCKREPETAG
1070
     1
1071
        1
1005
5F2
  0
LINE
  5
5F3
  8
0
 10
-77.737729923282728
 20
140.15568409940039
 30
0.0
 11
-139.83274141726361
 21
82.106328699183649
 31
0.0
1001
ACDBBLOCKREPETAG
1070
     1
1071
        2
1005
5F3
  0
LINE
  5
608
  8
0
  6
CONTINUOUS
 10
-14.174764389316589
 20
165.9569393008442
 30
0.0
 11
-23.325847193961579
 21
156.80585649619931
 31
0.0
1001
ACAD
1010
0.0
1020
0.0
1030
0.0
  0
LINE
  5
609
  8
0
  6
CONTINUOUS
 10
-17.021391513448869
 20
176.58069635831569
 30
0.0
 11
-41.726734184768389
 21
151.87535368699619
 31
0.0
1001
ACAD
1010
0.0
1020
0.0
1030
0.0
  0
LINE
  5
60A
  8
0
  6
CONTINUOUS
 10
-35.378883834045482
 20
171.69358821932281
 30
0.0
 11
-60.1276211755752
 21
146.9448508777931
 31
0.0
1001
ACAD
1010
0.0
1020
0.0
1030
0.0
  0
LINE
  5
60B
  8
0
  6
CONTINUOUS
 10
-53.77977082485193
 20
166.76308541012011
 30
0.0
 11
-78.528508166381982
 21
142.0143480685901
 31
0.0
1001
ACAD
1010
0.0
1020
0.0
1030
0.0
  0
LINE
  5
60C
  8
0
  6
CONTINUOUS
 10
-72.180657815658378
 20
161.83258260091731
 30
0.0
 11
-96.929395157188765
 21
137.083845259387
 31
0.0
1001
ACAD
1010
0.0
1020
0.0
1030
0.0
  0
LINE
  5
60D
  8
0
  6
CONTINUOUS
 10
-90.581544806464819
 20
156.90207979171461
 30
0.0
 11
-115.3302821479956
 21
132.15334245018391
 31
0.0
1001
ACAD
1010
0.0
1020
0.0
1030
0.0
  0
LINE
  5
60E
  8
0
  6
CONTINUOUS
 10
-108.9824317972712
 20
151.97157698251189
 30
0.0
 11
-133.73116913880239
 21
127.22283964098079
 31
0.0
1001
ACAD
1010
0.0
1020
0.0
1030
0.0
  0
LINE
  5
60F
  8
0
  6
CONTINUOUS
 10
-127.3833187880777
 20
147.0410741733092
 30
0.0
 11
-152.13205612960911
 21
122.2923368317778
 31
0.0
1001
ACAD
1010
0.0
1020
0.0
1030
0.0
  0
LINE
  5
610
  8
0
  6
CONTINUOUS
 10
-145.7842057788842
 20
142.11057136410651
 30
0.0
 11
-170.53294312041601
 21
117.3618340225747
 31
0.0
1001
ACAD
1010
0.0
1020
0.0
1030
0.0
  0
LINE
  5
611
  8
0
  6
CONTINUOUS
 10
-164.18509276969061
 20
137.18006855490381
 30
0.0
 11
-188.93383011122279
 21
112.43133121337161
 31
0.0
1001
ACAD
1010
0.0
1020
0.0
1030
0.0
  0
LINE
  5
612
  8
0
  6
CONTINUOUS
 10
-182.58597976049711
 20
132.24956574570109
 30
0.0
 11
-207.3347171020296
 21
107.5008284041686
 31
0.0
1001
ACAD
1010
0.0
1020
0.0
1030
0.0
  0
LINE
  5
613
  8
0
  6
CONTINUOUS
 10
-200.98686675130349
 20
127.3190629364983
 30
0.0
 11
-225.73560409283641
 21
102.5703255949655
 31
0.0
1001
ACAD
1010
0.0
1020
0.0
1030
0.0
  0
LINE
  5
614
  8
0
  6
CONTINUOUS
 10
-219.38775374210999
 20
122.38856012729561
 30
0.0
 11
-244.13649108364319
 21
97.639822785762462
 31
0.0
1001
ACAD
1010
0.0
1020
0.0
1030
0.0
  0
LINE
  5
615
  8
0
  6
CONTINUOUS
 10
-237.78864073291641
 20
117.4580573180929
 30
0.0
 11
-262.53737807444998
 21
92.709319976559385
 31
0.0
1001
ACAD
1010
0.0
1020
0.0
1030
0.0
  0
LINE
  5
616
  8
0
  6
CONTINUOUS
 10
-256.1895277237229
 20
112.5275545088902
 30
0.0
 11
-280.93826506525681
 21
87.778817167356337
 31
0.0
1001
ACAD
1010
0.0
1020
0.0
1030
0.0
  0
LINE
  5
617
  8
0
  6
CONTINUOUS
 10
-274.5904147145294
 20
107.5970516996875
 30
0.0
 11
-299.3391520560636
 21
82.848314358153246
 31
0.0
1001
ACAD
1010
0.0
1020
0.0
1030
0.0
  0
LINE
  5
618
  8
0
  6
CONTINUOUS
 10
-292.99130170533579
 20
102.6665488904848
 30
0.0
 11
-317.74003904687038
 21
77.917811548950169
 31
0.0
1001
ACAD
1010
0.0
1020
0.0
1030
0.0
  0
LINE
  5
619
  8
0
  6
CONTINUOUS
 10
-311.39218869614223
 20
97.736046081282083
 30
0.0
 11
-336.14092603767722
 21
72.987308739747135
 31
0.0
1001
ACAD
1010
0.0
1020
0.0
1030
0.0
  0
LINE
  5
61A
  8
0
  6
CONTINUOUS
 10
-329.79307568694873
 20
92.805543272079348
 30
0.0
 11
-354.541813028484
 21
68.056805930544044
 31
0.0
1001
ACAD
1010
0.0
1020
0.0
1030
0.0
  0
LINE
  5
61B
  8
0
  6
CONTINUOUS
 10
-348.19396267775511
 20
87.875040462876655
 30
0.0
 11
-372.94270001929078
 21
63.126303121340982
 31
0.0
1001
ACAD
1010
0.0
1020
0.0
1030
0.0
  0
LINE
  5
61C
  8
0
  6
CONTINUOUS
 10
-366.59484966856161
 20
82.944537653673905
 30
0.0
 11
-379.59173698797701
 21
69.947650334258526
 31
0.0
1001
ACAD
1010
0.0
1020
0.0
1030
0.0
  0
LINE
  5
61D
  8
0
  6
CONTINUOUS
 10
366.59484966856132
 20
82.944537653673976
 30
0.0
 11
375.07836466123939
 21
74.461022660995894
 31
0.0
1001
ACAD
1010
0.0
1020
0.0
1030
0.0
  0
LINE
  5
61E
  8
0
  6
CONTINUOUS
 10
379.42117937324258
 20
70.118207948992705
 30
0.0
 11
382.40990295201328
 21
67.129484370222002
 31
0.0
1001
ACAD
1010
0.0
1020
0.0
1030
0.0
  0
LINE
  5
61F
  8
0
  6
CONTINUOUS
 10
348.19396267775488
 20
87.875040462876683
 30
0.0
 11
372.94270001929078
 21
63.126303121340861
 31
0.0
1001
ACAD
1010
0.0
1020
0.0
1030
0.0
  0
LINE
  5
620
  8
0
  6
CONTINUOUS
 10
329.79307568694861
 20
92.80554327207939
 30
0.0
 11
354.54181302848389
 21
68.056805930543931
 31
0.0
1001
ACAD
1010
0.0
1020
0.0
1030
0.0
  0
LINE
  5
621
  8
0
  6
CONTINUOUS
 10
311.39218869614211
 20
97.736046081282126
 30
0.0
 11
336.14092603767722
 21
72.987308739747021
 31
0.0
1001
ACAD
1010
0.0
1020
0.0
1030
0.0
  0
LINE
  5
622
  8
0
  6
CONTINUOUS
 10
292.99130170533567
 20
102.6665488904848
 30
0.0
 11
317.74003904687038
 21
77.917811548950084
 31
0.0
1001
ACAD
1010
0.0
1020
0.0
1030
0.0
  0
LINE
  5
623
  8
0
  6
CONTINUOUS
 10
274.59041471452917
 20
107.5970516996875
 30
0.0
 11
299.33915205606348
 21
82.848314358153175
 31
0.0
1001
ACAD
1010
0.0
1020
0.0
1030
0.0
  0
LINE
  5
624
  8
0
  6
CONTINUOUS
 10
256.18952772372279
 20
112.5275545088902
 30
0.0
 11
280.93826506525681
 21
87.778817167356266
 31
0.0
1001
ACAD
1010
0.0
1020
0.0
1030
0.0
  0
LINE
  5
625
  8
0
  6
CONTINUOUS
 10
237.78864073291629
 20
117.4580573180929
 30
0.0
 11
262.53737807444998
 21
92.7093199765593
 31
0.0
1001
ACAD
1010
0.0
1020
0.0
1030
0.0
  0
LINE
  5
626
  8
0
  6
CONTINUOUS
 10
219.38775374210991
 20
122.38856012729561
 30
0.0
 11
244.13649108364311
 21
97.639822785762405
 31
0.0
1001
ACAD
1010
0.0
1020
0.0
1030
0.0
  0
LINE
  5
627
  8
0
  6
CONTINUOUS
 10
200.98686675130349
 20
127.3190629364983
 30
0.0
 11
225.7356040928363
 21
102.5703255949655
 31
0.0
1001
ACAD
1010
0.0
1020
0.0
1030
0.0
  0
LINE
  5
628
  8
0
  6
CONTINUOUS
 10
182.585979760497
 20
132.24956574570109
 30
0.0
 11
207.33471710202949
 21
107.5008284041685
 31
0.0
1001
ACAD
1010
0.0
1020
0.0
1030
0.0
  0
LINE
  5
629
  8
0
  6
CONTINUOUS
 10
164.18509276969061
 20
137.18006855490381
 30
0.0
 11
188.9338301112227
 21
112.43133121337161
 31
0.0
1001
ACAD
1010
0.0
1020
0.0
1030
0.0
  0
LINE
  5
62A
  8
0
  6
CONTINUOUS
 10
145.7842057788842
 20
142.11057136410651
 30
0.0
 11
170.53294312041601
 21
117.3618340225747
 31
0.0
1001
ACAD
1010
0.0
1020
0.0
1030
0.0
  0
LINE
  5
62B
  8
0
  6
CONTINUOUS
 10
127.3833187880777
 20
147.0410741733092
 30
0.0
 11
152.13205612960911
 21
122.2923368317778
 31
0.0
1001
ACAD
1010
0.0
1020
0.0
1030
0.0
  0
LINE
  5
62C
  8
0
  6
CONTINUOUS
 10
108.9824317972712
 20
151.97157698251189
 30
0.0
 11
133.7311691388023
 21
127.22283964098079
 31
0.0
1001
ACAD
1010
0.0
1020
0.0
1030
0.0
  0
LINE
  5
62D
  8
0
  6
CONTINUOUS
 10
90.581544806464819
 20
156.9020797917147
 30
0.0
 11
115.3302821479956
 21
132.15334245018391
 31
0.0
1001
ACAD
1010
0.0
1020
0.0
1030
0.0
  0
LINE
  5
62E
  8
0
  6
CONTINUOUS
 10
72.180657815658378
 20
161.83258260091739
 30
0.0
 11
96.929395157188793
 21
137.08384525938689
 31
0.0
1001
ACAD
1010
0.0
1020
0.0
1030
0.0
  0
LINE
  5
62F
  8
0
  6
CONTINUOUS
 10
53.779770824851951
 20
166.76308541012011
 30
0.0
 11
78.528508166382011
 21
142.01434806859001
 31
0.0
1001
ACAD
1010
0.0
1020
0.0
1030
0.0
  0
LINE
  5
630
  8
0
  6
CONTINUOUS
 10
35.378883834045503
 20
171.69358821932281
 30
0.0
 11
60.127621175575229
 21
146.9448508777931
 31
0.0
1001
ACAD
1010
0.0
1020
0.0
1030
0.0
  0
LINE
  5
631
  8
0
  6
CONTINUOUS
 10
17.021391513448918
 20
176.58069635831569
 30
0.0
 11
41.726734184768418
 21
151.87535368699619
 31
0.0
1001
ACAD
1010
0.0
1020
0.0
1030
0.0
  0
LINE
  5
632
  8
0
  6
CONTINUOUS
 10
14.17476438931663
 20
165.9569393008442
 30
0.0
 11
23.325847193961621
 21
156.80585649619931
 31
0.0
1001
ACAD
1010
0.0
1020
0.0
1030
0.0
  0
ENDSEC
  0
EOF
