  0
SECTION
  2
HEADER
  9
$ACADVER
  1
AC1009
  9
$INSBASE
 10
0.0
 20
0.0
 30
0.0
  9
$EXTMIN
 10
-164.3474245306177
 20
-164.67882078356291
 30
-0.0015258207003583
  9
$EXTMAX
 10
222.93951624426711
 20
298.85090783802389
 30
0.0000000349246037
  9
$LIMMIN
 10
0.0
 20
0.0
  9
$LIMMAX
 10
12.0
 20
9.0
  9
$ORTHOMODE
 70
     0
  9
$REGENMODE
 70
     1
  9
$FILLMODE
 70
     1
  9
$QTEXTMODE
 70
     0
  9
$MIRRTEXT
 70
     0
  9
$DRAGMODE
 70
     2
  9
$LTSCALE
 40
1.0
  9
$OSMODE
 70
     0
  9
$ATTMODE
 70
     1
  9
$TEXTSIZE
 40
35.0
  9
$TRACEWID
 40
0.05
  9
$TEXTSTYLE
  7
ARIAL
  9
$CLAYER
  8
0
  9
$CELTYPE
  6
BYLAYER
  9
$CECOLOR
 62
   256
  9
$DIMSCALE
 40
2.0
  9
$DIMASZ
 40
2.0
  9
$DIMEXO
 40
2.0
  9
$DIMDLI
 40
6.0
  9
$DIMRND
 40
0.0
  9
$DIMDLE
 40
2.0
  9
$DIMEXE
 40
2.0
  9
$DIMTP
 40
0.0
  9
$DIMTM
 40
0.0
  9
$DIMTXT
 40
2.0
  9
$DIMCEN
 40
2.0
  9
$DIMTSZ
 40
0.0
  9
$DIMTOL
 70
     0
  9
$DIMLIM
 70
     0
  9
$DIMTIH
 70
     0
  9
$DIMTOH
 70
     0
  9
$DIMSE1
 70
     0
  9
$DIMSE2
 70
     0
  9
$DIMTAD
 70
     1
  9
$DIMZIN
 70
     0
  9
$DIMBLK
  1
ARCHTICK
  9
$DIMASO
 70
     1
  9
$DIMSHO
 70
     1
  9
$DIMPOST
  1

  9
$DIMAPOST
  1

  9
$DIMALT
 70
     0
  9
$DIMALTD
 70
     2
  9
$DIMALTF
 40
0.0394
  9
$DIMLFAC
 40
1.0
  9
$DIMTOFL
 70
     0
  9
$DIMTVP
 40
0.0
  9
$DIMTIX
 70
     0
  9
$DIMSOXD
 70
     0
  9
$DIMSAH
 70
     0
  9
$DIMBLK1
  1

  9
$DIMBLK2
  1

  9
$DIMSTYLE
  2
1_TO_2
  9
$DIMCLRD
 70
   256
  9
$DIMCLRE
 70
   256
  9
$DIMCLRT
 70
   256
  9
$DIMTFAC
 40
1.0
  9
$DIMGAP
 40
1.0
  9
$LUNITS
 70
     2
  9
$LUPREC
 70
     1
  9
$SKETCHINC
 40
0.1
  9
$FILLETRAD
 40
0.0
  9
$AUNITS
 70
     1
  9
$AUPREC
 70
     4
  9
$MENU
  1
.
  9
$ELEVATION
 40
0.0
  9
$PELEVATION
 40
0.0
  9
$THICKNESS
 40
0.0
  9
$LIMCHECK
 70
     0
  9
$BLIPMODE
 70
     0
  9
$CHAMFERA
 40
0.0
  9
$CHAMFERB
 40
0.0
  9
$SKPOLY
 70
     0
  9
$TDCREATE
 40
2452152.65359294
  9
$TDUPDATE
 40
2455419.6005714121
  9
$TDINDWG
 40
26.027192812500001
  9
$TDUSRTIMER
 40
26.027192812500001
  9
$USRTIMER
 70
     1
  9
$ANGBASE
 50
0.0
  9
$ANGDIR
 70
     0
  9
$PDMODE
 70
     0
  9
$PDSIZE
 40
0.0
  9
$PLINEWID
 40
0.0
  9
$COORDS
 70
     1
  9
$SPLFRAME
 70
     0
  9
$SPLINETYPE
 70
     6
  9
$SPLINESEGS
 70
     8
  9
$ATTDIA
 70
     0
  9
$ATTREQ
 70
     0
  9
$HANDLING
 70
     1
  9
$HANDSEED
  5
1065
  9
$SURFTAB1
 70
     6
  9
$SURFTAB2
 70
     6
  9
$SURFTYPE
 70
     6
  9
$SURFU
 70
     6
  9
$SURFV
 70
     6
  9
$UCSNAME
  2

  9
$UCSORG
 10
0.0
 20
0.0
 30
0.0
  9
$UCSXDIR
 10
1.0
 20
0.0
 30
0.0
  9
$UCSYDIR
 10
0.0
 20
1.0
 30
0.0
  9
$PUCSNAME
  2

  9
$PUCSORG
 10
0.0
 20
0.0
 30
0.0
  9
$PUCSXDIR
 10
1.0
 20
0.0
 30
0.0
  9
$PUCSYDIR
 10
0.0
 20
1.0
 30
0.0
  9
$USERI1
 70
     0
  9
$USERI2
 70
     0
  9
$USERI3
 70
     0
  9
$USERI4
 70
     0
  9
$USERI5
 70
     0
  9
$USERR1
 40
0.0
  9
$USERR2
 40
0.0
  9
$USERR3
 40
0.0
  9
$USERR4
 40
0.0
  9
$USERR5
 40
0.0
  9
$WORLDVIEW
 70
     1
  9
$SHADEDGE
 70
     3
  9
$SHADEDIF
 70
    70
  9
$TILEMODE
 70
     1
  9
$MAXACTVP
 70
    48
  9
$PLIMCHECK
 70
     0
  9
$PEXTMIN
 10
0.0010420625153245
 20
0.0014770624390508
 30
0.0
  9
$PEXTMAX
 10
208.41146100116339
 20
295.41101074245063
 30
0.0
  9
$PLIMMIN
 10
-0.793749988079071
 20
-0.793749988079071
  9
$PLIMMAX
 10
209.2062500119209
 20
296.20625001192087
  9
$UNITMODE
 70
     0
  9
$VISRETAIN
 70
     1
  9
$PLINEGEN
 70
     1
  9
$PSLTSCALE
 70
     1
  0
ENDSEC
  0
SECTION
  2
TABLES
  0
TABLE
  2
VPORT
 70
     1
  0
VPORT
  2
*ACTIVE
 70
     0
 10
0.0
 20
0.0
 11
1.0
 21
1.0
 12
29.296045856824719
 22
67.086043527230487
 13
0.0
 23
0.0
 14
1.0
 24
1.0
 15
50.0
 25
50.0
 16
0.0
 26
0.0
 36
1.0
 17
0.0
 27
0.0
 37
0.0
 40
467.4249364251296
 41
1.978962131837307
 42
50.0
 43
0.0
 44
0.0
 50
0.0
 51
0.0
 71
     0
 72
 20000
 73
     1
 74
     3
 75
     0
 76
     0
 77
     0
 78
     0
  0
ENDTAB
  0
TABLE
  2
LTYPE
 70
     2
  0
LTYPE
  2
CONTINUOUS
 70
     0
  3
Solid line
 72
    65
 73
     0
 40
0.0
  0
ENDTAB
  0
TABLE
  2
LAYER
 70
    14
  0
LAYER
  2
0
 70
     0
 62
     7
  6
CONTINUOUS
  0
LAYER
  2
DEFPOINTS
 70
     0
 62
   211
  6
CONTINUOUS
  0
LAYER
  2
EURO_COMMON_APEX$0$_BREAK_
 70
     0
 62
    93
  6
CONTINUOUS
  0
ENDTAB
  0
TABLE
  2
STYLE
 70
     4
  0
STYLE
  2
STANDARD
 70
     0
 40
0.0
 41
1.0
 50
0.0
 71
     0
 42
1.5
  3
romans.shx
  4

  0
STYLE
  2
ARIAL
 70
     0
 40
0.0
 41
1.0
 50
0.0
 71
     0
 42
35.0
  3
txt
  4

  0
STYLE
  2
EURO_COMMON_APEX$0$ARIAL
 70
     0
 40
0.0
 41
1.0
 50
0.0
 71
     0
 42
35.0
  3
txt
  4

  0
ENDTAB
  0
TABLE
  2
VIEW
 70
     2
  0
VIEW
  2
09
 70
     0
 40
2970.0
 10
19050.0
 20
1485.0
 41
2100.0
 11
0.0
 21
0.0
 31
1.0
 12
0.0
 22
0.0
 32
0.0
 42
50.0
 43
0.0
 44
0.0
 50
0.0
 71
     0
  0
VIEW
  2
COMM-04
 70
     1
 40
477.26027331217421
 10
194.21746115522001
 20
180.60494410563541
 41
755.81685306636155
 11
0.0
 21
0.0
 31
1.0
 12
0.0
 22
0.0
 32
0.0
 42
50.0
 43
0.0
 44
0.0
 50
0.0
 71
     0
  0
ENDTAB
  0
TABLE
  2
UCS
 70
     0
  0
ENDTAB
  0
TABLE
  2
APPID
 70
    12
  0
APPID
  2
ACAD
 70
     0
  0
APPID
  2
ACAD_PSEXT
 70
     0
  0
APPID
  2
ACDBDYNAMICBLOCKGUID
 70
     0
  0
APPID
  2
ACDBBLOCKREPETAG
 70
     0
  0
APPID
  2
ACAD_MLEADERVER
 70
     0
  0
APPID
  2
ACAD_EXEMPT_FROM_CAD_STANDARDS
 70
     0
  0
APPID
  2
ACADANNOTATIVE
 70
     0
  0
APPID
  2
GENIUS_GENOREF_13
 70
     0
  0
APPID
  2
GENIUS_GENREC_14
 70
     0
  0
APPID
  2
GENIUS_GENOBJ-N-REC_13
 70
     0
  0
APPID
  2
GENIUS_GENODEF_13
 70
     0
  0
APPID
  2
CONTENTBLOCKICON
 70
     0
  0
ENDTAB
  0
TABLE
  2
DIMSTYLE
 70
     3
  0
DIMSTYLE
  2
1_TO_2
 70
     0
  3

  4

  5
ARCHTICK
  6

  7

 40
2.0
 41
2.0
 42
2.0
 43
6.0
 44
2.0
 45
0.0
 46
2.0
 47
0.0
 48
0.0
140
2.0
141
2.0
142
0.0
143
0.0394
144
1.0
145
0.0
146
1.0
147
1.0
 71
     0
 72
     0
 73
     0
 74
     0
 75
     0
 76
     0
 77
     1
 78
     0
170
     0
171
     2
172
     0
173
     0
174
     0
175
     0
176
   256
177
   256
178
   256
  0
DIMSTYLE
  2
EURO_COMMON_APEX$0$1_TO_2_
 70
     0
  3

  4

  5
EURO_COMMON_APEX$0$_ARCHTI
  6

  7

 40
2.0
 41
2.0
 42
2.0
 43
6.0
 44
1.5
 45
0.0
 46
1.5
 47
0.0
 48
0.0
140
2.0
141
2.0
142
0.0
143
0.0394
144
1.0
145
0.0
146
1.0
147
1.0
 71
     0
 72
     0
 73
     0
 74
     0
 75
     0
 76
     0
 77
     0
 78
     0
170
     0
171
     2
172
     1
173
     0
174
     1
175
     0
176
     0
177
     0
178
     0
  0
DIMSTYLE
  2
EURO_COMMON_APEX$0$1_TO_2
 70
     0
  3

  4

  5
EURO_COMMON_APEX$0$_ARCHTI
  6

  7

 40
2.0
 41
2.0
 42
2.0
 43
6.0
 44
2.0
 45
0.0
 46
2.0
 47
0.0
 48
0.0
140
2.0
141
2.0
142
0.0
143
0.0394
144
1.0
145
0.0
146
1.0
147
1.0
 71
     0
 72
     0
 73
     0
 74
     0
 75
     0
 76
     0
 77
     1
 78
     0
170
     0
171
     2
172
     0
173
     0
174
     0
175
     0
176
   256
177
   256
178
   256
  0
ENDTAB
  0
ENDSEC
  0
SECTION
  2
BLOCKS
  0
BLOCK
  8
0
  2
$MODEL_SPACE
 70
     0
 10
0.0
 20
0.0
 30
0.0
  3
$MODEL_SPACE
  1

  0
ENDBLK
  5
17
  8
0
  0
BLOCK
 67
     1
  8
0
  2
$PAPER_SPACE
 70
     0
 10
0.0
 20
0.0
 30
0.0
  3
$PAPER_SPACE
  1

  0
ENDBLK
  5
20
 67
     1
  8
0
  0
BLOCK
  8
0
  2
_ARCHTICK
 70
     0
 10
0.0
 20
0.0
 30
0.0
  3
_ARCHTICK
  1

  0
POLYLINE
  5
82
  8
0
  6
BYBLOCK
 62
     0
 66
     1
 10
0.0
 20
0.0
 30
0.0
 40
0.15
 41
0.15
  0
VERTEX
  5
EB9
  8
0
  6
BYBLOCK
 62
     0
 10
-0.5
 20
-0.5
 30
0.0
  0
VERTEX
  5
EBA
  8
0
  6
BYBLOCK
 62
     0
 10
0.5
 20
0.5
 30
0.0
  0
SEQEND
  5
EBB
  8
0
  6
BYBLOCK
 62
     0
  0
ENDBLK
  5
83
  8
0
  0
BLOCK
  8
0
  2
EURO_COMMON_APEX$0$_ARCHTI
 70
     0
 10
0.0
 20
0.0
 30
0.0
  3
EURO_COMMON_APEX$0$_ARCHTI
  1

  0
POLYLINE
  5
C7C
  8
0
  6
BYBLOCK
 62
     0
 66
     1
 10
0.0
 20
0.0
 30
0.0
 40
0.15
 41
0.15
  0
VERTEX
  5
EDF
  8
0
  6
BYBLOCK
 62
     0
 10
-0.5
 20
-0.5
 30
0.0
  0
VERTEX
  5
EE0
  8
0
  6
BYBLOCK
 62
     0
 10
0.5
 20
0.5
 30
0.0
  0
SEQEND
  5
EE1
  8
0
  6
BYBLOCK
 62
     0
  0
ENDBLK
  5
C7D
  8
0
  0
BLOCK
  8
0
  2
*D8
 70
     1
 10
0.0
 20
0.0
 30
0.0
  3
*D8
  1

  0
LINE
  5
E31
  8
0
 10
11.93637560038829
 20
266.53253262237757
 30
0.0
 11
11.93637560038829
 21
280.53253262237757
 31
0.0
  0
LINE
  5
E32
  8
0
 10
-12.91483070940528
 20
266.53253262237757
 30
0.0
 11
-12.91483070940528
 21
280.53253262237757
 31
0.0
  0
LINE
  5
E33
  8
0
 10
15.93637560038829
 20
276.53253262237757
 30
0.0
 11
-16.91483070940529
 21
276.53253262237757
 31
0.0
  0
LINE
  5
E34
  8
0
 10
-0.4892275545084983
 20
276.53253262237757
 30
0.0
 11
-8.8861041945442594
 21
290.65940847503788
 31
0.0
  0
LINE
  5
E35
  8
0
 10
-8.8861041945442594
 20
290.65940847503788
 30
0.0
 11
-65.300838164530603
 21
290.65940847503788
 31
0.0
  0
INSERT
  5
E36
  8
0
  2
*U50
 10
0.0
 20
0.0
 30
0.0
  0
INSERT
  5
E37
  8
0
  2
EURO_COMMON_APEX$0$_ARCHTI
 10
11.93637560038829
 20
276.53253262237757
 30
0.0
 41
4.0
 42
4.0
 43
4.0
  0
INSERT
  5
E38
  8
0
  2
EURO_COMMON_APEX$0$_ARCHTI
 10
-12.91483070940528
 20
276.53253262237757
 30
0.0
 41
4.0
 42
4.0
 43
4.0
 50
180.0
  0
POINT
  5
E39
  8
DEFPOINTS
 62
     0
 10
11.936375600388279
 20
218.3067733654832
 30
0.0
  0
POINT
  5
E3A
  8
DEFPOINTS
 62
     0
 10
-12.91483070940529
 20
219.3067733654832
 30
0.0
  0
POINT
  5
E3B
  8
DEFPOINTS
 62
     0
 10
-12.91483070940528
 20
276.53253262237757
 30
0.0
  0
ENDBLK
  5
D95
  8
0
  0
BLOCK
  8
0
  2
*U9
 70
     1
 10
0.0
 20
0.0
 30
0.0
  3
*U9
  1

  0
SOLID
  5
EF2
  8
0
 10
-19.570251664102599
 20
229.62494715090921
 30
0.0
 11
-22.84328416049512
 21
227.23084967544941
 31
0.0
 12
-20.523636385678358
 22
230.5570605294441
 32
0.0
 13
-20.523636385678358
 23
230.5570605294441
 33
0.0
  0
POLYLINE
  5
EF3
  8
0
 66
     1
 10
0.0
 20
0.0
 30
0.0
  0
VERTEX
  5
EF4
  8
0
 10
-20.046944024890479
 20
230.09100384017671
 30
0.0
  0
VERTEX
  5
EF5
  8
0
 10
38.714686843276858
 20
290.19360763784169
 30
0.0
  0
VERTEX
  5
EF6
  8
0
 10
42.714686843276851
 20
290.19360763784169
 30
0.0
  0
SEQEND
  5
EF7
  8
0
  0
ENDBLK
  5
EF9
  8
0
  0
BLOCK
  8
0
  2
*U10
 70
     1
 10
0.0
 20
0.0
 30
0.0
  3
*U10
  1

  0
TEXT
  5
EFB
  8
0
 10
44.714686843276851
 20
288.74749576881032
 30
0.0
 40
4.0
  1
Apex flashing
  7
EURO_COMMON_APEX$0$ARIAL
  0
ENDBLK
  5
EFD
  8
0
  0
BLOCK
  8
0
  2
*U11
 70
     1
 10
0.0
 20
0.0
 30
0.0
  3
*U11
  1

  0
TEXT
  5
F0A
  8
0
 10
106.11659327249809
 20
-120.111385759759
 30
0.0
 40
4.0
  1
Note:
  7
EURO_COMMON_APEX$0$ARIAL
  0
TEXT
  5
F0B
  8
0
 10
106.08385111697289
 20
-126.8462652504366
 30
0.0
 40
4.0
  1
For installation of ply refer to ecoply: Structural
  7
EURO_COMMON_APEX$0$ARIAL
  0
TEXT
  5
F0C
  8
0
 10
106.1111362465772
 20
-133.51293191710329
 30
0.0
 40
4.0
  1
Plywood Properties and Applications Manual
  7
EURO_COMMON_APEX$0$ARIAL
  0
TEXT
  5
F0D
  8
0
 10
106.34033133525389
 20
-140.2478114077808
 30
0.0
 40
4.0
  1
available from www.ecoply.co.nz
  7
EURO_COMMON_APEX$0$ARIAL
  0
ENDBLK
  5
F0F
  8
0
  0
BLOCK
  8
0
  2
*U12
 70
     1
 10
0.0
 20
0.0
 30
0.0
  3
*U12
  1

  0
SOLID
  5
F25
  8
0
 10
19.436131078270101
 20
198.8069121388516
 30
0.0
 11
16.279729954185949
 21
196.26101811349929
 31
0.0
 12
18.439819441718839
 22
199.69299390745439
 32
0.0
 13
18.439819441718839
 23
199.69299390745439
 33
0.0
  0
POLYLINE
  5
F26
  8
0
 66
     1
 10
0.0
 20
0.0
 30
0.0
  0
VERTEX
  5
F27
  8
0
 10
18.93797525999447
 20
199.24995302315301
 30
0.0
  0
VERTEX
  5
F28
  8
0
 10
99.819811191500776
 20
290.19360763784158
 30
0.0
  0
VERTEX
  5
F29
  8
0
 10
103.8198111915008
 20
290.19360763784158
 30
0.0
  0
SEQEND
  5
F2A
  8
0
  0
ENDBLK
  5
F2C
  8
0
  0
BLOCK
  8
0
  2
*U13
 70
     1
 10
0.0
 20
0.0
 30
0.0
  3
*U13
  1

  0
TEXT
  5
F2E
  8
0
 10
105.3614210141474
 20
288.78160218081558
 30
0.0
 40
4.0
  1
Full height stop end
  7
EURO_COMMON_APEX$0$ARIAL
  0
ENDBLK
  5
F30
  8
0
  0
BLOCK
  8
0
  2
*U14
 70
     1
 10
0.0
 20
0.0
 30
0.0
  3
*U14
  1

  0
SOLID
  5
F32
  8
0
 10
77.857929962394152
 20
223.29145095695881
 30
0.0
 11
74.554441111964906
 21
220.93955685655081
 31
0.0
 12
76.916586532508902
 22
224.2357233354544
 32
0.0
 13
76.916586532508902
 23
224.2357233354544
 33
0.0
  0
POLYLINE
  5
F33
  8
0
 66
     1
 10
0.0
 20
0.0
 30
0.0
  0
VERTEX
  5
F34
  8
0
 10
77.387258247451527
 20
223.76358714620659
 30
0.0
  0
VERTEX
  5
F35
  8
0
 10
133.94314304800719
 20
280.14404663097201
 30
0.0
  0
VERTEX
  5
F36
  8
0
 10
137.94314304800719
 20
280.14404663097201
 30
0.0
  0
SEQEND
  5
F37
  8
0
  0
ENDBLK
  5
F39
  8
0
  0
BLOCK
  8
0
  2
*U15
 70
     1
 10
0.0
 20
0.0
 30
0.0
  3
*U15
  1

  0
TEXT
  5
F3B
  8
0
 10
139.6457351353196
 20
278.6979347619407
 30
0.0
 40
4.0
  1
Grab flashing
  7
EURO_COMMON_APEX$0$ARIAL
  0
ENDBLK
  5
F3D
  8
0
  0
BLOCK
  8
0
  2
*U16
 70
     1
 10
0.0
 20
0.0
 30
0.0
  3
*U16
  1

  0
SOLID
  5
F3F
  8
0
 10
128.6538269737006
 20
180.13101830856101
 30
0.0
 11
125.7154474117518
 21
177.3363143896519
 31
0.0
 12
127.5886051858409
 22
180.9329411979007
 32
0.0
 13
127.5886051858409
 23
180.9329411979007
 33
0.0
  0
POLYLINE
  5
F40
  8
0
 66
     1
 10
0.0
 20
0.0
 30
0.0
  0
VERTEX
  5
F41
  8
0
 10
128.12121607977079
 20
180.53197975323079
 30
0.0
  0
VERTEX
  5
F42
  8
0
 10
174.9782462244539
 20
242.77378640076711
 30
0.0
  0
VERTEX
  5
F43
  8
0
 10
178.97824622445381
 20
242.77378640076711
 30
0.0
  0
SEQEND
  5
F44
  8
0
  0
ENDBLK
  5
F46
  8
0
  0
BLOCK
  8
0
  2
*U17
 70
     1
 10
0.0
 20
0.0
 30
0.0
  3
*U17
  1

  0
TEXT
  5
F48
  8
0
 10
180.53895563782359
 20
241.32767453173571
 30
0.0
 40
4.0
  1
Roofing underlay
  7
EURO_COMMON_APEX$0$ARIAL
  0
ENDBLK
  5
F4A
  8
0
  0
BLOCK
  8
0
  2
*U18
 70
     1
 10
0.0
 20
0.0
 30
0.0
  3
*U18
  1

  0
SOLID
  5
F4C
  8
0
 10
87.12397509855623
 20
178.81688206504859
 30
0.0
 11
84.19956412678539
 21
176.0075645478158
 31
0.0
 12
86.054768824222847
 22
179.61348467658331
 32
0.0
 13
86.054768824222847
 23
179.61348467658331
 33
0.0
  0
POLYLINE
  5
F4D
  8
0
 66
     1
 10
0.0
 20
0.0
 30
0.0
  0
VERTEX
  5
F4E
  8
0
 10
86.589371961389546
 20
179.21518337081591
 30
0.0
  0
VERTEX
  5
F4F
  8
0
 10
133.94314304800719
 20
242.77378640076711
 30
0.0
  0
VERTEX
  5
F50
  8
0
 10
137.94314304800719
 20
242.77378640076711
 30
0.0
  0
SEQEND
  5
F51
  8
0
  0
ENDBLK
  5
F53
  8
0
  0
BLOCK
  8
0
  2
*U19
 70
     1
 10
0.0
 20
0.0
 30
0.0
  3
*U19
  1

  0
TEXT
  5
F55
  8
0
 10
139.5120380002582
 20
241.36178094374119
 30
0.0
 40
4.0
  1
Plywood
  7
EURO_COMMON_APEX$0$ARIAL
  0
ENDBLK
  5
F57
  8
0
  0
BLOCK
  8
0
  2
*U20
 70
     1
 10
0.0
 20
0.0
 30
0.0
  3
*U20
  1

  0
SOLID
  5
F59
  8
0
 10
186.75420300178669
 20
-46.582335679627057
 30
0.0
 11
186.45456100945921
 21
-42.538246273978558
 31
0.0
 12
188.04960270133071
 22
-46.266555065593877
 32
0.0
 13
188.04960270133071
 23
-46.266555065593877
 33
0.0
  0
POLYLINE
  5
F5A
  8
0
 66
     1
 10
0.0
 20
0.0
 30
0.0
  0
VERTEX
  5
F5B
  8
0
 10
187.4019028515587
 20
-46.424445372610471
 30
0.0
  0
VERTEX
  5
F5C
  8
0
 10
196.3778101036273
 20
-83.245539007708416
 30
0.0
  0
VERTEX
  5
F5D
  8
0
 10
200.3778101036273
 20
-83.245539007708416
 30
0.0
  0
SEQEND
  5
F5E
  8
0
  0
ENDBLK
  5
F60
  8
0
  0
BLOCK
  8
0
  2
*U21
 70
     1
 10
0.0
 20
0.0
 30
0.0
  3
*U21
  1

  0
TEXT
  5
F62
  8
0
 10
201.93851951699699
 20
-85.246903264188646
 30
0.0
 40
4.0
  1
Rafter
  7
EURO_COMMON_APEX$0$ARIAL
  0
ENDBLK
  5
F64
  8
0
  0
BLOCK
  8
0
  2
*U22
 70
     1
 10
0.0
 20
0.0
 30
0.0
  3
*U22
  1

  0
SOLID
  5
F66
  8
0
 10
9.1805410643705763
 20
-57.646468697823167
 30
0.0
 11
6.1077754606235919
 21
-60.292703001295529
 31
0.0
 12
8.1562074738526746
 22
-56.792935761660488
 32
0.0
 13
8.1562074738526746
 23
-56.792935761660488
 33
0.0
  0
POLYLINE
  5
F67
  8
0
 66
     1
 10
0.0
 20
0.0
 30
0.0
  0
VERTEX
  5
F68
  8
0
 10
8.6683742691116272
 20
-57.219702229741827
 30
0.0
  0
VERTEX
  5
F69
  8
0
 10
98.843177721667132
 20
51.000000000000007
 30
0.0
  0
VERTEX
  5
F6A
  8
0
 10
102.8431777216671
 20
51.000000000000007
 30
0.0
  0
SEQEND
  5
F6B
  8
0
  0
ENDBLK
  5
F6D
  8
0
  0
BLOCK
  8
0
  2
*U23
 70
     1
 10
0.0
 20
0.0
 30
0.0
  3
*U23
  1

  0
TEXT
  5
F6F
  8
0
 10
104.5648693997026
 20
49.000000000000007
 30
0.0
 40
4.0
  1
Countersunk screw
  7
EURO_COMMON_APEX$0$ARIAL
  0
ENDBLK
  5
F71
  8
0
  0
BLOCK
  8
0
  2
*U24
 70
     1
 10
0.0
 20
0.0
 30
0.0
  3
*U24
  1

  0
SOLID
  5
F73
  8
0
 10
-78.422784174521226
 20
231.1487784437056
 30
0.0
 11
-76.9659419699708
 21
227.364329311337
 31
0.0
 12
-79.571424855043432
 22
230.4717242621017
 32
0.0
 13
-79.571424855043432
 23
230.4717242621017
 33
0.0
  0
POLYLINE
  5
F74
  8
0
 66
     1
 10
0.0
 20
0.0
 30
0.0
  0
VERTEX
  5
F75
  8
0
 10
-78.997104514782336
 20
230.81025135290361
 30
0.0
  0
VERTEX
  5
F76
  8
0
 10
-114.0
 20
290.19360763784169
 30
0.0
  0
VERTEX
  5
F77
  8
0
 10
-118.0
 20
290.19360763784169
 30
0.0
  0
SEQEND
  5
F78
  8
0
  0
ENDBLK
  5
F7A
  8
0
  0
BLOCK
  8
0
  2
*U25
 70
     1
 10
0.0
 20
0.0
 30
0.0
  3
*U25
  1

  0
TEXT
  5
F7C
  8
0
 10
-141.96725784447469
 20
288.71475361328498
 30
0.0
 40
4.0
  1
Stop end
  7
EURO_COMMON_APEX$0$ARIAL
  0
ENDBLK
  5
F7E
  8
0
  0
BLOCK
  8
0
  2
*U26
 70
     1
 10
0.0
 20
0.0
 30
0.0
  3
*U26
  1

  0
SOLID
  5
F80
  8
0
 10
-77.082044785462543
 20
145.31828210764971
 30
0.0
 11
-75.703268567161174
 21
141.5046984145481
 31
0.0
 12
-78.244354295749503
 22
144.66497178316811
 32
0.0
 13
-78.244354295749503
 23
144.66497178316811
 33
0.0
  0
POLYLINE
  5
F81
  8
0
 66
     1
 10
0.0
 20
0.0
 30
0.0
  0
VERTEX
  5
F82
  8
0
 10
-77.66319954060603
 20
144.99162694540891
 30
0.0
  0
VERTEX
  5
F83
  8
0
 10
-114.0
 20
209.63871296974961
 30
0.0
  0
VERTEX
  5
F84
  8
0
 10
-118.0
 20
209.63871296974961
 30
0.0
  0
SEQEND
  5
F85
  8
0
  0
ENDBLK
  5
F87
  8
0
  0
BLOCK
  8
0
  2
*U27
 70
     1
 10
0.0
 20
0.0
 30
0.0
  3
*U27
  1

  0
TEXT
  5
F89
  8
0
 10
-152.862210095498
 20
208.19260110071821
 30
0.0
 40
4.0
  1
Grab flashing
  7
EURO_COMMON_APEX$0$ARIAL
  0
ENDBLK
  5
F8B
  8
0
  0
BLOCK
  8
0
  2
*U28
 70
     1
 10
0.0
 20
0.0
 30
0.0
  3
*U28
  1

  0
SOLID
  5
F8D
  8
0
 10
-86.538894968631126
 20
103.09166259436731
 30
0.0
 11
-82.732906021729406
 21
104.49126703152319
 31
0.0
 12
-85.879240072964251
 22
101.9329420946778
 32
0.0
 13
-85.879240072964251
 23
101.9329420946778
 33
0.0
  0
POLYLINE
  5
F8E
  8
0
 66
     1
 10
0.0
 20
0.0
 30
0.0
  0
VERTEX
  5
F8F
  8
0
 10
-86.209067520797674
 20
102.5123023445225
 30
0.0
  0
VERTEX
  5
F90
  8
0
 10
-114.0
 20
86.691036845235203
 30
0.0
  0
VERTEX
  5
F91
  8
0
 10
-118.0
 20
86.691036845235203
 30
0.0
  0
SEQEND
  5
F92
  8
0
  0
ENDBLK
  5
F94
  8
0
  0
BLOCK
  8
0
  2
*U29
 70
     1
 10
0.0
 20
0.0
 30
0.0
  3
*U29
  1

  0
TEXT
  5
F96
  8
0
 10
-151.28785811732601
 20
88.612364721542619
 30
0.0
 40
4.0
  1
Euroline wall
  7
EURO_COMMON_APEX$0$ARIAL
  0
TEXT
  5
F97
  8
0
 10
-140.44201909959071
 20
81.945698054875933
 30
0.0
 40
4.0
  1
cladding
  7
EURO_COMMON_APEX$0$ARIAL
  0
ENDBLK
  5
F99
  8
0
  0
BLOCK
  8
0
  2
*U30
 70
     1
 10
0.0
 20
0.0
 30
0.0
  3
*U30
  1

  0
SOLID
  5
F9B
  8
0
 10
-53.126261504269742
 20
-103.8865744611043
 30
0.0
 11
-49.181794761164937
 21
-102.9454971226328
 31
0.0
 12
-52.607832813786821
 22
-105.1149919270587
 32
0.0
 13
-52.607832813786821
 23
-105.1149919270587
 33
0.0
  0
POLYLINE
  5
F9C
  8
0
 66
     1
 10
0.0
 20
0.0
 30
0.0
  0
VERTEX
  5
F9D
  8
0
 10
-52.867047159028282
 20
-104.50078319408151
 30
0.0
  0
VERTEX
  5
F9E
  8
0
 10
-114.0
 20
-130.3007067258383
 30
0.0
  0
VERTEX
  5
F9F
  8
0
 10
-118.0
 20
-130.3007067258383
 30
0.0
  0
SEQEND
  5
FA0
  8
0
  0
ENDBLK
  5
FA2
  8
0
  0
BLOCK
  8
0
  2
*U31
 70
     1
 10
0.0
 20
0.0
 30
0.0
  3
*U31
  1

  0
TEXT
  5
FA4
  8
0
 10
-154.74215552523879
 20
-131.74681859486969
 30
0.0
 40
4.0
  1
Roof underlay
  7
EURO_COMMON_APEX$0$ARIAL
  0
ENDBLK
  5
FA6
  8
0
  0
BLOCK
  8
0
  2
*U32
 70
     1
 10
0.0
 20
0.0
 30
0.0
  3
*U32
  1

  0
SOLID
  5
FA8
  8
0
 10
-19.13470599099168
 20
-39.325999335287008
 30
0.0
 11
-16.681794761160418
 21
-42.555189782289482
 31
0.0
 12
-20.04942120462324
 22
-40.296088947502689
 32
0.0
 13
-20.04942120462324
 23
-40.296088947502689
 33
0.0
  0
POLYLINE
  5
FA9
  8
0
 66
     1
 10
0.0
 20
0.0
 30
0.0
  0
VERTEX
  5
FAA
  8
0
 10
-19.59206359780746
 20
-39.811044141394852
 30
0.0
  0
VERTEX
  5
FAB
  8
0
 10
-114.0
 20
49.207923412960781
 30
0.0
  0
VERTEX
  5
FAC
  8
0
 10
-118.0
 20
49.207923412960781
 30
0.0
  0
SEQEND
  5
FAD
  8
0
  0
ENDBLK
  5
FAF
  8
0
  0
BLOCK
  8
0
  2
*U33
 70
     1
 10
0.0
 20
0.0
 30
0.0
  3
*U33
  1

  0
TEXT
  5
FB1
  8
0
 10
-164.33560709413371
 20
50.539892489813887
 30
0.0
 40
4.0
  1
Cavibat horizontal
  7
EURO_COMMON_APEX$0$ARIAL
  0
TEXT
  5
FB2
  8
0
 10
-153.481582537517
 20
43.873225823147223
 30
0.0
 40
4.0
  1
vented batten
  7
EURO_COMMON_APEX$0$ARIAL
  0
ENDBLK
  5
FB4
  8
0
  0
BLOCK
  8
0
  2
*U34
 70
     1
 10
0.0
 20
0.0
 30
0.0
  3
*U34
  1

  0
SOLID
  5
FB6
  8
0
 10
-40.50388820498388
 20
-32.68776354281129
 30
0.0
 11
-37.432124464017988
 21
-35.335160748394863
 31
0.0
 12
-41.196462231607413
 22
-33.827113794237178
 32
0.0
 13
-41.196462231607413
 23
-33.827113794237178
 33
0.0
  0
POLYLINE
  5
FB7
  8
0
 66
     1
 10
0.0
 20
0.0
 30
0.0
  0
VERTEX
  5
FB8
  8
0
 10
-40.850175218295647
 20
-33.25743866852423
 30
0.0
  0
VERTEX
  5
FB9
  8
0
 10
-114.0
 20
11.20796486517297
 30
0.0
  0
VERTEX
  5
FBA
  8
0
 10
-118.0
 20
11.20796486517297
 30
0.0
  0
SEQEND
  5
FBB
  8
0
  0
ENDBLK
  5
FBD
  8
0
  0
BLOCK
  8
0
  2
*U35
 70
     1
 10
0.0
 20
0.0
 30
0.0
  3
*U35
  1

  0
TEXT
  5
FBF
  8
0
 10
-140.71759890859479
 20
9.7959594081470556
 30
0.0
 40
4.0
  1
Plywood
  7
EURO_COMMON_APEX$0$ARIAL
  0
ENDBLK
  5
FC1
  8
0
  0
BLOCK
  8
0
  2
*U36
 70
     1
 10
0.0
 20
0.0
 30
0.0
  3
*U36
  1

  0
SOLID
  5
FC3
  8
0
 10
-10.15256726093531
 20
-106.95339569168711
 30
0.0
 11
-6.1817947611601527
 21
-106.130346361772
 31
0.0
 12
-9.6709959917857944
 22
-108.19672464675391
 32
0.0
 13
-9.6709959917857944
 23
-108.19672464675391
 33
0.0
  0
POLYLINE
  5
FC4
  8
0
 66
     1
 10
0.0
 20
0.0
 30
0.0
  0
VERTEX
  5
FC5
  8
0
 10
-9.911781626360554
 20
-107.57506016922051
 30
0.0
  0
VERTEX
  5
FC6
  8
0
 10
-114.0
 20
-147.89093572366099
 30
0.0
  0
VERTEX
  5
FC7
  8
0
 10
-118.0
 20
-147.89093572366099
 30
0.0
  0
SEQEND
  5
FC8
  8
0
  0
ENDBLK
  5
FCA
  8
0
  0
BLOCK
  8
0
  2
*U37
 70
     1
 10
0.0
 20
0.0
 30
0.0
  3
*U37
  1

  0
TEXT
  5
FCC
  8
0
 10
-153.3233287858117
 20
-149.30294118068699
 30
0.0
 40
4.0
  1
Building wrap
  7
EURO_COMMON_APEX$0$ARIAL
  0
ENDBLK
  5
FCE
  8
0
  0
BLOCK
  8
0
  2
*U38
 70
     1
 10
0.0
 20
0.0
 30
0.0
  3
*U38
  1

  0
SOLID
  5
FD0
  8
0
 10
99.340596898462152
 20
-106.7692931552855
 30
0.0
 11
95.818205238837933
 21
-108.7785719912499
 31
0.0
 12
98.498539348439976
 22
-105.7355055270812
 32
0.0
 13
98.498539348439976
 23
-105.7355055270812
 33
0.0
  0
POLYLINE
  5
FD1
  8
0
 66
     1
 10
0.0
 20
0.0
 30
0.0
  0
VERTEX
  5
FD2
  8
0
 10
98.919568123451072
 20
-106.25239934118341
 30
0.0
  0
VERTEX
  5
FD3
  8
0
 10
127.1649149835866
 20
-83.245539007708416
 30
0.0
  0
VERTEX
  5
FD4
  8
0
 10
131.16491498358661
 20
-83.245539007708416
 30
0.0
  0
SEQEND
  5
FD5
  8
0
  0
ENDBLK
  5
FD7
  8
0
  0
BLOCK
  8
0
  2
*U39
 70
     1
 10
0.0
 20
0.0
 30
0.0
  3
*U39
  1

  0
TEXT
  5
FD9
  8
0
 10
132.70652480623329
 20
-84.657544464734357
 30
0.0
 40
4.0
  1
Framing
  7
EURO_COMMON_APEX$0$ARIAL
  0
ENDBLK
  5
FDB
  8
0
  0
BLOCK
  8
0
  2
*U40
 70
     1
 10
0.0
 20
0.0
 30
0.0
  3
*U40
  1

  0
SOLID
  5
FDD
  8
0
 10
-36.117782621444533
 20
157.8686768447516
 30
0.0
 11
-38.870828519012512
 21
160.84612251685519
 31
0.0
 12
-35.300937857387567
 22
158.92249960461709
 32
0.0
 13
-35.300937857387567
 23
158.92249960461709
 33
0.0
  0
POLYLINE
  5
FDE
  8
0
 66
     1
 10
0.0
 20
0.0
 30
0.0
  0
VERTEX
  5
FDF
  8
0
 10
-35.70936023941605
 20
158.3955882246843
 30
0.0
  0
VERTEX
  5
FE0
  8
0
 10
102.8431777216671
 20
51.000000000000007
 30
0.0
  0
SEQEND
  5
FE1
  8
0
  0
ENDBLK
  5
FE3
  8
0
  0
BLOCK
  8
0
  2
*U41
 70
     1
 10
0.0
 20
0.0
 30
0.0
  3
*U41
  1

  0
SOLID
  5
FE5
  8
0
 10
81.028691214086194
 20
113.4084124764474
 30
0.0
 11
79.560425843213054
 21
117.18844438704539
 31
0.0
 12
82.175281813692408
 22
114.0889327000061
 32
0.0
 13
82.175281813692408
 23
114.0889327000061
 33
0.0
  0
POLYLINE
  5
FE6
  8
0
 66
     1
 10
0.0
 20
0.0
 30
0.0
  0
VERTEX
  5
FE7
  8
0
 10
81.601986513889287
 20
113.7486725882268
 30
0.0
  0
VERTEX
  5
FE8
  8
0
 10
98.843177721667132
 20
84.699443659404324
 30
0.0
  0
VERTEX
  5
FE9
  8
0
 10
102.8431777216671
 20
84.699443659404324
 30
0.0
  0
SEQEND
  5
FEA
  8
0
  0
ENDBLK
  5
FEC
  8
0
  0
BLOCK
  8
0
  2
*U42
 70
     1
 10
0.0
 20
0.0
 30
0.0
  3
*U42
  1

  0
TEXT
  5
FEE
  8
0
 10
104.4120726739181
 20
82.732185814929565
 30
0.0
 40
4.0
  1
Purlin
  7
EURO_COMMON_APEX$0$ARIAL
  0
ENDBLK
  5
FF0
  8
0
  0
BLOCK
  8
0
  2
*U43
 70
     1
 10
0.0
 20
0.0
 30
0.0
  3
*U43
  1

  0
SOLID
  5
FF2
  8
0
 10
-26.181750463116401
 20
139.19823480424421
 30
0.0
 11
-22.846383907730338
 21
141.50469841454819
 31
0.0
 12
-25.253418127050988
 22
138.24116800845979
 32
0.0
 13
-25.253418127050988
 23
138.24116800845979
 33
0.0
  0
POLYLINE
  5
FF3
  8
0
 66
     1
 10
0.0
 20
0.0
 30
0.0
  0
VERTEX
  5
FF4
  8
0
 10
-25.7175842950837
 20
138.71970140635199
 30
0.0
  0
VERTEX
  5
FF5
  8
0
 10
-118.0
 20
49.207923412960781
 30
0.0
  0
SEQEND
  5
FF6
  8
0
  0
ENDBLK
  5
FF8
  8
0
  0
BLOCK
  8
0
  2
*U44
 70
     1
 10
0.0
 20
0.0
 30
0.0
  3
*U44
  1

  0
TEXT
  5
1008
  8
0
 10
-151.7708049113233
 20
238.4511623889984
 30
0.0
 40
4.0
  1
Lapseal tape
  7
EURO_COMMON_APEX$0$ARIAL
  0
ENDBLK
  5
100A
  8
0
  0
BLOCK
  8
0
  2
*U45
 70
     1
 10
0.0
 20
0.0
 30
0.0
  3
*U45
  1

  0
SOLID
  5
100C
  8
0
 10
-56.745898816798373
 20
179.8041619570198
 30
0.0
 11
-54.496365916686493
 21
176.4301367384183
 31
0.0
 12
-57.718580893095499
 22
178.89220397759971
 32
0.0
 13
-57.718580893095499
 23
178.89220397759971
 33
0.0
  0
POLYLINE
  5
100D
  8
0
 66
     1
 10
0.0
 20
0.0
 30
0.0
  0
VERTEX
  5
100E
  8
0
 10
-57.23223985494694
 20
179.3481829673097
 30
0.0
  0
VERTEX
  5
100F
  8
0
 10
-114.0
 20
239.89591000154951
 30
0.0
  0
VERTEX
  5
1010
  8
0
 10
-118.0
 20
239.89591000154951
 30
0.0
  0
SEQEND
  5
1011
  8
0
  0
ENDBLK
  5
1013
  8
0
  0
BLOCK
  8
0
  2
*U46
 70
     1
 10
0.0
 20
0.0
 30
0.0
  3
*U46
  1

  0
TEXT
  5
1015
  8
0
 10
-150.21555252387449
 20
-45.659519132806949
 30
0.0
 40
4.0
  1
Euroline clip
  7
EURO_COMMON_APEX$0$ARIAL
  0
ENDBLK
  5
1017
  8
0
  0
BLOCK
  8
0
  2
*U47
 70
     1
 10
0.0
 20
0.0
 30
0.0
  3
*U47
  1

  0
SOLID
  5
1019
  8
0
 10
-85.845844600949434
 20
-59.956332755353962
 30
0.0
 11
-82.732906021730088
 21
-62.555189782289482
 31
0.0
 12
-86.520450199997768
 22
-61.106413214935131
 32
0.0
 13
-86.520450199997768
 23
-61.106413214935131
 33
0.0
  0
POLYLINE
  5
101A
  8
0
 66
     1
 10
0.0
 20
0.0
 30
0.0
  0
VERTEX
  5
101B
  8
0
 10
-86.183147400473615
 20
-60.53137298514455
 30
0.0
  0
VERTEX
  5
101C
  8
0
 10
-114.0
 20
-44.214771520255802
 30
0.0
  0
VERTEX
  5
101D
  8
0
 10
-118.0
 20
-44.214771520255802
 30
0.0
  0
SEQEND
  5
101E
  8
0
  0
ENDBLK
  5
1020
  8
0
  0
BLOCK
  8
0
  2
*U48
 70
     1
 10
0.0
 20
0.0
 30
0.0
  3
*U48
  1

  0
TEXT
  5
103C
  8
0
 10
139.51749502617909
 20
258.50680268654509
 30
0.0
 40
4.0
  1
Notch over ribs
  7
EURO_COMMON_APEX$0$ARIAL
  0
ENDBLK
  5
103E
  8
0
  0
BLOCK
  8
0
  2
*U49
 70
     1
 10
0.0
 20
0.0
 30
0.0
  3
*U49
  1

  0
SOLID
  5
1040
  8
0
 10
77.041603815744949
 20
201.0045557161865
 30
0.0
 11
73.775005326272534
 21
198.60168685729701
 31
0.0
 12
76.085722105322816
 22
201.93410826094029
 32
0.0
 13
76.085722105322816
 23
201.93410826094029
 33
0.0
  0
POLYLINE
  5
1041
  8
0
 66
     1
 10
0.0
 20
0.0
 30
0.0
  0
VERTEX
  5
1042
  8
0
 10
76.56366296053389
 20
201.4693319885634
 30
0.0
  0
VERTEX
  5
1043
  8
0
 10
133.94314304800719
 20
260.4740605310198
 30
0.0
  0
VERTEX
  5
1044
  8
0
 10
137.94314304800719
 20
260.4740605310198
 30
0.0
  0
SEQEND
  5
1045
  8
0
  0
ENDBLK
  5
1047
  8
0
  0
BLOCK
  8
0
  2
*U50
 70
     1
 10
0.0
 20
0.0
 30
0.0
  3
*U50
  1

  0
TEXT
  5
1062
  8
0
 10
-63.46454894215681
 20
293.77809878881692
 30
0.0
 40
4.0
  1
25mm ventilation cap
  7
EURO_COMMON_APEX$0$ARIAL
  0
ENDBLK
  5
1064
  8
0
  0
ENDSEC
  0
SECTION
  2
ENTITIES
  0
LINE
  5
D39
  8
0
 10
-4.1817947611604742
 20
-157.79598337271179
 30
0.0
 11
-4.1817947611604893
 21
-87.555189782289432
 31
0.0
  0
POLYLINE
  5
D3A
  8
0
 66
     1
 10
0.0
 20
0.0
 30
0.0
 70
   128
  0
VERTEX
  5
EE2
  8
0
 10
95.818205238838146
 20
-157.79598337271179
 30
0.0
  0
VERTEX
  5
EE3
  8
0
 10
95.818205238837834
 20
-87.555189782289446
 30
0.0
  0
SEQEND
  5
EE4
  8
0
  0
POLYLINE
  5
D3B
  8
0
 66
     1
 10
0.0
 20
0.0
 30
0.0
  0
VERTEX
  5
D3C
  8
0
 10
-150.11131884910901
 20
-157.79598337271179
 30
0.0
  0
VERTEX
  5
D3D
  8
0
 10
-15.77334131341467
 20
-157.79598337271179
 30
0.0
  0
VERTEX
  5
D3E
  8
0
 10
-13.27334131341467
 20
-164.66467692135211
 30
0.0
  0
VERTEX
  5
D3F
  8
0
 10
-8.2733413134146758
 20
-150.92728982407149
 30
0.0
  0
VERTEX
  5
D40
  8
0
 10
-5.7733413134146749
 20
-157.79598337271179
 30
0.0
  0
VERTEX
  5
D41
  8
0
 10
149.76832007621209
 20
-157.79598337271179
 30
0.0
  0
SEQEND
  5
D42
  8
0
  0
LINE
  5
D43
  8
0
 10
216.0590034558077
 20
105.8620907412826
 30
0.0
 11
5.487130691899937
 21
119.4637360289496
 31
0.0
  0
POLYLINE
  5
D44
  8
0
 66
     1
 10
0.0
 20
0.0
 30
0.0
 70
   128
  0
VERTEX
  5
EE5
  8
0
 10
216.0590034558077
 20
-44.450510812490251
 30
0.0
  0
VERTEX
  5
EE6
  8
0
 10
-4.1817947611604334
 20
-30.2243125273149
 30
0.0
  0
VERTEX
  5
EE7
  8
0
 10
5.4871306918999361
 20
119.4637360289496
 30
0.0
  0
SEQEND
  5
EE8
  8
0
  0
POLYLINE
  5
D45
  8
0
 66
     1
 10
0.0
 20
0.0
 30
0.0
  0
VERTEX
  5
D46
  8
0
 10
216.0590034558077
 20
219.2880547602465
 30
0.0
  0
VERTEX
  5
D47
  8
0
 10
216.0590034558077
 20
59.365524070504343
 30
0.0
  0
VERTEX
  5
D48
  8
0
 10
222.92769700444799
 20
56.865524070504343
 30
0.0
  0
VERTEX
  5
D49
  8
0
 10
209.1903099071674
 20
51.865524070504343
 30
0.0
  0
VERTEX
  5
D4A
  8
0
 10
216.0590034558077
 20
49.365524070504343
 30
0.0
  0
VERTEX
  5
D4B
  8
0
 10
216.0590034558077
 20
-60.493494639635621
 30
0.0
  0
SEQEND
  5
D4C
  8
0
  0
LINE
  5
D4D
  8
0
 10
95.818205238837834
 20
-87.555189782289446
 30
0.0
 11
-4.1817947611604893
 21
-87.555189782289432
 31
0.0
  0
POLYLINE
  5
D4E
  8
0
 66
     1
 10
0.0
 20
0.0
 30
0.0
 70
   128
 40
0.5
 41
0.5
  0
VERTEX
  5
EE9
  8
0
 10
-52.732906021727587
 20
-157.79598337271179
 30
0.0
  0
VERTEX
  5
EEA
  8
0
 10
-52.732906021728851
 20
227.36432931133561
 30
0.0
  0
VERTEX
  5
EEB
  8
0
 10
-82.732906021728894
 20
227.36432931133839
 30
0.0
  0
SEQEND
  5
EEC
  8
0
  0
LINE
  5
D4F
  8
0
 10
-82.7329060217305
 20
-157.79598337271179
 30
0.0
 11
-82.732906021728894
 21
227.36432931133839
 31
0.0
  0
POLYLINE
  5
D50
  8
0
 66
     1
 10
0.0
 20
0.0
 30
0.0
 70
   128
 40
0.5
 41
0.5
  0
VERTEX
  5
EED
  8
0
 10
216.0590034558077
 20
175.05918924333841
 30
0.0
  0
VERTEX
  5
EEE
  8
0
 10
9.9382650616654686
 20
188.3733186817588
 30
0.0
  0
VERTEX
  5
EEF
  8
0
 10
11.74009125191624
 20
218.31945212475139
 30
0.0
  0
SEQEND
  5
EF0
  8
0
  0
LINE
  5
D51
  8
0
 10
216.0590034558077
 20
205.121709554094
 30
0.0
 11
11.87205015227466
 21
218.31092839301229
 31
0.0
  0
INSERT
  5
D52
  8
0
  2
*U9
 10
0.0
 20
0.0
 30
0.0
  0
INSERT
  5
D53
  8
0
  2
*U10
 10
0.0
 20
0.0
 30
0.0
  0
POLYLINE
  5
D54
  8
0
 66
     1
 10
0.0
 20
0.0
 30
0.0
 70
   128
  0
VERTEX
  5
EFE
  8
0
 10
216.0590034558077
 20
171.50067743012499
 30
0.0
  0
VERTEX
  5
EFF
  8
0
 10
9.7093621946400859
 20
184.82959258309469
 30
0.0
  0
SEQEND
  5
F00
  8
0
  0
POLYLINE
  5
D57
  8
0
 66
     1
 10
0.0
 20
0.0
 30
0.0
 70
   128
  0
VERTEX
  5
F01
  8
0
 10
216.0590034558077
 20
149.95378719705499
 30
0.0
  0
VERTEX
  5
F02
  8
0
 10
8.2590233766840591
 20
163.37638529965031
 30
0.0
  0
VERTEX
  5
F03
  8
0
 10
9.3870646795385966
 20
180.83999096454821
 30
0.0
  0
VERTEX
  5
F04
  8
0
 10
216.05900345580781
 20
167.49025737833131
 30
0.0
  0
SEQEND
  5
F05
  8
0
  0
POLYLINE
  5
D58
  8
0
 66
     1
 10
0.0
 20
0.0
 30
0.0
 70
   128
  0
VERTEX
  5
F06
  8
0
 10
-49.181794761168398
 20
220.65785950699211
 30
0.0
  0
VERTEX
  5
F07
  8
0
 10
-49.181794761164717
 20
-157.79598337271179
 30
0.0
  0
SEQEND
  5
F08
  8
0
  0
INSERT
  5
D59
  8
0
  2
*U11
 10
0.0
 20
0.0
 30
0.0
  0
LINE
  5
D5A
  8
0
 10
-4.18179476116046
 20
-34.224312527314908
 30
0.0
 11
95.818205238837834
 21
-87.555189782289318
 31
0.0
1001
ACDBBLOCKREPETAG
1070
     1
1071
        1
1005
D5A
  0
LINE
  5
D5B
  8
0
 10
95.818205238837834
 20
-40.683696256554867
 30
0.0
 11
-4.18179476116046
 21
-87.555189782289389
 31
0.0
1001
ACDBBLOCKREPETAG
1070
     1
1071
        2
1005
D5B
  0
POLYLINE
  5
D5C
  8
0
 66
     1
 10
0.0
 20
0.0
 30
0.0
 70
     1
1001
ACDBBLOCKREPETAG
1070
     1
1071
        0
1005
D5C
  0
VERTEX
  5
F10
  8
0
 10
-4.18179476116046
 20
-87.555189782289389
 30
0.0
  0
VERTEX
  5
F11
  8
0
 10
95.818205238837834
 20
-87.555189782289318
 30
0.0
  0
VERTEX
  5
F12
  8
0
 10
95.818205238837834
 20
-40.683696256554867
 30
0.0
  0
VERTEX
  5
F13
  8
0
 10
-4.18179476116046
 20
-34.224312527314908
 30
0.0
  0
SEQEND
  5
F14
  8
0
  0
POLYLINE
  5
D5D
  8
0
 66
     1
 10
0.0
 20
0.0
 30
0.0
 70
   129
  0
VERTEX
  5
F15
  8
0
 10
-28.181794761159239
 20
-157.79598337271179
 30
0.0
  0
VERTEX
  5
F16
  8
0
 10
-28.181794761160621
 20
220.6578595069887
 30
0.0
  0
VERTEX
  5
F17
  8
0
 10
-47.681794761160639
 20
220.6578595069914
 30
0.0
  0
VERTEX
  5
F18
  8
0
 10
-47.68179476116422
 20
-157.7959833727119
 30
0.0
  0
SEQEND
  5
F19
  8
0
  0
POLYLINE
  5
D5E
  8
0
 66
     1
 10
0.0
 20
0.0
 30
0.0
 70
   128
  0
VERTEX
  5
F1A
  8
0
 10
-6.1817947611604476
 20
186.50469841454819
 30
0.0
  0
VERTEX
  5
F1B
  8
0
 10
-6.1817947611601296
 20
-156.67376674813221
 30
0.0
  0
SEQEND
  5
F1C
  8
0
  0
DIMENSION
  5
D5F
  8
0
  2
*D8
 10
-12.91483070940528
 20
276.53253262237757
 30
0.0
 11
-10.886104194544259
 21
290.65940847503788
 31
0.0
 70
   128
  1
25mm ventilation cap
 13
11.936375600388279
 23
218.3067733654832
 33
0.0
 14
-12.91483070940529
 24
219.3067733654832
 34
0.0
  0
POLYLINE
  5
D60
  8
0
 66
     1
 10
0.0
 20
0.0
 30
0.0
 70
   128
 40
0.5999999999999999
 41
0.5999999999999999
  0
VERTEX
  5
F1D
  8
0
 10
-55.732665095860384
 20
173.38717860304769
 30
0.0
  0
VERTEX
  5
F1E
  8
0
 10
-55.732665095860384
 20
143.50469841454819
 30
0.0
 42
-0.4142135623730925
  0
VERTEX
  5
F1F
  8
0
 10
-57.732665095860362
 20
141.50469841454819
 30
0.0
  0
VERTEX
  5
F20
  8
0
 10
-84.352165629708637
 20
141.50469841454799
 30
0.0
 42
0.4142135623730927
  0
VERTEX
  5
F21
  8
0
 10
-86.352165629708594
 20
139.50469841454799
 30
0.0
  0
VERTEX
  5
F22
  8
0
 10
-86.352165629708594
 20
113.5697201797031
 30
0.0
  0
SEQEND
  5
F23
  8
0
  0
INSERT
  5
D61
  8
0
  2
*U12
 10
0.0
 20
0.0
 30
0.0
  0
INSERT
  5
D62
  8
0
  2
*U13
 10
0.0
 20
0.0
 30
0.0
  0
INSERT
  5
D63
  8
0
  2
*U14
 10
0.0
 20
0.0
 30
0.0
  0
INSERT
  5
D64
  8
0
  2
*U15
 10
0.0
 20
0.0
 30
0.0
  0
INSERT
  5
D65
  8
0
  2
*U16
 10
0.0
 20
0.0
 30
0.0
  0
INSERT
  5
D66
  8
0
  2
*U17
 10
0.0
 20
0.0
 30
0.0
  0
INSERT
  5
D67
  8
0
  2
*U18
 10
0.0
 20
0.0
 30
0.0
  0
INSERT
  5
D68
  8
0
  2
*U19
 10
0.0
 20
0.0
 30
0.0
  0
INSERT
  5
D69
  8
0
  2
*U20
 10
0.0
 20
0.0
 30
0.0
  0
INSERT
  5
D6A
  8
0
  2
*U21
 10
0.0
 20
0.0
 30
0.0
  0
INSERT
  5
D6B
  8
0
  2
*U22
 10
0.0
 20
0.0
 30
0.0
  0
INSERT
  5
D6C
  8
0
  2
*U23
 10
0.0
 20
0.0
 30
0.0
  0
INSERT
  5
D6D
  8
0
  2
*U24
 10
0.0
 20
0.0
 30
0.0
  0
INSERT
  5
D6E
  8
0
  2
*U25
 10
0.0
 20
0.0
 30
0.0
  0
INSERT
  5
D6F
  8
0
  2
*U26
 10
0.0
 20
0.0
 30
0.0
  0
INSERT
  5
D70
  8
0
  2
*U27
 10
0.0
 20
0.0
 30
0.0
  0
INSERT
  5
D71
  8
0
  2
*U28
 10
0.0
 20
0.0
 30
0.0
  0
INSERT
  5
D72
  8
0
  2
*U29
 10
0.0
 20
0.0
 30
0.0
  0
INSERT
  5
D73
  8
0
  2
*U30
 10
0.0
 20
0.0
 30
0.0
  0
INSERT
  5
D74
  8
0
  2
*U31
 10
0.0
 20
0.0
 30
0.0
  0
INSERT
  5
D75
  8
0
  2
*U32
 10
0.0
 20
0.0
 30
0.0
  0
INSERT
  5
D76
  8
0
  2
*U33
 10
0.0
 20
0.0
 30
0.0
  0
INSERT
  5
D77
  8
0
  2
*U34
 10
0.0
 20
0.0
 30
0.0
  0
INSERT
  5
D78
  8
0
  2
*U35
 10
0.0
 20
0.0
 30
0.0
  0
INSERT
  5
D79
  8
0
  2
*U36
 10
0.0
 20
0.0
 30
0.0
  0
INSERT
  5
D7A
  8
0
  2
*U37
 10
0.0
 20
0.0
 30
0.0
  0
INSERT
  5
D7B
  8
0
  2
*U38
 10
0.0
 20
0.0
 30
0.0
  0
INSERT
  5
D7C
  8
0
  2
*U39
 10
0.0
 20
0.0
 30
0.0
  0
INSERT
  5
D7D
  8
0
  2
*U40
 10
0.0
 20
0.0
 30
0.0
  0
INSERT
  5
D7E
  8
0
  2
*U41
 10
0.0
 20
0.0
 30
0.0
  0
INSERT
  5
D7F
  8
0
  2
*U42
 10
0.0
 20
0.0
 30
0.0
  0
INSERT
  5
D82
  8
0
  2
*U43
 10
0.0
 20
0.0
 30
0.0
  0
POLYLINE
  5
D83
  8
0
 66
     1
 10
0.0
 20
0.0
 30
0.0
 70
     1
  0
VERTEX
  5
FF9
  8
0
 10
-45.681794761163168
 20
-70.055189782289474
 30
0.0
  0
VERTEX
  5
FFA
  8
0
 10
-82.73290602173013
 20
-70.055189782289474
 30
0.0
  0
VERTEX
  5
FFB
  8
0
 10
-82.732906021730045
 20
-55.055189782289482
 30
0.0
  0
VERTEX
  5
FFC
  8
0
 10
-45.681794761163168
 20
-55.055189782289482
 30
0.0
  0
SEQEND
  5
FFD
  8
0
  0
POLYLINE
  5
D84
  8
0
 66
     1
 10
0.0
 20
0.0
 30
0.0
 70
   129
  0
VERTEX
  5
FFE
  8
0
 10
-4.181794761160428
 20
0.8029201736067648
 30
0.0
  0
VERTEX
  5
FFF
  8
0
 10
-4.18179476116042
 20
180.60947087802759
 30
0.0
  0
VERTEX
  5
1000
  8
0
 10
7.432600319148488
 20
180.60947087802759
 30
0.0
  0
SEQEND
  5
1001
  8
0
  0
POLYLINE
  5
D87
  8
0
 66
     1
 10
0.0
 20
0.0
 30
0.0
 70
     1
  0
VERTEX
  5
1002
  8
0
 10
-54.496365916686472
 20
149.05432988202949
 30
0.0
  0
VERTEX
  5
1003
  8
0
 10
-54.496365916686493
 20
177.43681007052891
 30
0.0
  0
VERTEX
  5
1004
  8
0
 10
-52.812868794004771
 20
177.43681007052891
 30
0.0
  0
VERTEX
  5
1005
  8
0
 10
-52.812868794004771
 20
149.05432988202949
 30
0.0
  0
SEQEND
  5
1006
  8
0
  0
INSERT
  5
D88
  8
0
  2
*U44
 10
0.0
 20
0.0
 30
0.0
  0
INSERT
  5
D89
  8
0
  2
*U45
 10
0.0
 20
0.0
 30
0.0
  0
INSERT
  5
D8A
  8
0
  2
*U46
 10
0.0
 20
0.0
 30
0.0
  0
INSERT
  5
D8B
  8
0
  2
*U47
 10
0.0
 20
0.0
 30
0.0
  0
POLYLINE
  5
D8D
  8
0
 66
     1
 10
0.0
 20
0.0
 30
0.0
 70
   128
 40
0.5
 41
0.5
  0
VERTEX
  5
1021
  8
0
 10
71.490002131560701
 20
197.6679461484544
 30
0.0
  0
VERTEX
  5
1022
  8
0
 10
70.90983984915492
 20
188.6862490280424
 30
0.0
 42
0.4142135623731039
  0
VERTEX
  5
1023
  8
0
 10
71.843300669842961
 20
187.62386920131351
 30
0.0
  0
VERTEX
  5
1024
  8
0
 10
71.843300669842961
 20
187.62386920131351
 30
0.0
 42
0.4142135623730868
  0
VERTEX
  5
1025
  8
0
 10
72.905680496571804
 20
188.55733002200151
 30
0.0
  0
VERTEX
  5
1026
  8
0
 10
74.644330155973265
 20
215.47397923003999
 30
0.0
 42
-0.4142135623730847
  0
VERTEX
  5
1027
  8
0
 10
75.706709982702108
 20
216.40744005072801
 30
0.0
  0
VERTEX
  5
1028
  8
0
 10
101.5875212103355
 20
214.7356991412951
 30
0.0
 42
0.4205243180367921
  0
VERTEX
  5
1029
  8
0
 10
102.65105609221
 20
215.69062658922661
 30
0.0
  0
VERTEX
  5
102A
  8
0
 10
102.65105609221
 20
215.69062658922661
 30
0.0
 42
0.4079308425807593
  0
VERTEX
  5
102B
  8
0
 10
101.7164402163763
 20
216.73153978871201
 30
0.0
  0
VERTEX
  5
102C
  8
0
 10
18.73664785387297
 20
222.09152299513229
 30
0.0
  0
SEQEND
  5
102D
  8
0
  0
POLYLINE
  5
D8E
  8
0
 66
     1
 10
0.0
 20
0.0
 30
0.0
 70
   128
 40
0.5
 41
0.5
  0
VERTEX
  5
102E
  8
0
 10
-84.352165629708608
 20
128.71148738377241
 30
0.0
  0
VERTEX
  5
102F
  8
0
 10
-84.352165629708608
 20
110.71148738377239
 30
0.0
 42
-0.4142135623730951
  0
VERTEX
  5
1030
  8
0
 10
-86.352165629708594
 20
108.71148738377239
 30
0.0
  0
VERTEX
  5
1031
  8
0
 10
-86.352165629708594
 20
108.71148738377239
 30
0.0
 42
-0.4142135623730951
  0
VERTEX
  5
1032
  8
0
 10
-88.352165629708608
 20
110.71148738377239
 30
0.0
  0
VERTEX
  5
1033
  8
0
 10
-88.352165629708608
 20
229.32896401097679
 30
0.0
 42
-0.4332351183747157
  0
VERTEX
  5
1034
  8
0
 10
-86.223246623667819
 20
231.3248046583937
 30
0.0
  0
VERTEX
  5
1035
  8
0
 10
102.5665195326285
 20
219.13014922082459
 30
0.0
 42
-0.414213562373106
  0
VERTEX
  5
1036
  8
0
 10
104.4334411740046
 20
217.0053895673669
 30
0.0
  0
VERTEX
  5
1037
  8
0
 10
104.3045221679637
 20
215.00954891994999
 30
0.0
 42
-0.4142135623730836
  0
VERTEX
  5
1038
  8
0
 10
102.179762514506
 20
213.142627278574
 30
0.0
  0
VERTEX
  5
1039
  8
0
 10
78.258414489574008
 20
214.68779894071119
 30
0.0
  0
SEQEND
  5
103A
  8
0
  0
INSERT
  5
D90
  8
0
  2
*U48
 10
0.0
 20
0.0
 30
0.0
  0
INSERT
  5
D91
  8
0
  2
*U49
 10
0.0
 20
0.0
 30
0.0
  0
POLYLINE
  5
D92
  8
0
 66
     1
 10
0.0
 20
0.0
 30
0.0
 70
     1
 40
0.25
 41
0.25
1001
ACDBBLOCKREPETAG
1070
     1
1071
        0
1005
D5C
  0
VERTEX
  5
1048
  8
0
 10
-4.05679476116046
 20
-87.430189782289375
 30
0.0
  0
VERTEX
  5
1049
  8
0
 10
95.693205238837848
 20
-87.430189782289332
 30
0.0
  0
VERTEX
  5
104A
  8
0
 10
95.693205238837834
 20
-40.800882528188147
 30
0.0
  0
VERTEX
  5
104B
  8
0
 10
-4.0567947611604751
 20
-34.357647258271271
 30
0.0
  0
SEQEND
  5
104C
  8
0
  0
LINE
  5
DAC
  8
0
 10
61.814932593846279
 20
218.5389966884284
 30
0.0
 11
61.525363354601097
 21
214.05607306315989
 31
0.0
1001
GENIUS_GENOREF_13
1005
0
1001
ACDBBLOCKREPETAG
1070
     1
1071
        0
1005
DAC
  0
LINE
  5
DAD
  8
0
 10
58.230565716852539
 20
218.77052469927719
 30
0.0
 11
57.940996477607356
 21
214.28760107400871
 31
0.0
1001
GENIUS_GENOREF_13
1005
0
1001
ACDBBLOCKREPETAG
1070
     1
1071
        1
1005
DAD
  0
ARC
  5
DAE
  8
0
 10
57.819439588803611
 20
219.93986569918951
 30
0.0
 40
1.568435374149667
 50
86.304180135713978
 51
176.30418013571389
1001
GENIUS_GENOREF_13
1005
0
1001
ACDBBLOCKREPETAG
1070
     1
1071
        2
1005
DAE
  0
LINE
  5
DAF
  8
0
 10
58.163055538709983
 20
219.5247442240013
 30
0.0
 11
56.228990911332069
 21
219.6496728798551
 31
0.0
1001
GENIUS_GENOREF_13
1005
0
1001
ACDBBLOCKREPETAG
1070
     1
1071
        3
1005
DAF
  0
LINE
  5
DB0
  8
0
 10
63.938252545071407
 20
219.54462809066979
 30
0.0
 11
56.254266052516392
 21
220.04096626392689
 31
0.0
1001
GENIUS_GENOREF_13
1005
0
1001
ACDBBLOCKREPETAG
1070
     1
1071
        4
1005
DB0
  0
LINE
  5
DB1
  8
0
 10
56.228990911332069
 20
219.6496728798551
 30
0.0
 11
56.254266052516392
 21
220.04096626392689
 31
0.0
1001
GENIUS_GENOREF_13
1005
0
1001
ACDBBLOCKREPETAG
1070
     1
1071
        5
1005
DB1
  0
LINE
  5
DB2
  8
0
 10
61.978912776509183
 20
219.2782633624519
 30
0.0
 11
58.163055538709983
 21
219.5247442240013
 31
0.0
1001
GENIUS_GENOREF_13
1005
0
1001
ACDBBLOCKREPETAG
1070
     1
1071
        6
1005
DB2
  0
LINE
  5
DB3
  8
0
 10
61.820238444094898
 20
218.6211384293596
 30
0.0
 11
58.235871567101157
 21
218.85266644020831
 31
0.0
1001
GENIUS_GENOREF_13
1005
0
1001
ACDBBLOCKREPETAG
1070
     1
1071
        7
1005
DB3
  0
LINE
  5
DB4
  8
0
 10
62.474179573521511
 20
221.21090219169449
 30
0.0
 11
60.197359863531197
 21
221.35797071358559
 31
0.0
1001
GENIUS_GENOREF_13
1005
0
1001
ACDBBLOCKREPETAG
1070
     1
1071
        8
1005
DB4
  0
LINE
  5
DB5
  8
0
 10
57.920540153540919
 20
221.50503923547689
 30
0.0
 11
60.197359863531197
 21
221.35797071358559
 31
0.0
1001
GENIUS_GENOREF_13
1005
0
1001
ACDBBLOCKREPETAG
1070
     1
1071
        9
1005
DB5
  0
LINE
  5
DB6
  8
0
 10
58.235871567101157
 20
218.85266644020831
 30
0.0
 11
58.163055538709983
 21
219.5247442240013
 31
0.0
1001
GENIUS_GENOREF_13
1005
0
1001
ACDBBLOCKREPETAG
1070
     1
1071
       10
1005
DB6
  0
ARC
  5
DB7
  8
0
 10
62.373079008784202
 20
219.64572865540711
 30
0.0
 40
1.568435374149667
 50
356.30418013571392
 51
86.304180135713978
1001
GENIUS_GENOREF_13
1005
0
1001
ACDBBLOCKREPETAG
1070
     1
1071
       11
1005
DB7
  0
LINE
  5
DB8
  8
0
 10
61.978912776509183
 20
219.2782633624519
 30
0.0
 11
63.912977403887091
 21
219.15333470659809
 31
0.0
1001
GENIUS_GENOREF_13
1005
0
1001
ACDBBLOCKREPETAG
1070
     1
1071
       12
1005
DB8
  0
LINE
  5
DB9
  8
0
 10
63.912977403887091
 20
219.15333470659809
 30
0.0
 11
63.938252545071407
 21
219.54462809066979
 31
0.0
1001
GENIUS_GENOREF_13
1005
0
1001
ACDBBLOCKREPETAG
1070
     1
1071
       13
1005
DB9
  0
LINE
  5
DBA
  8
0
 10
61.820238444094898
 20
218.6211384293596
 30
0.0
 11
61.978912776509183
 21
219.2782633624519
 31
0.0
1001
GENIUS_GENOREF_13
1005
0
1001
ACDBBLOCKREPETAG
1070
     1
1071
       14
1005
DBA
  0
ARC
  5
DBB
  8
0
 10
64.205089113773838
 20
211.7238733103479
 30
0.0
 40
7.7000000000000268
 50
160.05470459380061
 51
205.2530005127212
1001
GENIUS_GENOREF_13
1005
0
1001
ACDBBLOCKREPETAG
1070
     1
1071
       15
1005
DBB
  0
LINE
  5
DBC
  8
0
 10
57.940996477607683
 20
214.28760107400831
 30
0.0
 11
56.966944778784679
 21
214.35051881095649
 31
0.0
1001
GENIUS_GENOREF_13
1005
0
1001
ACDBBLOCKREPETAG
1070
     1
1071
       16
1005
DBC
  0
ARC
  5
DBD
  8
0
 10
54.98349979862688
 20
212.31953115014781
 30
0.0
 40
7.7000000000000268
 50
327.3553597587071
 51
12.553655677628219
1001
GENIUS_GENOREF_13
1005
0
1001
ACDBBLOCKREPETAG
1070
     1
1071
       17
1005
DBD
  0
LINE
  5
DBE
  8
0
 10
61.525363354601417
 20
214.05607306315949
 30
0.0
 11
57.940996477607683
 21
214.28760107400831
 31
0.0
1001
GENIUS_GENOREF_13
1005
0
1001
ACDBBLOCKREPETAG
1070
     1
1071
       18
1005
DBE
  0
LINE
  5
DBF
  8
0
 10
61.467149083792222
 20
208.16594330986129
 30
0.0
 11
57.240956512887131
 21
208.4389293051527
 31
0.0
1001
GENIUS_GENOREF_13
1005
0
1001
ACDBBLOCKREPETAG
1070
     1
1071
       19
1005
DBF
  0
LINE
  5
DC0
  8
0
 10
61.525363354601417
 20
214.05607306315949
 30
0.0
 11
62.499415053424421
 21
213.99315532621139
 31
0.0
1001
GENIUS_GENOREF_13
1005
0
1001
ACDBBLOCKREPETAG
1070
     1
1071
       20
1005
DC0
  0
LINE
  5
DC1
  8
0
 10
-42.08559035965866
 20
-60.109048196992077
 30
0.0
 11
10.95216650393275
 21
-60.311163959020419
 31
0.0
1001
ACDBBLOCKREPETAG
1070
     1
1071
        0
1005
DC1
  0
LINE
  5
DC2
  8
0
 10
-42.085590359658653
 20
-65.00904819699177
 30
0.0
 11
10.94052471319354
 21
-64.806976799385083
 31
0.0
1001
ACDBBLOCKREPETAG
1070
     1
1071
        1
1005
DC2
  0
LINE
  5
DC3
  8
0
 10
14.31820523883691
 20
-62.55518978228951
 30
0.0
 11
10.94052471319354
 21
-64.806976799385083
 31
0.0
1001
ACDBBLOCKREPETAG
1070
     1
1071
        2
1005
DC3
  0
LINE
  5
DC4
  8
0
 10
14.31820523883691
 20
-62.55518978228951
 30
0.0
 11
10.95216650393275
 21
-60.311163959020419
 31
0.0
1001
ACDBBLOCKREPETAG
1070
     1
1071
        3
1005
DC4
  0
LINE
  5
DC5
  8
0
 10
4.9431847207914501
 20
-64.82983140362154
 30
0.0
 11
4.2125916847903886
 21
-60.28548085360891
 31
0.0
1001
ACDBBLOCKREPETAG
1070
     1
1071
        6
1005
DC5
  0
LINE
  5
DC6
  8
0
 10
12.96335812698238
 20
-63.458421190192517
 30
0.0
 11
12.748609746923851
 21
-62.122668081493423
 31
0.0
1001
ACDBBLOCKREPETAG
1070
     1
1071
        7
1005
DC6
  0
LINE
  5
DC7
  8
0
 10
14.31820523883691
 20
-62.55518978228951
 30
0.0
 11
6.1077754606236061
 21
-60.292703001295529
 31
0.0
1001
ACDBBLOCKREPETAG
1070
     1
1071
        8
1005
DC7
  0
LINE
  5
DC8
  8
0
 10
6.2937104369956174
 20
-64.824684833509764
 30
0.0
 11
5.564773238624773
 21
-60.29063373377042
 31
0.0
1001
ACDBBLOCKREPETAG
1070
     1
1071
       10
1005
DC8
  0
LINE
  5
DC9
  8
0
 10
7.6442361532005867
 20
-64.819538263398002
 30
0.0
 11
6.9539461407241703
 21
-60.52587593254357
 31
0.0
1001
ACDBBLOCKREPETAG
1070
     1
1071
       12
1005
DC9
  0
LINE
  5
DCA
  8
0
 10
8.9947618694034901
 20
-64.814391693286225
 30
0.0
 11
8.3679421982267854
 21
-60.915520259929011
 31
0.0
1001
ACDBBLOCKREPETAG
1070
     1
1071
       14
1005
DCA
  0
LINE
  5
DCB
  8
0
 10
10.3452875856081
 20
-64.809245123174463
 30
0.0
 11
9.7819382557294716
 21
-61.305164587314458
 31
0.0
1001
ACDBBLOCKREPETAG
1070
     1
1071
       16
1005
DCB
  0
LINE
  5
DCC
  8
0
 10
11.62311611060062
 20
-64.351915867780363
 30
0.0
 11
11.19593431323181
 21
-61.69480891469982
 31
0.0
1001
ACDBBLOCKREPETAG
1070
     1
1071
       18
1005
DCC
  0
LINE
  5
DCD
  8
0
 10
-42.085590359658653
 20
-65.00904819699177
 30
0.0
 11
-42.761998459307527
 21
-65.00904819699177
 31
0.0
1001
ACDBBLOCKREPETAG
1070
     1
1071
       20
1005
DCD
  0
LINE
  5
DCE
  8
0
 10
-42.761998459307527
 20
-65.00904819699177
 30
0.0
 11
-45.681794761163147
 21
-67.459048196991617
 31
0.0
1001
ACDBBLOCKREPETAG
1070
     1
1071
       22
1005
DCE
  0
LINE
  5
DCF
  8
0
 10
-45.681794761163268
 20
-67.459048196991702
 30
0.0
 11
-45.997002169404936
 21
-67.459048196991702
 31
0.0
1001
ACDBBLOCKREPETAG
1070
     1
1071
       23
1005
DCF
  0
LINE
  5
DD0
  8
0
 10
-45.997002169404936
 20
-67.459048196991702
 30
0.0
 11
-45.997002169405171
 21
-57.65904819699162
 31
0.0
1001
ACDBBLOCKREPETAG
1070
     1
1071
       24
1005
DD0
  0
LINE
  5
DD1
  8
0
 10
-45.681794761163147
 20
-67.459048196991617
 30
0.0
 11
-45.681794761163147
 21
-57.65904819699162
 31
0.0
1001
ACDBBLOCKREPETAG
1070
     1
1071
       25
1005
DD1
  0
LINE
  5
DD2
  8
0
 10
-45.68179476116326
 20
-57.65904819699162
 30
0.0
 11
-45.997002169405171
 21
-57.65904819699162
 31
0.0
1001
ACDBBLOCKREPETAG
1070
     1
1071
       27
1005
DD2
  0
LINE
  5
DD3
  8
0
 10
-42.761998459307648
 20
-60.109048196991772
 30
0.0
 11
-42.761998459307527
 21
-65.00904819699177
 31
0.0
1001
ACDBBLOCKREPETAG
1070
     1
1071
       28
1005
DD3
  0
LINE
  5
DD4
  8
0
 10
-0.458918144025482
 20
-64.850417684068617
 30
0.0
 11
-1.196134530545748
 21
-60.264869332962832
 31
0.0
1001
ACDBBLOCKREPETAG
1070
     1
1071
       32
1005
DD4
  0
LINE
  5
DD5
  8
0
 10
0.8916075721795735
 20
-64.845271113956855
 30
0.0
 11
0.1560470232875488
 21
-60.270022213124349
 31
0.0
1001
ACDBBLOCKREPETAG
1070
     1
1071
       34
1005
DD5
  0
LINE
  5
DD6
  8
0
 10
2.2421332883826031
 20
-64.840124543845079
 30
0.0
 11
1.508228577122203
 21
-60.27517509328586
 31
0.0
1001
ACDBBLOCKREPETAG
1070
     1
1071
       36
1005
DD6
  0
LINE
  5
DD7
  8
0
 10
3.592659004586785
 20
-64.834977973733317
 30
0.0
 11
2.860410130956879
 21
-60.280327973447392
 31
0.0
1001
ACDBBLOCKREPETAG
1070
     1
1071
       38
1005
DD7
  0
LINE
  5
DD8
  8
0
 10
-5.861021008842541
 20
-64.871003964515694
 30
0.0
 11
-6.6048607458825179
 21
-60.244257812316761
 31
0.0
1001
ACDBBLOCKREPETAG
1070
     1
1071
      112
1005
DD8
  0
LINE
  5
DD9
  8
0
 10
-4.5104952926374571
 20
-64.865857394403932
 30
0.0
 11
-5.2526791920492206
 21
-60.249410692478271
 31
0.0
1001
ACDBBLOCKREPETAG
1070
     1
1071
      114
1005
DD9
  0
LINE
  5
DDA
  8
0
 10
-3.1599695764344551
 20
-64.860710824292156
 30
0.0
 11
-3.900497638214552
 21
-60.254563572639803
 31
0.0
1001
ACDBBLOCKREPETAG
1070
     1
1071
      116
1005
DDA
  0
LINE
  5
DDB
  8
0
 10
-1.8094438602302529
 20
-64.855564254180393
 30
0.0
 11
-2.5483160843798909
 21
-60.259716452801307
 31
0.0
1001
ACDBBLOCKREPETAG
1070
     1
1071
      118
1005
DDB
  0
LINE
  5
DDC
  8
0
 10
-11.263123873660049
 20
-64.891590244962771
 30
0.0
 11
-12.01358696121881
 21
-60.223646291670683
 31
0.0
1001
ACDBBLOCKREPETAG
1070
     1
1071
      119
1005
DDC
  0
LINE
  5
DDD
  8
0
 10
-9.9125981574552
 20
-64.886443674850995
 30
0.0
 11
-10.66140540738497
 21
-60.2287991718322
 31
0.0
1001
ACDBBLOCKREPETAG
1070
     1
1071
      121
1005
DDD
  0
LINE
  5
DDE
  8
0
 10
-8.5620724412514164
 20
-64.881297104739232
 30
0.0
 11
-9.3092238535505984
 21
-60.233952051993718
 31
0.0
1001
ACDBBLOCKREPETAG
1070
     1
1071
      123
1005
DDE
  0
LINE
  5
DDF
  8
0
 10
-7.2115467250471417
 20
-64.87615053462747
 30
0.0
 11
-7.9570422997164547
 21
-60.239104932155243
 31
0.0
1001
ACDBBLOCKREPETAG
1070
     1
1071
      125
1005
DDF
  0
LINE
  5
DE0
  8
0
 10
-16.665226738477099
 20
-64.912176525409848
 30
0.0
 11
-17.42231317655558
 21
-60.203034771024612
 31
0.0
1001
ACDBBLOCKREPETAG
1070
     1
1071
      127
1005
DE0
  0
LINE
  5
DE1
  8
0
 10
-15.31470102227224
 20
-64.907029955298086
 30
0.0
 11
-16.070131622721721
 21
-60.20818765118613
 31
0.0
1001
ACDBBLOCKREPETAG
1070
     1
1071
      129
1005
DE1
  0
LINE
  5
DE2
  8
0
 10
-13.964175306068469
 20
-64.901883385186309
 30
0.0
 11
-14.71795006888736
 21
-60.213340531347647
 31
0.0
1001
ACDBBLOCKREPETAG
1070
     1
1071
      131
1005
DE2
  0
LINE
  5
DE3
  8
0
 10
-12.61364958986419
 20
-64.896736815074533
 30
0.0
 11
-13.365768515053221
 21
-60.218493411509158
 31
0.0
1001
ACDBBLOCKREPETAG
1070
     1
1071
      133
1005
DE3
  0
LINE
  5
DE4
  8
0
 10
-22.067329603294159
 20
-64.932762805856925
 30
0.0
 11
-22.83103939189234
 21
-60.182423250378527
 31
0.0
1001
ACDBBLOCKREPETAG
1070
     1
1071
      135
1005
DE4
  0
LINE
  5
DE5
  8
0
 10
-20.716803887089299
 20
-64.927616235745162
 30
0.0
 11
-21.478857838058492
 21
-60.187576130540052
 31
0.0
1001
ACDBBLOCKREPETAG
1070
     1
1071
      137
1005
DE5
  0
LINE
  5
DE6
  8
0
 10
-19.366278170885519
 20
-64.922469665633386
 30
0.0
 11
-20.126676284224128
 21
-60.192729010701569
 31
0.0
1001
ACDBBLOCKREPETAG
1070
     1
1071
      139
1005
DE6
  0
LINE
  5
DE7
  8
0
 10
-18.01575245468123
 20
-64.917323095521624
 30
0.0
 11
-18.774494730389979
 21
-60.197881890863087
 31
0.0
1001
ACDBBLOCKREPETAG
1070
     1
1071
      141
1005
DE7
  0
LINE
  5
DE8
  8
0
 10
-27.469432468111219
 20
-64.953349086304002
 30
0.0
 11
-28.239765607229099
 21
-60.161811729732463
 31
0.0
1001
ACDBBLOCKREPETAG
1070
     1
1071
      143
1005
DE8
  0
LINE
  5
DE9
  8
0
 10
-26.118906751906358
 20
-64.948202516192225
 30
0.0
 11
-26.887584053395251
 21
-60.166964609893967
 31
0.0
1001
ACDBBLOCKREPETAG
1070
     1
1071
      145
1005
DE9
  0
LINE
  5
DEA
  8
0
 10
-24.768381035702578
 20
-64.943055946080463
 30
0.0
 11
-25.535402499560892
 21
-60.172117490055498
 31
0.0
1001
ACDBBLOCKREPETAG
1070
     1
1071
      147
1005
DEA
  0
LINE
  5
DEB
  8
0
 10
-23.41785531949829
 20
-64.937909375968701
 30
0.0
 11
-24.183220945726749
 21
-60.177270370217009
 31
0.0
1001
ACDBBLOCKREPETAG
1070
     1
1071
      149
1005
DEB
  0
LINE
  5
DEC
  8
0
 10
-32.871535332928282
 20
-64.973935366751078
 30
0.0
 11
-33.648491822565873
 21
-60.141200209086378
 31
0.0
1001
ACDBBLOCKREPETAG
1070
     1
1071
      151
1005
DEC
  0
LINE
  5
DED
  8
0
 10
-31.521009616723411
 20
-64.968788796639316
 30
0.0
 11
-32.296310268732029
 21
-60.146353089247903
 31
0.0
1001
ACDBBLOCKREPETAG
1070
     1
1071
      153
1005
DED
  0
LINE
  5
DEE
  8
0
 10
-30.170483900519638
 20
-64.96364222652754
 30
0.0
 11
-30.944128714897641
 21
-60.151505969409421
 31
0.0
1001
ACDBBLOCKREPETAG
1070
     1
1071
      155
1005
DEE
  0
LINE
  5
DEF
  8
0
 10
-28.81995818431534
 20
-64.958495656415764
 30
0.0
 11
-29.591947161063509
 21
-60.156658849570938
 31
0.0
1001
ACDBBLOCKREPETAG
1070
     1
1071
      157
1005
DEF
  0
LINE
  5
DF0
  8
0
 10
-42.085590359658653
 20
-60.109048196991459
 30
0.0
 11
-42.761998459307527
 21
-60.109048196991459
 31
0.0
1001
ACDBBLOCKREPETAG
1070
     1
1071
      159
1005
DF0
  0
LINE
  5
DF1
  8
0
 10
-42.761998459307527
 20
-60.109048196991459
 30
0.0
 11
-45.681794761163147
 21
-57.65904819699162
 31
0.0
1001
ACDBBLOCKREPETAG
1070
     1
1071
      160
1005
DF1
  0
LINE
  5
DF2
  8
0
 10
-52.136460694355861
 20
165.6955699762789
 30
0.0
 11
0.9012961692355432
 21
165.49345421425051
 31
0.0
1001
ACDBBLOCKREPETAG
1070
     1
1071
        0
1005
DF2
  0
LINE
  5
DF3
  8
0
 10
-52.136460694355847
 20
160.79556997627921
 30
0.0
 11
0.8896543784963313
 21
160.9976413738859
 31
0.0
1001
ACDBBLOCKREPETAG
1070
     1
1071
        1
1005
DF3
  0
LINE
  5
DF4
  8
0
 10
4.2673349041397008
 20
163.24942839098151
 30
0.0
 11
0.8896543784963313
 21
160.9976413738859
 31
0.0
1001
ACDBBLOCKREPETAG
1070
     1
1071
        2
1005
DF4
  0
LINE
  5
DF5
  8
0
 10
4.2673349041397008
 20
163.24942839098151
 30
0.0
 11
0.9012961692355432
 21
165.49345421425051
 31
0.0
1001
ACDBBLOCKREPETAG
1070
     1
1071
        3
1005
DF5
  0
LINE
  5
DF6
  8
0
 10
-5.1076856139057583
 20
160.9747867696494
 30
0.0
 11
-5.838278649906818
 21
165.51913731966209
 31
0.0
1001
ACDBBLOCKREPETAG
1070
     1
1071
        6
1005
DF6
  0
LINE
  5
DF7
  8
0
 10
2.9124877922851691
 20
162.3461969830785
 30
0.0
 11
2.697739412226638
 21
163.68195009177751
 31
0.0
1001
ACDBBLOCKREPETAG
1070
     1
1071
        7
1005
DF7
  0
LINE
  5
DF8
  8
0
 10
4.2673349041397008
 20
163.24942839098151
 30
0.0
 11
-3.9430948740736009
 21
165.5119151719754
 31
0.0
1001
ACDBBLOCKREPETAG
1070
     1
1071
        8
1005
DF8
  0
LINE
  5
DF9
  8
0
 10
-3.7571598977015901
 20
160.9799333397612
 30
0.0
 11
-4.4860970960724336
 21
165.5139844395006
 31
0.0
1001
ACDBBLOCKREPETAG
1070
     1
1071
       10
1005
DF9
  0
LINE
  5
DFA
  8
0
 10
-2.4066341814966199
 20
160.98507990987301
 30
0.0
 11
-3.0969241939730381
 21
165.27874224072741
 31
0.0
1001
ACDBBLOCKREPETAG
1070
     1
1071
       12
1005
DFA
  0
LINE
  5
DFB
  8
0
 10
-1.056108465293718
 20
160.9902264799847
 30
0.0
 11
-1.6829281364704221
 21
164.889097913342
 31
0.0
1001
ACDBBLOCKREPETAG
1070
     1
1071
       14
1005
DFB
  0
LINE
  5
DFC
  8
0
 10
0.2944172509108895
 20
160.9953730500965
 30
0.0
 11
-0.2689320789677367
 21
164.4994535859565
 31
0.0
1001
ACDBBLOCKREPETAG
1070
     1
1071
       16
1005
DFC
  0
LINE
  5
DFD
  8
0
 10
1.5722457759034181
 20
161.45270230549059
 30
0.0
 11
1.1450639785346011
 21
164.10980925857109
 31
0.0
1001
ACDBBLOCKREPETAG
1070
     1
1071
       18
1005
DFD
  0
LINE
  5
DFE
  8
0
 10
-52.136460694355847
 20
160.79556997627921
 30
0.0
 11
-52.81286879400475
 21
160.79556997627921
 31
0.0
1001
ACDBBLOCKREPETAG
1070
     1
1071
       20
1005
DFE
  0
LINE
  5
DFF
  8
0
 10
-52.81286879400475
 20
160.79556997627921
 30
0.0
 11
-55.732665095860369
 21
158.34556997627939
 31
0.0
1001
ACDBBLOCKREPETAG
1070
     1
1071
       22
1005
DFF
  0
LINE
  5
E00
  8
0
 10
-55.732665095860483
 20
158.34556997627931
 30
0.0
 11
-56.047872504102152
 21
158.34556997627931
 31
0.0
1001
ACDBBLOCKREPETAG
1070
     1
1071
       23
1005
E00
  0
LINE
  5
E01
  8
0
 10
-56.047872504102152
 20
158.34556997627931
 30
0.0
 11
-56.047872504102379
 21
168.1455699762794
 31
0.0
1001
ACDBBLOCKREPETAG
1070
     1
1071
       24
1005
E01
  0
LINE
  5
E02
  8
0
 10
-55.732665095860369
 20
158.34556997627939
 30
0.0
 11
-55.732665095860369
 21
168.1455699762794
 31
0.0
1001
ACDBBLOCKREPETAG
1070
     1
1071
       25
1005
E02
  0
LINE
  5
E03
  8
0
 10
-55.732665095860483
 20
168.1455699762794
 30
0.0
 11
-56.047872504102379
 21
168.1455699762794
 31
0.0
1001
ACDBBLOCKREPETAG
1070
     1
1071
       27
1005
E03
  0
LINE
  5
E04
  8
0
 10
-52.812868794004856
 20
165.69556997627919
 30
0.0
 11
-52.81286879400475
 21
160.79556997627921
 31
0.0
1001
ACDBBLOCKREPETAG
1070
     1
1071
       28
1005
E04
  0
LINE
  5
E05
  8
0
 10
-10.50978847872269
 20
160.95420048920241
 30
0.0
 11
-11.24700486524295
 21
165.53974884030819
 31
0.0
1001
ACDBBLOCKREPETAG
1070
     1
1071
       32
1005
E05
  0
LINE
  5
E06
  8
0
 10
-9.1592627625176348
 20
160.9593470593141
 30
0.0
 11
-9.8948233114096595
 21
165.53459596014659
 31
0.0
1001
ACDBBLOCKREPETAG
1070
     1
1071
       34
1005
E06
  0
LINE
  5
E07
  8
0
 10
-7.8087370463146044
 20
160.9644936294259
 30
0.0
 11
-8.5426417575750051
 21
165.5294430799851
 31
0.0
1001
ACDBBLOCKREPETAG
1070
     1
1071
       36
1005
E07
  0
LINE
  5
E08
  8
0
 10
-6.458211330110422
 20
160.96964019953771
 30
0.0
 11
-7.1904602037403293
 21
165.52429019982361
 31
0.0
1001
ACDBBLOCKREPETAG
1070
     1
1071
       38
1005
E08
  0
LINE
  5
E09
  8
0
 10
-15.91189134353975
 20
160.9336142087553
 30
0.0
 11
-16.65573108057972
 21
165.56036036095421
 31
0.0
1001
ACDBBLOCKREPETAG
1070
     1
1071
      112
1005
E09
  0
LINE
  5
E0A
  8
0
 10
-14.561365627334659
 20
160.93876077886711
 30
0.0
 11
-15.30354952674643
 21
165.55520748079269
 31
0.0
1001
ACDBBLOCKREPETAG
1070
     1
1071
      114
1005
E0A
  0
LINE
  5
E0B
  8
0
 10
-13.210839911131661
 20
160.9439073489788
 30
0.0
 11
-13.951367972911759
 21
165.5500546006312
 31
0.0
1001
ACDBBLOCKREPETAG
1070
     1
1071
      116
1005
E0B
  0
LINE
  5
E0C
  8
0
 10
-11.86031419492746
 20
160.9490539190906
 30
0.0
 11
-12.5991864190771
 21
165.54490172046971
 31
0.0
1001
ACDBBLOCKREPETAG
1070
     1
1071
      118
1005
E0C
  0
LINE
  5
E0D
  8
0
 10
-21.313994208357268
 20
160.9130279283082
 30
0.0
 11
-22.064457295916021
 21
165.58097188160031
 31
0.0
1001
ACDBBLOCKREPETAG
1070
     1
1071
      119
1005
E0D
  0
LINE
  5
E0E
  8
0
 10
-19.963468492152408
 20
160.91817449842
 30
0.0
 11
-20.712275742082181
 21
165.57581900143879
 31
0.0
1001
ACDBBLOCKREPETAG
1070
     1
1071
      121
1005
E0E
  0
LINE
  5
E0F
  8
0
 10
-18.612942775948621
 20
160.92332106853169
 30
0.0
 11
-19.36009418824781
 21
165.57066612127721
 31
0.0
1001
ACDBBLOCKREPETAG
1070
     1
1071
      123
1005
E0F
  0
LINE
  5
E10
  8
0
 10
-17.262417059744351
 20
160.9284676386435
 30
0.0
 11
-18.00791263441366
 21
165.5655132411157
 31
0.0
1001
ACDBBLOCKREPETAG
1070
     1
1071
      125
1005
E10
  0
LINE
  5
E11
  8
0
 10
-26.716097073174311
 20
160.89244164786109
 30
0.0
 11
-27.473183511252788
 21
165.60158340224629
 31
0.0
1001
ACDBBLOCKREPETAG
1070
     1
1071
      127
1005
E11
  0
LINE
  5
E12
  8
0
 10
-25.365571356969451
 20
160.8975882179729
 30
0.0
 11
-26.12100195741894
 21
165.5964305220848
 31
0.0
1001
ACDBBLOCKREPETAG
1070
     1
1071
      129
1005
E12
  0
LINE
  5
E13
  8
0
 10
-24.015045640765681
 20
160.9027347880847
 30
0.0
 11
-24.768820403584581
 21
165.59127764192331
 31
0.0
1001
ACDBBLOCKREPETAG
1070
     1
1071
      131
1005
E13
  0
LINE
  5
E14
  8
0
 10
-22.6645199245614
 20
160.90788135819639
 30
0.0
 11
-23.416638849750431
 21
165.58612476176179
 31
0.0
1001
ACDBBLOCKREPETAG
1070
     1
1071
      133
1005
E14
  0
LINE
  5
E15
  8
0
 10
-32.118199937991363
 20
160.8718553674141
 30
0.0
 11
-32.881909726589541
 21
165.62219492289239
 31
0.0
1001
ACDBBLOCKREPETAG
1070
     1
1071
      135
1005
E15
  0
LINE
  5
E16
  8
0
 10
-30.76767422178651
 20
160.87700193752579
 30
0.0
 11
-31.5297281727557
 21
165.6170420427309
 31
0.0
1001
ACDBBLOCKREPETAG
1070
     1
1071
      137
1005
E16
  0
LINE
  5
E17
  8
0
 10
-29.41714850558273
 20
160.8821485076376
 30
0.0
 11
-30.17754661892134
 21
165.61188916256941
 31
0.0
1001
ACDBBLOCKREPETAG
1070
     1
1071
      139
1005
E17
  0
LINE
  5
E18
  8
0
 10
-28.066622789378439
 20
160.88729507774929
 30
0.0
 11
-28.82536506508719
 21
165.60673628240789
 31
0.0
1001
ACDBBLOCKREPETAG
1070
     1
1071
      141
1005
E18
  0
LINE
  5
E19
  8
0
 10
-37.52030280280843
 20
160.85126908696699
 30
0.0
 11
-38.290635941926311
 21
165.64280644353849
 31
0.0
1001
ACDBBLOCKREPETAG
1070
     1
1071
      143
1005
E19
  0
LINE
  5
E1A
  8
0
 10
-36.16977708660356
 20
160.85641565707871
 30
0.0
 11
-36.938454388092467
 21
165.637653563377
 31
0.0
1001
ACDBBLOCKREPETAG
1070
     1
1071
      145
1005
E1A
  0
LINE
  5
E1B
  8
0
 10
-34.819251370399783
 20
160.86156222719049
 30
0.0
 11
-35.586272834258097
 21
165.63250068321551
 31
0.0
1001
ACDBBLOCKREPETAG
1070
     1
1071
      147
1005
E1B
  0
LINE
  5
E1C
  8
0
 10
-33.468725654195502
 20
160.86670879730229
 30
0.0
 11
-34.234091280423961
 21
165.62734780305399
 31
0.0
1001
ACDBBLOCKREPETAG
1070
     1
1071
      149
1005
E1C
  0
LINE
  5
E1D
  8
0
 10
-42.922405667625483
 20
160.83068280651989
 30
0.0
 11
-43.699362157263067
 21
165.66341796418459
 31
0.0
1001
ACDBBLOCKREPETAG
1070
     1
1071
      151
1005
E1D
  0
LINE
  5
E1E
  8
0
 10
-41.571879951420613
 20
160.83582937663169
 30
0.0
 11
-42.34718060342923
 21
165.6582650840231
 31
0.0
1001
ACDBBLOCKREPETAG
1070
     1
1071
      153
1005
E1E
  0
LINE
  5
E1F
  8
0
 10
-40.221354235216843
 20
160.84097594674341
 30
0.0
 11
-40.994999049594853
 21
165.65311220386161
 31
0.0
1001
ACDBBLOCKREPETAG
1070
     1
1071
      155
1005
E1F
  0
LINE
  5
E20
  8
0
 10
-38.870828519012548
 20
160.84612251685519
 30
0.0
 11
-39.64281749576071
 21
165.64795932370001
 31
0.0
1001
ACDBBLOCKREPETAG
1070
     1
1071
      157
1005
E20
  0
LINE
  5
E21
  8
0
 10
-52.136460694355847
 20
165.6955699762795
 30
0.0
 11
-52.81286879400475
 21
165.6955699762795
 31
0.0
1001
ACDBBLOCKREPETAG
1070
     1
1071
      159
1005
E21
  0
LINE
  5
E22
  8
0
 10
-52.81286879400475
 20
165.6955699762795
 30
0.0
 11
-55.732665095860369
 21
168.1455699762794
 31
0.0
1001
ACDBBLOCKREPETAG
1070
     1
1071
      160
1005
E22
  0
POLYLINE
  5
E23
  8
0
 66
     1
 10
0.0
 20
0.0
 30
0.0
 70
     1
  0
VERTEX
  5
104D
  8
0
 10
-26.181794761160418
 20
-87.555189782289474
 30
0.0
  0
VERTEX
  5
104E
  8
0
 10
-8.1817947611604218
 20
-87.555189782289474
 30
0.0
  0
VERTEX
  5
104F
  8
0
 10
-8.1817947611604218
 20
-42.555189782289482
 30
0.0
  0
VERTEX
  5
1050
  8
0
 10
-26.181794761160418
 20
-42.555189782289482
 30
0.0
  0
SEQEND
  5
1051
  8
0
  0
LINE
  5
E24
  8
0
 10
-17.681794761160418
 20
-42.555189782289482
 30
0.0
 11
-17.681794761160418
 21
-87.555189782289474
 31
0.0
  0
LINE
  5
E25
  8
0
 10
-16.681794761160418
 20
-87.555189782289474
 30
0.0
 11
-16.681794761160418
 21
-42.555189782289482
 31
0.0
  0
LINE
  5
E26
  8
0
 10
-25.181794761160418
 20
-42.555189782289482
 30
0.0
 11
-25.181794761160418
 21
-87.555189782289474
 31
0.0
  0
LINE
  5
E27
  8
0
 10
-9.1817947611604218
 20
-42.555189782289482
 30
0.0
 11
-9.1817947611604218
 21
-87.555189782289474
 31
0.0
  0
POLYLINE
  5
E28
  8
0
 66
     1
 10
0.0
 20
0.0
 30
0.0
 70
     1
  0
VERTEX
  5
1052
  8
0
 10
-26.181794761160418
 20
141.50469841454819
 30
0.0
  0
VERTEX
  5
1053
  8
0
 10
-8.1817947611604218
 20
141.50469841454819
 30
0.0
  0
VERTEX
  5
1054
  8
0
 10
-8.1817947611604218
 20
186.50469841454819
 30
0.0
  0
VERTEX
  5
1055
  8
0
 10
-26.181794761160418
 20
186.50469841454819
 30
0.0
  0
SEQEND
  5
1056
  8
0
  0
LINE
  5
E29
  8
0
 10
-17.681794761160418
 20
186.50469841454819
 30
0.0
 11
-17.681794761160418
 21
141.50469841454819
 31
0.0
  0
LINE
  5
E2A
  8
0
 10
-16.681794761160418
 20
141.50469841454819
 30
0.0
 11
-16.681794761160418
 21
186.50469841454819
 31
0.0
  0
LINE
  5
E2B
  8
0
 10
-25.181794761160418
 20
186.50469841454819
 30
0.0
 11
-25.181794761160418
 21
141.50469841454819
 31
0.0
  0
LINE
  5
E2C
  8
0
 10
-9.1817947611604218
 20
186.50469841454819
 30
0.0
 11
-9.1817947611604218
 21
141.50469841454819
 31
0.0
  0
POLYLINE
  5
E2D
  8
0
 66
     1
 10
0.0
 20
0.0
 30
0.0
 70
     1
1001
ACDBBLOCKREPETAG
1070
     1
1071
        0
1005
E2D
  0
VERTEX
  5
1057
  8
0
 10
80.463789480629671
 20
116.62905065805499
 30
0.0
  0
VERTEX
  5
1058
  8
0
 10
5.6163183664847374
 20
121.4637360289497
 30
0.0
  0
VERTEX
  5
1059
  8
0
 10
8.1946984873008013
 20
161.38054897728739
 30
0.0
  0
VERTEX
  5
105A
  8
0
 10
83.042169601445735
 20
156.5458636063928
 30
0.0
  0
SEQEND
  5
105B
  8
0
  0
POLYLINE
  5
E2E
  8
0
 66
     1
 10
0.0
 20
0.0
 30
0.0
 70
     1
1001
ACDBBLOCKREPETAG
1070
     1
1071
        0
1005
E2D
  0
VERTEX
  5
105C
  8
0
 10
80.347106878043661
 20
116.7618481363961
 30
0.0
  0
VERTEX
  5
105D
  8
0
 10
5.749115844825857
 20
121.58041863153569
 30
0.0
  0
VERTEX
  5
105E
  8
0
 10
8.3113810898868046
 20
161.2477514989462
 30
0.0
  0
VERTEX
  5
105F
  8
0
 10
82.909372123104617
 20
156.4291810038068
 30
0.0
  0
SEQEND
  5
1060
  8
0
  0
LINE
  5
E2F
  8
0
 10
83.042169601445735
 20
156.5458636063928
 30
0.0
 11
5.6163183664847374
 21
121.4637360289497
 31
0.0
1001
ACDBBLOCKREPETAG
1070
     1
1071
        1
1005
E2F
  0
LINE
  5
E30
  8
0
 10
8.1946984873008013
 20
161.38054897728739
 30
0.0
 11
80.463789480629671
 21
116.62905065805499
 31
0.0
1001
ACDBBLOCKREPETAG
1070
     1
1071
        2
1005
E30
  0
LINE
  5
E3C
  8
0
 10
199.43784947559519
 20
168.5638814941409
 30
0.0
 11
216.0590034558077
 21
157.4807016421523
 31
0.0
1001
ACAD
1010
0.0
1020
0.0
1030
0.0
  0
LINE
  5
E3D
  8
0
 10
180.42746730894979
 20
169.79183502667939
 30
0.0
 11
209.5472783010471
 21
150.3744045121945
 31
0.0
1001
ACAD
1010
0.0
1020
0.0
1030
0.0
  0
LINE
  5
E3E
  8
0
 10
161.41708514230439
 20
171.0197885592178
 30
0.0
 11
190.5368961344013
 21
151.60235804473319
 31
0.0
1001
ACAD
1010
0.0
1020
0.0
1030
0.0
  0
LINE
  5
E3F
  8
0
 10
142.4067029756589
 20
172.24774209175621
 30
0.0
 11
171.52651396775539
 21
152.83031157727191
 31
0.0
1001
ACAD
1010
0.0
1020
0.0
1030
0.0
  0
LINE
  5
E40
  8
0
 10
123.3963208090135
 20
173.4756956242947
 30
0.0
 11
152.51613180110959
 21
154.05826510981061
 31
0.0
1001
ACAD
1010
0.0
1020
0.0
1030
0.0
  0
LINE
  5
E41
  8
0
 10
104.385938642368
 20
174.70364915683311
 30
0.0
 11
133.50574963446371
 21
155.2862186423493
 31
0.0
1001
ACAD
1010
0.0
1020
0.0
1030
0.0
  0
LINE
  5
E42
  8
0
 10
85.375556475722604
 20
175.93160268937149
 30
0.0
 11
114.4953674678178
 21
156.51417217488799
 31
0.0
1001
ACAD
1010
0.0
1020
0.0
1030
0.0
  0
LINE
  5
E43
  8
0
 10
66.36517430907719
 20
177.15955622191001
 30
0.0
 11
95.484985301172017
 21
157.74212570742671
 31
0.0
1001
ACAD
1010
0.0
1020
0.0
1030
0.0
  0
LINE
  5
E44
  8
0
 10
47.354792142431791
 20
178.38750975444839
 30
0.0
 11
76.474603134526191
 21
158.9700792399654
 31
0.0
1001
ACAD
1010
0.0
1020
0.0
1030
0.0
  0
LINE
  5
E45
  8
0
 10
28.344409975786341
 20
179.6154632869868
 30
0.0
 11
57.464220967880351
 21
160.19803277250409
 31
0.0
1001
ACAD
1010
0.0
1020
0.0
1030
0.0
  0
LINE
  5
E46
  8
0
 10
9.3850867612454181
 20
180.8093701131472
 30
0.0
 11
38.453838801234497
 21
161.42598630504281
 31
0.0
1001
ACAD
1010
0.0
1020
0.0
1030
0.0
  0
LINE
  5
E47
  8
0
 10
8.6761274586833821
 20
169.83372085183561
 30
0.0
 11
19.44345663458866
 21
162.6539398375815
 31
0.0
1001
ACAD
1010
0.0
1020
0.0
1030
0.0
  0
LINE
  5
E48
  8
0
 10
-28.181794761159299
 20
-145.27661292563809
 30
0.0
 11
-36.529857384475228
 21
-157.7959833727119
 31
0.0
1001
ACAD
1010
0.0
1020
0.0
1030
0.0
  0
LINE
  5
E49
  8
0
 10
-28.18179476115937
 20
-128.10776044789381
 30
0.0
 11
-47.681794761164291
 21
-157.35139873064441
 31
0.0
1001
ACAD
1010
0.0
1020
0.0
1030
0.0
  0
LINE
  5
E4A
  8
0
 10
-28.181794761159441
 20
-110.9389079701495
 30
0.0
 11
-47.68179476116412
 21
-140.18254625289981
 31
0.0
1001
ACAD
1010
0.0
1020
0.0
1030
0.0
  0
LINE
  5
E4B
  8
0
 10
-28.181794761159491
 20
-93.770055492405234
 30
0.0
 11
-47.681794761163957
 21
-123.0136937751552
 31
0.0
1001
ACAD
1010
0.0
1020
0.0
1030
0.0
  0
LINE
  5
E4C
  8
0
 10
-28.181794761159559
 20
-76.601203014660982
 30
0.0
 11
-47.6817947611638
 21
-105.8448412974105
 31
0.0
1001
ACAD
1010
0.0
1020
0.0
1030
0.0
  0
LINE
  5
E4D
  8
0
 10
-28.181794761159608
 20
-59.43235053691668
 30
0.0
 11
-47.68179476116363
 21
-88.675988819665903
 31
0.0
1001
ACAD
1010
0.0
1020
0.0
1030
0.0
  0
LINE
  5
E4E
  8
0
 10
-28.181794761159669
 20
-42.263498059172377
 30
0.0
 11
-47.681794761163466
 21
-71.507136341921296
 31
0.0
1001
ACAD
1010
0.0
1020
0.0
1030
0.0
  0
LINE
  5
E4F
  8
0
 10
-28.181794761159729
 20
-25.094645581428079
 30
0.0
 11
-47.681794761163303
 21
-54.33828386417666
 31
0.0
1001
ACAD
1010
0.0
1020
0.0
1030
0.0
  0
LINE
  5
E50
  8
0
 10
-28.181794761159789
 20
-7.9257931036837936
 30
0.0
 11
-47.68179476116314
 21
-37.169431386432052
 31
0.0
1001
ACAD
1010
0.0
1020
0.0
1030
0.0
  0
LINE
  5
E51
  8
0
 10
-28.18179476115985
 20
9.2430593740604934
 30
0.0
 11
-47.681794761162969
 21
-20.000578908687419
 31
0.0
1001
ACAD
1010
0.0
1020
0.0
1030
0.0
  0
LINE
  5
E52
  8
0
 10
-28.181794761159921
 20
26.411911851804788
 30
0.0
 11
-47.681794761162813
 21
-2.8317264309427901
 31
0.0
1001
ACAD
1010
0.0
1020
0.0
1030
0.0
  0
LINE
  5
E53
  8
0
 10
-28.181794761159971
 20
43.580764329549069
 30
0.0
 11
-47.681794761162621
 21
14.33712604680186
 31
0.0
1001
ACAD
1010
0.0
1020
0.0
1030
0.0
  0
LINE
  5
E54
  8
0
 10
-28.181794761160042
 20
60.749616807293357
 30
0.0
 11
-47.681794761162472
 21
31.505978524546471
 31
0.0
1001
ACAD
1010
0.0
1020
0.0
1030
0.0
  0
LINE
  5
E55
  8
0
 10
-28.181794761160091
 20
77.918469285037645
 30
0.0
 11
-47.681794761162308
 21
48.6748310022911
 31
0.0
1001
ACAD
1010
0.0
1020
0.0
1030
0.0
  0
LINE
  5
E56
  8
0
 10
-28.181794761160159
 20
95.087321762781926
 30
0.0
 11
-47.681794761162152
 21
65.843683480035722
 31
0.0
1001
ACAD
1010
0.0
1020
0.0
1030
0.0
  0
LINE
  5
E57
  8
0
 10
-28.181794761160219
 20
112.25617424052621
 30
0.0
 11
-47.681794761161981
 21
83.012535957780344
 31
0.0
1001
ACAD
1010
0.0
1020
0.0
1030
0.0
  0
LINE
  5
E58
  8
0
 10
-28.181794761160258
 20
129.42502671827049
 30
0.0
 11
-47.681794761161811
 21
100.18138843552499
 31
0.0
1001
ACAD
1010
0.0
1020
0.0
1030
0.0
  0
LINE
  5
E59
  8
0
 10
-28.18179476116034
 20
146.5938791960148
 30
0.0
 11
-47.681794761161648
 21
117.3502409132696
 31
0.0
1001
ACAD
1010
0.0
1020
0.0
1030
0.0
  0
LINE
  5
E5A
  8
0
 10
-28.18179476116039
 20
163.76273167375911
 30
0.0
 11
-47.681794761161491
 21
134.5190933910142
 31
0.0
1001
ACAD
1010
0.0
1020
0.0
1030
0.0
  0
LINE
  5
E5B
  8
0
 10
-28.181794761160461
 20
180.93158415150339
 30
0.0
 11
-47.681794761161328
 21
151.68794586875879
 31
0.0
1001
ACAD
1010
0.0
1020
0.0
1030
0.0
  0
LINE
  5
E5C
  8
0
 10
-28.181794761160521
 20
198.10043662924761
 30
0.0
 11
-47.681794761161157
 21
168.85679834650341
 31
0.0
1001
ACAD
1010
0.0
1020
0.0
1030
0.0
  0
LINE
  5
E5D
  8
0
 10
-28.181794761160589
 20
215.26928910699201
 30
0.0
 11
-47.681794761161022
 21
186.02565082424809
 31
0.0
1001
ACAD
1010
0.0
1020
0.0
1030
0.0
  0
LINE
  5
E5E
  8
0
 10
-36.03702461645571
 20
220.65785950698989
 30
0.0
 11
-47.681794761160837
 21
203.19450330199271
 31
0.0
1001
ACAD
1010
0.0
1020
0.0
1030
0.0
  0
LINE
  5
E5F
  8
0
 10
-47.485416231720151
 20
220.65785950699151
 30
0.0
 11
-47.681794761160702
 21
220.36335577973739
 31
0.0
1001
ACAD
1010
0.0
1020
0.0
1030
0.0
  0
VIEWPORT
  5
4DF
 67
     1
  8
0
  6
CONTINUOUS
 10
117.0748920506017
 20
209.4382796387151
 30
0.0
 40
840.29649014462939
 41
579.55933037624982
 68
     2
 69
     1
1001
ACAD
1000
MVIEW
1002
{
1070
    16
1010
0.0
1020
0.0
1030
0.0
1010
0.0
1020
0.0
1030
1.0
1040
0.0
1040
579.55933037624982
1040
117.0748920506017
1040
209.4382796387151
1040
50.0
1040
0.0
1040
0.0
1070
     0
1070
 20000
1070
     1
1070
     1
1070
     0
1070
     0
1070
     0
1070
     0
1040
0.0
1040
0.0
1040
0.0
1040
2.5
1040
2.5
1040
50.0
1040
50.0
1070
     0
1002
{
1002
}
1002
}
  0
VIEWPORT
  5
4E3
 67
     1
  8
0
  6
CONTINUOUS
 10
104.2062515318394
 20
147.70624390244481
 30
0.0
 40
208.41041893864809
 41
295.40953368001158
 68
     1
 69
     2
1001
ACAD
1000
MVIEW
1002
{
1070
    16
1010
0.0
1020
0.0
1030
0.0
1010
0.0
1020
0.0
1030
1.0
1040
0.0
1040
593.78848544976699
1040
-56.482630816470802
1040
82.874909344606834
1040
50.0
1040
0.0
1040
0.0
1070
     0
1070
 20000
1070
     1
1070
     1
1070
     0
1070
     0
1070
     0
1070
     0
1040
0.0
1040
0.0
1040
0.0
1040
2.5
1040
2.5
1040
50.0
1040
50.0
1070
     0
1002
{
1002
}
1002
}
  0
ENDSEC
  0
EOF
