  0
SECTION
  2
HEADER
  9
$ACADVER
  1
AC1009
  9
$INSBASE
 10
0.0
 20
0.0
 30
0.0
  9
$EXTMIN
 10
-42.332986445158888
 20
-110.2167883790612
 30
-0.0015258207003583
  9
$EXTMAX
 10
258.23036166742929
 20
273.88527967263298
 30
0.0000000349246037
  9
$LIMMIN
 10
0.0
 20
0.0
  9
$LIMMAX
 10
12.0
 20
9.0
  9
$ORTHOMODE
 70
     0
  9
$REGENMODE
 70
     1
  9
$FILLMODE
 70
     1
  9
$QTEXTMODE
 70
     0
  9
$MIRRTEXT
 70
     0
  9
$DRAGMODE
 70
     2
  9
$LTSCALE
 40
1.0
  9
$OSMODE
 70
     0
  9
$ATTMODE
 70
     1
  9
$TEXTSIZE
 40
35.0
  9
$TRACEWID
 40
0.05
  9
$TEXTSTYLE
  7
ARIAL
  9
$CLAYER
  8
0
  9
$CELTYPE
  6
CONTINUOUS
  9
$CECOLOR
 62
   256
  9
$DIMSCALE
 40
2.0
  9
$DIMASZ
 40
2.0
  9
$DIMEXO
 40
2.0
  9
$DIMDLI
 40
6.0
  9
$DIMRND
 40
0.0
  9
$DIMDLE
 40
2.0
  9
$DIMEXE
 40
2.0
  9
$DIMTP
 40
0.0
  9
$DIMTM
 40
0.0
  9
$DIMTXT
 40
2.0
  9
$DIMCEN
 40
2.0
  9
$DIMTSZ
 40
0.0
  9
$DIMTOL
 70
     0
  9
$DIMLIM
 70
     0
  9
$DIMTIH
 70
     0
  9
$DIMTOH
 70
     0
  9
$DIMSE1
 70
     0
  9
$DIMSE2
 70
     0
  9
$DIMTAD
 70
     1
  9
$DIMZIN
 70
     0
  9
$DIMBLK
  1
ARCHTICK
  9
$DIMASO
 70
     1
  9
$DIMSHO
 70
     1
  9
$DIMPOST
  1

  9
$DIMAPOST
  1

  9
$DIMALT
 70
     0
  9
$DIMALTD
 70
     2
  9
$DIMALTF
 40
0.0394
  9
$DIMLFAC
 40
1.0
  9
$DIMTOFL
 70
     0
  9
$DIMTVP
 40
0.0
  9
$DIMTIX
 70
     0
  9
$DIMSOXD
 70
     0
  9
$DIMSAH
 70
     0
  9
$DIMBLK1
  1

  9
$DIMBLK2
  1

  9
$DIMSTYLE
  2
1_TO_2
  9
$DIMCLRD
 70
   256
  9
$DIMCLRE
 70
   256
  9
$DIMCLRT
 70
   256
  9
$DIMTFAC
 40
1.0
  9
$DIMGAP
 40
1.0
  9
$LUNITS
 70
     2
  9
$LUPREC
 70
     1
  9
$SKETCHINC
 40
0.1
  9
$FILLETRAD
 40
0.0
  9
$AUNITS
 70
     1
  9
$AUPREC
 70
     4
  9
$MENU
  1
.
  9
$ELEVATION
 40
0.0
  9
$PELEVATION
 40
0.0
  9
$THICKNESS
 40
0.0
  9
$LIMCHECK
 70
     0
  9
$BLIPMODE
 70
     0
  9
$CHAMFERA
 40
0.0
  9
$CHAMFERB
 40
0.0
  9
$SKPOLY
 70
     0
  9
$TDCREATE
 40
2452152.65359294
  9
$TDUPDATE
 40
2455419.5994750229
  9
$TDINDWG
 40
25.9075154977
  9
$TDUSRTIMER
 40
25.9075154977
  9
$USRTIMER
 70
     1
  9
$ANGBASE
 50
0.0
  9
$ANGDIR
 70
     0
  9
$PDMODE
 70
     0
  9
$PDSIZE
 40
0.0
  9
$PLINEWID
 40
0.0
  9
$COORDS
 70
     1
  9
$SPLFRAME
 70
     0
  9
$SPLINETYPE
 70
     6
  9
$SPLINESEGS
 70
     8
  9
$ATTDIA
 70
     0
  9
$ATTREQ
 70
     0
  9
$HANDLING
 70
     1
  9
$HANDSEED
  5
9C5
  9
$SURFTAB1
 70
     6
  9
$SURFTAB2
 70
     6
  9
$SURFTYPE
 70
     6
  9
$SURFU
 70
     6
  9
$SURFV
 70
     6
  9
$UCSNAME
  2

  9
$UCSORG
 10
0.0
 20
0.0
 30
0.0
  9
$UCSXDIR
 10
1.0
 20
0.0
 30
0.0
  9
$UCSYDIR
 10
0.0
 20
1.0
 30
0.0
  9
$PUCSNAME
  2

  9
$PUCSORG
 10
0.0
 20
0.0
 30
0.0
  9
$PUCSXDIR
 10
1.0
 20
0.0
 30
0.0
  9
$PUCSYDIR
 10
0.0
 20
1.0
 30
0.0
  9
$USERI1
 70
     0
  9
$USERI2
 70
     0
  9
$USERI3
 70
     0
  9
$USERI4
 70
     0
  9
$USERI5
 70
     0
  9
$USERR1
 40
0.0
  9
$USERR2
 40
0.0
  9
$USERR3
 40
0.0
  9
$USERR4
 40
0.0
  9
$USERR5
 40
0.0
  9
$WORLDVIEW
 70
     1
  9
$SHADEDGE
 70
     3
  9
$SHADEDIF
 70
    70
  9
$TILEMODE
 70
     1
  9
$MAXACTVP
 70
    48
  9
$PLIMCHECK
 70
     0
  9
$PEXTMIN
 10
0.0
 20
0.0
 30
0.0
  9
$PEXTMAX
 10
208.41041893864801
 20
295.40953368001158
 30
0.0
  9
$PLIMMIN
 10
-0.793749988079071
 20
-0.793749988079071
  9
$PLIMMAX
 10
209.2062500119209
 20
296.20625001192087
  9
$UNITMODE
 70
     0
  9
$VISRETAIN
 70
     1
  9
$PLINEGEN
 70
     1
  9
$PSLTSCALE
 70
     1
  0
ENDSEC
  0
SECTION
  2
TABLES
  0
TABLE
  2
VPORT
 70
     1
  0
VPORT
  2
*ACTIVE
 70
     0
 10
0.0
 20
0.0
 11
1.0
 21
1.0
 12
107.9486876111351
 22
81.834245646785945
 13
0.0
 23
0.0
 14
1.0
 24
1.0
 15
50.0
 25
50.0
 16
0.0
 26
0.0
 36
1.0
 17
0.0
 27
0.0
 37
0.0
 40
387.3298165227169
 41
1.9789621318373061
 42
50.0
 43
0.0
 44
0.0
 50
0.0
 51
0.0
 71
     0
 72
 20000
 73
     1
 74
     3
 75
     0
 76
     0
 77
     0
 78
     0
  0
ENDTAB
  0
TABLE
  2
LTYPE
 70
     2
  0
LTYPE
  2
CONTINUOUS
 70
     0
  3
Solid line
 72
    65
 73
     0
 40
0.0
  0
ENDTAB
  0
TABLE
  2
LAYER
 70
    12
  0
LAYER
  2
0
 70
     0
 62
     7
  6
CONTINUOUS
  0
LAYER
  2
DEFPOINTS
 70
     0
 62
   211
  6
CONTINUOUS
  0
ENDTAB
  0
TABLE
  2
STYLE
 70
     4
  0
STYLE
  2
STANDARD
 70
     0
 40
0.0
 41
1.0
 50
0.0
 71
     0
 42
1.5
  3
romans.shx
  4

  0
STYLE
  2
ARIAL
 70
     0
 40
0.0
 41
1.0
 50
0.0
 71
     0
 42
35.0
  3
txt
  4

  0
STYLE
  2
EURO_COMMON_SLOK-VCLAD-END
 70
     0
 40
0.0
 41
1.0
 50
0.0
 71
     0
 42
35.0
  3
txt
  4

  0
ENDTAB
  0
TABLE
  2
VIEW
 70
     2
  0
VIEW
  2
09
 70
     0
 40
2970.0
 10
19050.0
 20
1485.0
 41
2100.0
 11
0.0
 21
0.0
 31
1.0
 12
0.0
 22
0.0
 32
0.0
 42
50.0
 43
0.0
 44
0.0
 50
0.0
 71
     0
  0
VIEW
  2
COMM-04
 70
     1
 40
477.26027331217421
 10
194.21746115522001
 20
180.60494410563541
 41
755.81685306636155
 11
0.0
 21
0.0
 31
1.0
 12
0.0
 22
0.0
 32
0.0
 42
50.0
 43
0.0
 44
0.0
 50
0.0
 71
     0
  0
ENDTAB
  0
TABLE
  2
UCS
 70
     0
  0
ENDTAB
  0
TABLE
  2
APPID
 70
    15
  0
APPID
  2
ACAD
 70
     0
  0
APPID
  2
GENIUS_GENODEF_13
 70
     0
  0
APPID
  2
GENIUS_GENREC_14
 70
     0
  0
APPID
  2
GENIUS_GENOBJ-N-REC_13
 70
     0
  0
APPID
  2
ACAD_PSEXT
 70
     0
  0
APPID
  2
ACDBBLOCKREPETAG
 70
     0
  0
APPID
  2
ACAD_MLEADERVER
 70
     0
  0
APPID
  2
ACADANNOTATIVE
 70
     0
  0
APPID
  2
ACDBDYNAMICBLOCKGUID
 70
     0
  0
APPID
  2
ACAD_EXEMPT_FROM_CAD_STANDARDS
 70
     0
  0
APPID
  2
RAK
 70
     0
  0
APPID
  2
ACAD_DSTYLE_DIMJAG
 70
     0
  0
APPID
  2
ACAD_DSTYLE_DIMBREAK
 70
     0
  0
APPID
  2
ACAD_DSTYLE_DIMTALN
 70
     0
  0
APPID
  2
CONTENTBLOCKICON
 70
     0
  0
ENDTAB
  0
TABLE
  2
DIMSTYLE
 70
     2
  0
DIMSTYLE
  2
1_TO_2
 70
     0
  3

  4

  5
ARCHTICK
  6

  7

 40
2.0
 41
2.0
 42
2.0
 43
6.0
 44
2.0
 45
0.0
 46
2.0
 47
0.0
 48
0.0
140
2.0
141
2.0
142
0.0
143
0.0394
144
1.0
145
0.0
146
1.0
147
1.0
 71
     0
 72
     0
 73
     0
 74
     0
 75
     0
 76
     0
 77
     1
 78
     0
170
     0
171
     2
172
     0
173
     0
174
     0
175
     0
176
   256
177
   256
178
   256
  0
DIMSTYLE
  2
EURO_COMMON_SLOK-VCLAD-END
 70
     0
  3

  4

  5
EURO_COMMON_SLOK-VCLAD-END
  6

  7

 40
2.0
 41
2.0
 42
2.0
 43
6.0
 44
2.0
 45
0.0
 46
2.0
 47
0.0
 48
0.0
140
2.0
141
2.0
142
0.0
143
0.0394
144
1.0
145
0.0
146
1.0
147
1.0
 71
     0
 72
     0
 73
     0
 74
     0
 75
     0
 76
     0
 77
     1
 78
     0
170
     0
171
     2
172
     0
173
     0
174
     0
175
     0
176
   256
177
   256
178
   256
  0
ENDTAB
  0
ENDSEC
  0
SECTION
  2
BLOCKS
  0
BLOCK
  8
0
  2
$MODEL_SPACE
 70
     0
 10
0.0
 20
0.0
 30
0.0
  3
$MODEL_SPACE
  1

  0
ENDBLK
  5
17
  8
0
  0
BLOCK
 67
     1
  8
0
  2
$PAPER_SPACE
 70
     0
 10
0.0
 20
0.0
 30
0.0
  3
$PAPER_SPACE
  1

  0
ENDBLK
  5
20
 67
     1
  8
0
  0
BLOCK
  8
0
  2
_ARCHTICK
 70
     0
 10
0.0
 20
0.0
 30
0.0
  3
_ARCHTICK
  1

  0
POLYLINE
  5
8D
  8
0
  6
BYBLOCK
 62
     0
 66
     1
 10
0.0
 20
0.0
 30
0.0
 40
0.15
 41
0.15
  0
VERTEX
  5
908
  8
0
  6
BYBLOCK
 62
     0
 10
-0.5
 20
-0.5
 30
0.0
  0
VERTEX
  5
909
  8
0
  6
BYBLOCK
 62
     0
 10
0.5
 20
0.5
 30
0.0
  0
SEQEND
  5
90A
  8
0
  6
BYBLOCK
 62
     0
  0
ENDBLK
  5
8E
  8
0
  0
BLOCK
  8
0
  2
EURO_COMMON_SLOK-VCLAD-END
 70
     0
 10
0.0
 20
0.0
 30
0.0
  3
EURO_COMMON_SLOK-VCLAD-END
  1

  0
POLYLINE
  5
789
  8
0
  6
BYBLOCK
 62
     0
 66
     1
 10
0.0
 20
0.0
 30
0.0
 40
0.15
 41
0.15
  0
VERTEX
  5
92C
  8
0
  6
BYBLOCK
 62
     0
 10
-0.5
 20
-0.5
 30
0.0
  0
VERTEX
  5
92D
  8
0
  6
BYBLOCK
 62
     0
 10
0.5
 20
0.5
 30
0.0
  0
SEQEND
  5
92E
  8
0
  6
BYBLOCK
 62
     0
  0
ENDBLK
  5
78A
  8
0
  0
BLOCK
  8
0
  2
*D6
 70
     1
 10
0.0
 20
0.0
 30
0.0
  3
*D6
  1

  0
LINE
  5
870
  8
0
  6
CONTINUOUS
 10
190.75715357606421
 20
53.967292003440647
 30
0.0
 11
204.75715357606421
 21
53.967292003440647
 31
0.0
  0
LINE
  5
871
  8
0
  6
CONTINUOUS
 10
190.75715357606421
 20
49.467292003440697
 30
0.0
 11
204.75715357606421
 21
49.467292003440697
 31
0.0
  0
LINE
  5
872
  8
0
  6
CONTINUOUS
 10
200.75715357606421
 20
57.967292003440647
 30
0.0
 11
200.75715357606421
 21
45.467292003440697
 31
0.0
  0
LINE
  5
873
  8
0
  6
CONTINUOUS
 10
200.75715357606421
 20
51.717292003440669
 30
0.0
 11
215.42291073841071
 21
56.117019152144628
 31
0.0
  0
LINE
  5
874
  8
0
  6
CONTINUOUS
 10
215.42291073841071
 20
56.117019152144628
 30
0.0
 11
215.42291073841071
 21
98.946487092117366
 31
0.0
  0
INSERT
  5
875
  8
0
  6
CONTINUOUS
  2
*U21
 10
0.0
 20
0.0
 30
0.0
  0
INSERT
  5
876
  8
0
  6
CONTINUOUS
  2
EURO_COMMON_SLOK-VCLAD-END
 10
200.75715357606421
 20
53.967292003440647
 30
0.0
 41
4.0
 42
4.0
 43
4.0
 50
90.0
  0
INSERT
  5
877
  8
0
  6
CONTINUOUS
  2
EURO_COMMON_SLOK-VCLAD-END
 10
200.75715357606421
 20
49.467292003440697
 30
0.0
 41
4.0
 42
4.0
 43
4.0
 50
270.0
  0
POINT
  5
878
  8
DEFPOINTS
  6
CONTINUOUS
 62
     0
 10
136.06666700663419
 20
53.967292003440683
 30
0.0
  0
POINT
  5
879
  8
DEFPOINTS
  6
CONTINUOUS
 62
     0
 10
136.06666700663419
 20
49.467292003440733
 30
0.0
  0
POINT
  5
87A
  8
DEFPOINTS
  6
CONTINUOUS
 62
     0
 10
200.75715357606421
 20
49.467292003440697
 30
0.0
  0
ENDBLK
  5
81D
  8
0
  0
BLOCK
  8
0
  2
*U7
 70
     1
 10
0.0
 20
0.0
 30
0.0
  3
*U7
  1

  0
SOLID
  5
94F
  8
0
 10
179.02257074677891
 20
210.5696130621732
 30
0.0
 11
175.5666670066343
 21
208.4480160732758
 31
0.0
 12
178.14767962929079
 22
211.5757657893067
 32
0.0
 13
178.14767962929079
 23
211.5757657893067
 33
0.0
  0
POLYLINE
  5
950
  8
0
 66
     1
 10
0.0
 20
0.0
 30
0.0
  0
VERTEX
  5
951
  8
0
 10
178.58512518803491
 20
211.07268942574001
 30
0.0
  0
VERTEX
  5
952
  8
0
 10
209.0124578205355
 20
237.5305047564903
 30
0.0
  0
VERTEX
  5
953
  8
0
 10
213.0124578205355
 20
237.5305047564903
 30
0.0
  0
SEQEND
  5
954
  8
0
  0
ENDBLK
  5
956
  8
0
  0
BLOCK
  8
0
  2
*U8
 70
     1
 10
0.0
 20
0.0
 30
0.0
  3
*U8
  1

  0
TEXT
  5
958
  8
0
  6
CONTINUOUS
 10
214.57043872094479
 20
235.5632469120155
 30
0.0
 40
4.0
  1
Euroline
  7
EURO_COMMON_SLOK-VCLAD-END
  0
ENDBLK
  5
95A
  8
0
  0
BLOCK
  8
0
  2
*U9
 70
     1
 10
0.0
 20
0.0
 30
0.0
  3
*U9
  1

  0
SOLID
  5
95C
  8
0
 10
127.3798490117337
 20
166.53625723580291
 30
0.0
 11
123.7166666666667
 21
164.79684941955219
 31
0.0
 12
126.6177068905136
 22
167.63029433062189
 32
0.0
 13
126.6177068905136
 23
167.63029433062189
 33
0.0
  0
POLYLINE
  5
95D
  8
0
 66
     1
 10
0.0
 20
0.0
 30
0.0
  0
VERTEX
  5
95E
  8
0
 10
126.9987779511236
 20
167.0832757832124
 30
0.0
  0
VERTEX
  5
95F
  8
0
 10
209.0124578205355
 20
224.21669497050141
 30
0.0
  0
VERTEX
  5
960
  8
0
 10
213.0124578205355
 20
224.21669497050141
 30
0.0
  0
SEQEND
  5
961
  8
0
  0
ENDBLK
  5
963
  8
0
  0
BLOCK
  8
0
  2
*U10
 70
     1
 10
0.0
 20
0.0
 30
0.0
  3
*U10
  1

  0
TEXT
  5
965
  8
0
  6
CONTINUOUS
 10
214.5731672339052
 20
222.80468951347549
 30
0.0
 40
4.0
  1
Underlay
  7
EURO_COMMON_SLOK-VCLAD-END
  0
ENDBLK
  5
967
  8
0
  0
BLOCK
  8
0
  2
*U11
 70
     1
 10
0.0
 20
0.0
 30
0.0
  3
*U11
  1

  0
SOLID
  5
969
  8
0
 10
125.5564913226381
 20
149.6755977940735
 30
0.0
 11
121.8666666666667
 21
147.9934448721817
 31
0.0
 12
124.81147823143149
 22
150.78137049752959
 32
0.0
 13
124.81147823143149
 23
150.78137049752959
 33
0.0
  0
POLYLINE
  5
96A
  8
0
 66
     1
 10
0.0
 20
0.0
 30
0.0
  0
VERTEX
  5
96B
  8
0
 10
125.18398477703479
 20
150.2284841458015
 30
0.0
  0
VERTEX
  5
96C
  8
0
 10
209.0124578205355
 20
206.7078217511451
 30
0.0
  0
VERTEX
  5
96D
  8
0
 10
213.0124578205355
 20
206.7078217511451
 30
0.0
  0
SEQEND
  5
96E
  8
0
  0
ENDBLK
  5
970
  8
0
  0
BLOCK
  8
0
  2
*U12
 70
     1
 10
0.0
 20
0.0
 30
0.0
  3
*U12
  1

  0
TEXT
  5
972
  8
0
  6
CONTINUOUS
 10
214.58135277278649
 20
205.29581629411919
 30
0.0
 40
4.0
  1
Plywood
  7
EURO_COMMON_SLOK-VCLAD-END
  0
ENDBLK
  5
974
  8
0
  0
BLOCK
  8
0
  2
*U13
 70
     1
 10
0.0
 20
0.0
 30
0.0
  3
*U13
  1

  0
SOLID
  5
976
  8
0
 10
94.128351121657488
 20
141.76690011341819
 30
0.0
 11
90.833333333333329
 21
139.40315261863961
 31
0.0
 12
93.183621242900955
 22
142.70778439640009
 32
0.0
 13
93.183621242900955
 23
142.70778439640009
 33
0.0
  0
POLYLINE
  5
977
  8
0
 66
     1
 10
0.0
 20
0.0
 30
0.0
  0
VERTEX
  5
978
  8
0
 10
93.655986182279221
 20
142.23734225490921
 30
0.0
  0
VERTEX
  5
979
  8
0
 10
209.0124578205355
 20
258.06530052326781
 30
0.0
  0
VERTEX
  5
97A
  8
0
 10
213.0124578205355
 20
258.06530052326781
 30
0.0
  0
SEQEND
  5
97B
  8
0
  0
ENDBLK
  5
97D
  8
0
  0
BLOCK
  8
0
  2
*U14
 70
     1
 10
0.0
 20
0.0
 30
0.0
  3
*U14
  1

  0
TEXT
  5
97F
  8
0
  6
CONTINUOUS
 10
214.55406764318209
 20
2.5893228712348759
 30
0.0
 40
4.0
  1
Framing
  7
EURO_COMMON_SLOK-VCLAD-END
  0
ENDBLK
  5
981
  8
0
  0
BLOCK
  8
0
  2
*U15
 70
     1
 10
0.0
 20
0.0
 30
0.0
  3
*U15
  1

  0
TEXT
  5
983
  8
0
  6
CONTINUOUS
 10
214.7341494985709
 20
262.76470934545972
 30
0.0
 40
4.0
  1
Cavibat horzontal
  7
EURO_COMMON_SLOK-VCLAD-END
  0
TEXT
  5
984
  8
0
  6
CONTINUOUS
 10
214.82146191330489
 20
256.06393626678749
 30
0.0
 40
4.0
  1
drained cavity
  7
EURO_COMMON_SLOK-VCLAD-END
  0
TEXT
  5
985
  8
0
  6
CONTINUOUS
 10
214.64683708383691
 20
249.39726960012081
 30
0.0
 40
4.0
  1
batten
  7
EURO_COMMON_SLOK-VCLAD-END
  0
ENDBLK
  5
987
  8
0
  0
BLOCK
  8
0
  2
*U16
 70
     1
 10
0.0
 20
0.0
 30
0.0
  3
*U16
  1

  0
SOLID
  5
989
  8
0
 10
82.280433786797175
 20
-49.786275372465369
 30
0.0
 11
78.333333333333314
 21
-50.716244433622713
 31
0.0
 12
81.765465418126453
 22
-48.556403282755873
 32
0.0
 13
81.765465418126453
 23
-48.556403282755873
 33
0.0
  0
POLYLINE
  5
98A
  8
0
 66
     1
 10
0.0
 20
0.0
 30
0.0
  0
VERTEX
  5
98B
  8
0
 10
82.022949602461836
 20
-49.17133932761061
 30
0.0
  0
VERTEX
  5
98C
  8
0
 10
209.0124578205355
 20
4.0013283282607972
 30
0.0
  0
VERTEX
  5
98D
  8
0
 10
213.0124578205355
 20
4.0013283282607972
 30
0.0
  0
SEQEND
  5
98E
  8
0
  0
ENDBLK
  5
990
  8
0
  0
BLOCK
  8
0
  2
*U17
 70
     1
 10
0.0
 20
0.0
 30
0.0
  3
*U17
  1

  0
SOLID
  5
99E
  8
0
 10
131.76628618840081
 20
132.79817245090101
 30
0.0
 11
128.12352508517151
 21
131.01639356752511
 31
0.0
 12
130.9915059503746
 22
133.8832961123064
 32
0.0
 13
130.9915059503746
 23
133.8832961123064
 33
0.0
  0
POLYLINE
  5
99F
  8
0
 66
     1
 10
0.0
 20
0.0
 30
0.0
  0
VERTEX
  5
9A0
  8
0
 10
131.37889606938771
 20
133.3407342816038
 30
0.0
  0
VERTEX
  5
9A1
  8
0
 10
209.0124578205355
 20
188.77123643697681
 30
0.0
  0
VERTEX
  5
9A2
  8
0
 10
213.0124578205355
 20
188.77123643697681
 30
0.0
  0
SEQEND
  5
9A3
  8
0
  0
ENDBLK
  5
9A5
  8
0
  0
BLOCK
  8
0
  2
*U18
 70
     1
 10
0.0
 20
0.0
 30
0.0
  3
*U18
  1

  0
TEXT
  5
9A7
  8
0
  6
CONTINUOUS
 10
214.60318087646999
 20
187.3264888244257
 30
0.0
 40
4.0
  1
Lapseal tape
  7
EURO_COMMON_SLOK-VCLAD-END
  0
ENDBLK
  5
9A9
  8
0
  0
BLOCK
  8
0
  2
*U19
 70
     1
 10
0.0
 20
0.0
 30
0.0
  3
*U19
  1

  0
SOLID
  5
9AB
  8
0
 10
133.59991776529341
 20
102.97309984702071
 30
0.0
 11
130.18038350367641
 21
100.7933682401313
 31
0.0
 12
132.7081380948635
 22
103.9643146558214
 32
0.0
 13
132.7081380948635
 23
103.9643146558214
 33
0.0
  0
POLYLINE
  5
9AC
  8
0
 66
     1
 10
0.0
 20
0.0
 30
0.0
  0
VERTEX
  5
9AD
  8
0
 10
133.1540279300784
 20
103.46870725142099
 30
0.0
  0
VERTEX
  5
9AE
  8
0
 10
209.0124578205355
 20
171.7172897043952
 30
0.0
  0
VERTEX
  5
9AF
  8
0
 10
213.0124578205355
 20
171.7172897043952
 30
0.0
  0
SEQEND
  5
9B0
  8
0
  0
ENDBLK
  5
9B2
  8
0
  0
BLOCK
  8
0
  2
*U20
 70
     1
 10
0.0
 20
0.0
 30
0.0
  3
*U20
  1

  0
TEXT
  5
9B4
  8
0
  6
CONTINUOUS
 10
214.71504990784791
 20
170.30528424736929
 30
0.0
 40
4.0
  1
Grab flashing
  7
EURO_COMMON_SLOK-VCLAD-END
  0
ENDBLK
  5
9B6
  8
0
  0
BLOCK
  8
0
  2
*U21
 70
     1
 10
0.0
 20
0.0
 30
0.0
  3
*U21
  1

  0
TEXT
  5
9C2
  8
0
  6
CONTINUOUS
 10
212.31240596351299
 20
57.88509555050755
 30
0.0
 40
4.0
  1
5mm expansion
 50
90.0
  7
EURO_COMMON_SLOK-VCLAD-END
  0
ENDBLK
  5
9C4
  8
0
  0
ENDSEC
  0
SECTION
  2
ENTITIES
  0
POLYLINE
  5
7F9
  8
0
 66
     1
 10
0.0
 20
0.0
 30
0.0
 70
   128
  0
VERTEX
  5
92F
  8
0
 10
138.56666700663419
 20
51.967292003440747
 30
0.0
  0
VERTEX
  5
930
  8
0
 10
175.56666700663419
 20
51.967292003440747
 30
0.0
  0
VERTEX
  5
931
  8
0
 10
175.5666670066343
 20
270.48369836658571
 30
0.0
  0
SEQEND
  5
932
  8
0
  0
POLYLINE
  5
7FB
  8
0
 66
     1
 10
0.0
 20
0.0
 30
0.0
  0
VERTEX
  5
933
  8
0
 10
102.26666666666659
 20
-106.8165126398389
 30
0.0
  0
VERTEX
  5
934
  8
0
 10
102.26666666666669
 20
270.48500214490491
 30
0.0
  0
SEQEND
  5
935
  8
0
  0
POLYLINE
  5
7FC
  8
0
 66
     1
 10
0.0
 20
0.0
 30
0.0
  0
VERTEX
  5
936
  8
0
 10
121.8666666666667
 20
270.48500214490491
 30
0.0
  0
VERTEX
  5
937
  8
0
 10
121.8666666666666
 20
-106.8165126398389
 30
0.0
  0
SEQEND
  5
938
  8
0
  0
LINE
  5
7FD
  8
0
 10
123.7166666666667
 20
270.48500214490491
 30
0.0
 11
123.7166666666666
 21
-106.8165126398389
 31
0.0
  0
POLYLINE
  5
7FE
  8
0
 66
     1
 10
0.0
 20
0.0
 30
0.0
 70
   128
  0
VERTEX
  5
939
  8
0
 10
194.4868092315628
 20
270.48500214490491
 30
0.0
  0
VERTEX
  5
93A
  8
0
 10
77.753629034327091
 20
270.48500214490491
 30
0.0
  0
VERTEX
  5
93B
  8
0
 10
76.520295700993671
 20
273.87355762889922
 30
0.0
  0
VERTEX
  5
93C
  8
0
 10
74.053629034327003
 20
267.09644666091111
 30
0.0
  0
VERTEX
  5
93D
  8
0
 10
72.820295700993753
 20
270.48500214490491
 30
0.0
  0
VERTEX
  5
93E
  8
0
 10
-42.323815239260213
 20
270.48500214490502
 30
0.0
  0
SEQEND
  5
93F
  8
0
  0
LINE
  5
7FF
  8
0
 10
80.333333333333385
 20
270.48500214490491
 30
0.0
 11
80.333333333333286
 21
-106.8165126398389
 31
0.0
  0
LINE
  5
800
  8
0
 10
-20.000000000000028
 20
-106.8165126398389
 30
0.0
 11
-19.999999999999929
 21
270.48500214490502
 31
0.0
  0
POLYLINE
  5
801
  8
0
 66
     1
 10
0.0
 20
0.0
 30
0.0
 70
   128
  0
VERTEX
  5
940
  8
0
 10
174.83656532678251
 20
-106.816512639839
 30
0.0
  0
VERTEX
  5
941
  8
0
 10
77.753629034327005
 20
-106.8165126398389
 30
0.0
  0
VERTEX
  5
942
  8
0
 10
76.520295700993586
 20
-103.4279571558446
 30
0.0
  0
VERTEX
  5
943
  8
0
 10
74.053629034326917
 20
-110.2050681238327
 30
0.0
  0
VERTEX
  5
944
  8
0
 10
72.820295700993668
 20
-106.8165126398389
 30
0.0
  0
VERTEX
  5
945
  8
0
 10
-42.323815239260277
 20
-106.8165126398389
 30
0.0
  0
SEQEND
  5
946
  8
0
  0
POLYLINE
  5
802
  8
0
 66
     1
 10
0.0
 20
0.0
 30
0.0
 70
   128
 40
0.6
 41
0.6
  0
VERTEX
  5
947
  8
0
 10
126.06666666666661
 20
-106.8165126398389
 30
0.0
  0
VERTEX
  5
948
  8
0
 10
126.06666666666661
 20
161.96859578164819
 30
0.0
  0
VERTEX
  5
949
  8
0
 10
163.06666666666661
 20
161.96859578164819
 30
0.0
  0
SEQEND
  5
94A
  8
0
  0
POLYLINE
  5
803
  8
0
 66
     1
 10
0.0
 20
0.0
 30
0.0
 70
   128
  0
VERTEX
  5
94B
  8
0
 10
163.06666666666661
 20
161.96859578164819
 30
0.0
  0
VERTEX
  5
94C
  8
0
 10
163.06666666666669
 20
-106.816512639839
 30
0.0
  0
SEQEND
  5
94D
  8
0
  0
LINE
  5
804
  8
0
 10
82.333333333333314
 20
-106.8165126398389
 30
0.0
 11
82.333333333333343
 21
270.48500214490491
 31
0.0
  0
LINE
  5
805
  8
0
 10
100.3333333333333
 20
-106.8165126398389
 30
0.0
 11
100.3333333333333
 21
270.48500214490491
 31
0.0
  0
INSERT
  5
806
  8
0
  6
CONTINUOUS
  2
*U7
 10
0.0
 20
0.0
 30
0.0
1001
ACAD
1000
DSTYLE
1002
{
1070
   147
1040
1.0
1070
    77
1070
     0
1002
}
  0
INSERT
  5
807
  8
0
  6
CONTINUOUS
  2
*U8
 10
0.0
 20
0.0
 30
0.0
  0
INSERT
  5
808
  8
0
  6
CONTINUOUS
  2
*U9
 10
0.0
 20
0.0
 30
0.0
1001
ACAD
1000
DSTYLE
1002
{
1070
   147
1040
1.0
1070
    77
1070
     0
1002
}
  0
INSERT
  5
809
  8
0
  6
CONTINUOUS
  2
*U10
 10
0.0
 20
0.0
 30
0.0
  0
INSERT
  5
80A
  8
0
  6
CONTINUOUS
  2
*U11
 10
0.0
 20
0.0
 30
0.0
1001
ACAD
1000
DSTYLE
1002
{
1070
   147
1040
1.0
1070
    77
1070
     0
1002
}
  0
INSERT
  5
80B
  8
0
  6
CONTINUOUS
  2
*U12
 10
0.0
 20
0.0
 30
0.0
  0
INSERT
  5
80C
  8
0
  6
CONTINUOUS
  2
*U13
 10
0.0
 20
0.0
 30
0.0
1001
ACAD
1000
DSTYLE
1002
{
1070
   147
1040
1.0
1070
    77
1070
     0
1002
}
  0
INSERT
  5
80D
  8
0
  6
CONTINUOUS
  2
*U14
 10
0.0
 20
0.0
 30
0.0
  0
INSERT
  5
80E
  8
0
  6
CONTINUOUS
  2
*U15
 10
0.0
 20
0.0
 30
0.0
  0
INSERT
  5
80F
  8
0
  6
CONTINUOUS
  2
*U16
 10
0.0
 20
0.0
 30
0.0
1001
ACAD
1000
DSTYLE
1002
{
1070
   147
1040
1.0
1070
    77
1070
     0
1002
}
  0
POLYLINE
  5
810
  8
0
 66
     1
 10
0.0
 20
0.0
 30
0.0
 70
   128
 40
0.6166666666666667
 41
0.6166666666666667
  0
VERTEX
  5
991
  8
0
 10
138.50968761111639
 20
270.48369836658571
 30
0.0
  0
VERTEX
  5
992
  8
0
 10
138.56666666666649
 20
51.968595781759952
 30
0.0
 42
-1.0002607896783311
  0
VERTEX
  5
993
  8
0
 10
133.56666700663419
 20
51.967292003440747
 30
0.0
  0
VERTEX
  5
994
  8
0
 10
133.56666700663419
 20
79.467292003384927
 30
0.0
 40
0.0
 41
0.0
  0
SEQEND
  5
995
  8
0
  0
POLYLINE
  5
811
  8
0
 66
     1
 10
0.0
 20
0.0
 30
0.0
 70
   128
 40
0.5999999999999999
 41
0.5999999999999999
  0
VERTEX
  5
996
  8
0
 10
130.18038350367641
 20
140.71422334081649
 30
0.0
  0
VERTEX
  5
997
  8
0
 10
130.18038350367641
 20
93.099788804361808
 30
0.0
 42
0.1085223178512014
  0
VERTEX
  5
998
  8
0
 10
130.54852808681241
 20
91.423594832592755
 30
0.0
  0
VERTEX
  5
999
  8
0
 10
135.69852242349819
 20
80.264960961137064
 30
0.0
 42
-0.1085223178512014
  0
VERTEX
  5
99A
  8
0
 10
136.06666700663419
 20
78.588766989367997
 30
0.0
  0
VERTEX
  5
99B
  8
0
 10
136.06666700663419
 20
53.967292003440683
 30
0.0
  0
SEQEND
  5
99C
  8
0
  0
INSERT
  5
812
  8
0
  6
CONTINUOUS
  2
*U17
 10
0.0
 20
0.0
 30
0.0
1001
ACAD
1000
DSTYLE
1002
{
1070
   147
1040
1.0
1070
    77
1070
     0
1002
}
  0
INSERT
  5
813
  8
0
  6
CONTINUOUS
  2
*U18
 10
0.0
 20
0.0
 30
0.0
  0
INSERT
  5
814
  8
0
  6
CONTINUOUS
  2
*U19
 10
0.0
 20
0.0
 30
0.0
1001
ACAD
1000
DSTYLE
1002
{
1070
   147
1040
1.0
1070
    77
1070
     0
1002
}
  0
INSERT
  5
815
  8
0
  6
CONTINUOUS
  2
*U20
 10
0.0
 20
0.0
 30
0.0
  0
DIMENSION
  5
818
  8
0
  6
CONTINUOUS
  2
*D6
 10
200.75715357606421
 20
49.467292003440697
 30
0.0
 11
210.8676583509619
 21
58.117019152144671
 31
0.0
 70
     0
  1
5mm expansion
 13
136.06666700663419
 23
53.967292003440683
 33
0.0
 14
136.06666700663419
 24
49.467292003440733
 34
0.0
 50
90.0
  0
POLYLINE
  5
81A
  8
0
  6
CONTINUOUS
 66
     1
 10
0.0
 20
0.0
 30
0.0
 70
     1
  0
VERTEX
  5
9B7
  8
0
  6
CONTINUOUS
 10
129.68038350367641
 20
131.01639356752511
 30
0.0
  0
VERTEX
  5
9B8
  8
0
  6
CONTINUOUS
 10
126.56666666666661
 20
131.01639356752511
 30
0.0
  0
VERTEX
  5
9B9
  8
0
  6
CONTINUOUS
 10
126.56666666666661
 20
102.7976185776532
 30
0.0
  0
VERTEX
  5
9BA
  8
0
  6
CONTINUOUS
 10
129.68038350367641
 20
102.7976185776532
 30
0.0
  0
SEQEND
  5
9BB
  8
0
  6
CONTINUOUS
  0
POLYLINE
  5
834
  8
0
 66
     1
 10
0.0
 20
0.0
 30
0.0
 70
     1
  0
VERTEX
  5
9BC
  8
0
 10
82.333333333333343
 20
94.403152618639623
 30
0.0
  0
VERTEX
  5
9BD
  8
0
 10
100.3333333333333
 20
94.403152618639623
 30
0.0
  0
VERTEX
  5
9BE
  8
0
 10
100.3333333333333
 20
139.40315261863961
 30
0.0
  0
VERTEX
  5
9BF
  8
0
 10
82.333333333333343
 20
139.40315261863961
 30
0.0
  0
SEQEND
  5
9C0
  8
0
  0
LINE
  5
835
  8
0
 10
90.833333333333329
 20
139.40315261863961
 30
0.0
 11
90.833333333333329
 21
94.403152618639623
 31
0.0
  0
LINE
  5
836
  8
0
 10
91.833333333333357
 20
94.403152618639623
 30
0.0
 11
91.833333333333357
 21
139.40315261863961
 31
0.0
  0
LINE
  5
837
  8
0
 10
83.333333333333329
 20
139.40315261863961
 30
0.0
 11
83.333333333333329
 21
94.403152618639623
 31
0.0
  0
LINE
  5
838
  8
0
 10
99.333333333333357
 20
139.40315261863961
 30
0.0
 11
99.333333333333357
 21
94.403152618639623
 31
0.0
  0
LINE
  5
839
  8
0
 10
126.5841791021719
 20
114.4570060725891
 30
0.0
 11
63.55038173402189
 21
114.6603405856925
 31
0.0
1001
ACDBBLOCKREPETAG
1070
     1
1071
        0
1005
839
  0
LINE
  5
83A
  8
0
 10
126.5841791021721
 20
119.3570060725891
 30
0.0
 11
63.5503817340214
 21
119.1536715594859
 31
0.0
1001
ACDBBLOCKREPETAG
1070
     1
1071
        1
1005
83A
  0
LINE
  5
83B
  8
0
 10
60.18038350367636
 20
116.9070060725892
 30
0.0
 11
63.5503817340214
 21
119.1536715594859
 31
0.0
1001
ACDBBLOCKREPETAG
1070
     1
1071
        2
1005
83B
  0
LINE
  5
83C
  8
0
 10
60.18038350367636
 20
116.9070060725892
 30
0.0
 11
63.55038173402189
 21
114.6603405856925
 31
0.0
1001
ACDBBLOCKREPETAG
1070
     1
1071
        3
1005
83C
  0
LINE
  5
83D
  8
0
 10
69.556786746404299
 20
119.17304702930819
 30
0.0
 11
70.285785426040505
 21
114.63861351089371
 31
0.0
1001
ACDBBLOCKREPETAG
1070
     1
1071
        6
1005
83D
  0
LINE
  5
83E
  8
0
 10
61.535230615530892
 20
117.81023748049221
 30
0.0
 11
61.74997899558943
 21
116.4744843717931
 31
0.0
1001
ACDBBLOCKREPETAG
1070
     1
1071
        7
1005
83E
  0
LINE
  5
83F
  8
0
 10
60.18038350367636
 20
116.9070060725892
 30
0.0
 11
68.390053108495749
 21
114.6447287668969
 31
0.0
1001
ACDBBLOCKREPETAG
1070
     1
1071
        8
1005
83F
  0
LINE
  5
840
  8
0
 10
68.206134081313309
 20
119.1686900920222
 30
0.0
 11
68.933731108644906
 21
114.6429749696316
 31
0.0
1001
ACDBBLOCKREPETAG
1070
     1
1071
       10
1005
840
  0
LINE
  5
841
  8
0
 10
66.855481416221551
 20
119.1643331547363
 30
0.0
 11
67.544642601789107
 21
114.87769222284319
 31
0.0
1001
ACDBBLOCKREPETAG
1070
     1
1071
       12
1005
841
  0
LINE
  5
842
  8
0
 10
65.504828751131853
 20
119.15997621745041
 30
0.0
 11
66.130646544286506
 21
115.26733655022861
 31
0.0
1001
ACDBBLOCKREPETAG
1070
     1
1071
       14
1005
842
  0
LINE
  5
843
  8
0
 10
64.154176086040479
 20
119.1556192801644
 30
0.0
 11
64.716650486783792
 21
115.6569808776141
 31
0.0
1001
ACDBBLOCKREPETAG
1070
     1
1071
       16
1005
843
  0
LINE
  5
844
  8
0
 10
62.875472631912658
 20
118.70373215808
 30
0.0
 11
63.302654429281461
 21
116.0466252049995
 31
0.0
1001
ACDBBLOCKREPETAG
1070
     1
1071
       18
1005
844
  0
LINE
  5
845
  8
0
 10
126.5841791021721
 20
119.3570060725891
 30
0.0
 11
127.2605872018206
 21
119.3570060725891
 31
0.0
1001
ACDBBLOCKREPETAG
1070
     1
1071
       20
1005
845
  0
LINE
  5
846
  8
0
 10
127.2605872018206
 20
119.3570060725891
 30
0.0
 11
130.18038350367621
 21
121.807006072589
 31
0.0
1001
ACDBBLOCKREPETAG
1070
     1
1071
       22
1005
846
  0
LINE
  5
847
  8
0
 10
130.18038350367621
 20
121.807006072589
 30
0.0
 11
130.4955909119181
 21
121.807006072589
 31
0.0
1001
ACDBBLOCKREPETAG
1070
     1
1071
       23
1005
847
  0
LINE
  5
848
  8
0
 10
130.4955909119181
 20
121.807006072589
 30
0.0
 11
130.4955909119181
 21
112.00700607258911
 31
0.0
1001
ACDBBLOCKREPETAG
1070
     1
1071
       24
1005
848
  0
LINE
  5
849
  8
0
 10
130.18038350367641
 20
121.8070060725891
 30
0.0
 11
130.1803835036765
 21
112.00700607258911
 31
0.0
1001
ACDBBLOCKREPETAG
1070
     1
1071
       25
1005
849
  0
LINE
  5
84A
  8
0
 10
130.18038350367621
 20
112.00700607258911
 30
0.0
 11
130.4955909119181
 21
112.00700607258911
 31
0.0
1001
ACDBBLOCKREPETAG
1070
     1
1071
       27
1005
84A
  0
LINE
  5
84B
  8
0
 10
127.2605872018206
 20
114.4570060725891
 30
0.0
 11
127.2605872018206
 21
119.3570060725891
 31
0.0
1001
ACDBBLOCKREPETAG
1070
     1
1071
       28
1005
84B
  0
LINE
  5
84C
  8
0
 10
76.310050071859223
 20
119.19483171573791
 30
0.0
 11
77.046057013017162
 21
114.616806217204
 31
0.0
1001
ACDBBLOCKREPETAG
1070
     1
1071
       30
1005
84C
  0
LINE
  5
84D
  8
0
 10
74.959397406768417
 20
119.190474778452
 30
0.0
 11
75.694002695621506
 21
114.6211676759419
 31
0.0
1001
ACDBBLOCKREPETAG
1070
     1
1071
       32
1005
84D
  0
LINE
  5
84E
  8
0
 10
73.608744741676531
 20
119.18611784116599
 30
0.0
 11
74.341948378226974
 21
114.62552913467979
 31
0.0
1001
ACDBBLOCKREPETAG
1070
     1
1071
       34
1005
84E
  0
LINE
  5
84F
  8
0
 10
72.258092076586735
 20
119.1817609038801
 30
0.0
 11
72.989894060831119
 21
114.6298905934178
 31
0.0
1001
ACDBBLOCKREPETAG
1070
     1
1071
       36
1005
84F
  0
LINE
  5
850
  8
0
 10
70.907439411495744
 20
119.1774039665941
 30
0.0
 11
71.637839743435251
 21
114.6342520521557
 31
0.0
1001
ACDBBLOCKREPETAG
1070
     1
1071
       38
1005
850
  0
LINE
  5
851
  8
0
 10
83.020140194460325
 20
119.2164771339885
 30
0.0
 11
83.763110593749062
 21
114.5951383362202
 31
0.0
1001
ACDBBLOCKREPETAG
1070
     1
1071
       46
1005
851
  0
LINE
  5
852
  8
0
 10
81.66948752936932
 20
119.2121201967026
 30
0.0
 11
82.411056276353449
 21
114.59949979495811
 31
0.0
1001
ACDBBLOCKREPETAG
1070
     1
1071
       48
1005
852
  0
LINE
  5
853
  8
0
 10
80.318834864277576
 20
119.20776325941659
 30
0.0
 11
81.059001958958405
 21
114.6038612536961
 31
0.0
1001
ACDBBLOCKREPETAG
1070
     1
1071
       50
1005
853
  0
LINE
  5
854
  8
0
 10
78.968182199187879
 20
119.2034063221307
 30
0.0
 11
79.706947641562692
 21
114.608222712434
 31
0.0
1001
ACDBBLOCKREPETAG
1070
     1
1071
       52
1005
854
  0
LINE
  5
855
  8
0
 10
77.617529534096477
 20
119.1990493848448
 30
0.0
 11
78.354893324167008
 21
114.612584171172
 31
0.0
1001
ACDBBLOCKREPETAG
1070
     1
1071
       54
1005
855
  0
LINE
  5
856
  8
0
 10
89.773403519915263
 20
119.2382618204182
 30
0.0
 11
90.523382180725704
 21
114.5733310425305
 31
0.0
1001
ACDBBLOCKREPETAG
1070
     1
1071
       56
1005
856
  0
LINE
  5
857
  8
0
 10
88.422750854824443
 20
119.2339048831323
 30
0.0
 11
89.171327863330035
 21
114.5776925012685
 31
0.0
1001
ACDBBLOCKREPETAG
1070
     1
1071
       58
1005
857
  0
LINE
  5
858
  8
0
 10
87.072098189732543
 20
119.22954794584631
 30
0.0
 11
87.819273545935545
 21
114.58205396000641
 31
0.0
1001
ACDBBLOCKREPETAG
1070
     1
1071
       60
1005
858
  0
LINE
  5
859
  8
0
 10
85.72144552464276
 20
119.2251910085604
 30
0.0
 11
86.467219228539648
 21
114.58641541874429
 31
0.0
1001
ACDBBLOCKREPETAG
1070
     1
1071
       62
1005
859
  0
LINE
  5
85A
  8
0
 10
84.370792859551784
 20
119.2208340712745
 30
0.0
 11
85.115164911143765
 21
114.5907768774823
 31
0.0
1001
ACDBBLOCKREPETAG
1070
     1
1071
       64
1005
85A
  0
LINE
  5
85B
  8
0
 10
96.520409043795965
 20
119.2600263204228
 30
0.0
 11
97.277389472036603
 21
114.5515439562147
 31
0.0
1001
ACDBBLOCKREPETAG
1070
     1
1071
       77
1005
85B
  0
LINE
  5
85C
  8
0
 10
95.169756378705145
 20
119.25566938313681
 30
0.0
 11
95.925335154640948
 21
114.5559054149526
 31
0.0
1001
ACDBBLOCKREPETAG
1070
     1
1071
       79
1005
85C
  0
LINE
  5
85D
  8
0
 10
93.819103713613259
 20
119.2513124458509
 30
0.0
 11
94.573280837246472
 21
114.56026687369049
 31
0.0
1001
ACDBBLOCKREPETAG
1070
     1
1071
       81
1005
85D
  0
LINE
  5
85E
  8
0
 10
92.468451048523477
 20
119.24695550856489
 30
0.0
 11
93.221226519850561
 21
114.5646283324285
 31
0.0
1001
ACDBBLOCKREPETAG
1070
     1
1071
       83
1005
85E
  0
LINE
  5
85F
  8
0
 10
91.117798383432515
 20
119.242598571279
 30
0.0
 11
91.869172202454692
 21
114.5689897911664
 31
0.0
1001
ACDBBLOCKREPETAG
1070
     1
1071
       85
1005
85F
  0
LINE
  5
860
  8
0
 10
101.9520489038029
 20
119.277547712
 30
0.0
 11
102.7146660665816
 21
114.5340043816511
 31
0.0
1001
ACDBBLOCKREPETAG
1070
     1
1071
       88
1005
860
  0
LINE
  5
861
  8
0
 10
100.60139623871341
 20
119.273190774714
 30
0.0
 11
101.3626117491862
 21
114.5383658403891
 31
0.0
1001
ACDBBLOCKREPETAG
1070
     1
1071
       90
1005
861
  0
LINE
  5
862
  8
0
 10
99.250743573621719
 20
119.2688338374281
 30
0.0
 11
100.0105574317911
 21
114.54272729912699
 31
0.0
1001
ACDBBLOCKREPETAG
1070
     1
1071
       92
1005
862
  0
LINE
  5
863
  8
0
 10
97.900090908531183
 20
119.2644769001421
 30
0.0
 11
98.658503114395586
 21
114.547088757865
 31
0.0
1001
ACDBBLOCKREPETAG
1070
     1
1071
       94
1005
863
  0
LINE
  5
864
  8
0
 10
105.99774909750241
 20
119.2905983374326
 30
0.0
 11
106.7645647231021
 21
114.5209402128112
 31
0.0
1001
ACDBBLOCKREPETAG
1070
     1
1071
      105
1005
864
  0
LINE
  5
865
  8
0
 10
104.6470964324119
 20
119.28624140014659
 30
0.0
 11
105.4125104057065
 21
114.5253016715491
 31
0.0
1001
ACDBBLOCKREPETAG
1070
     1
1071
      107
1005
865
  0
LINE
  5
866
  8
0
 10
103.2964437673208
 20
119.2818844628607
 30
0.0
 11
104.0604560883111
 21
114.5296631302871
 31
0.0
1001
ACDBBLOCKREPETAG
1070
     1
1071
      109
1005
866
  0
LINE
  5
867
  8
0
 10
110.0092124822596
 20
119.30353852171829
 30
0.0
 11
110.7801910411159
 21
114.50798659972951
 31
0.0
1001
ACDBBLOCKREPETAG
1070
     1
1071
      112
1005
867
  0
LINE
  5
868
  8
0
 10
108.65855981716879
 20
119.2991815844324
 30
0.0
 11
109.4281367237202
 21
114.5123480584674
 31
0.0
1001
ACDBBLOCKREPETAG
1070
     1
1071
      114
1005
868
  0
LINE
  5
869
  8
0
 10
107.3016493505026
 20
119.2948044607212
 30
0.0
 11
108.0698181106595
 21
114.51672972457921
 31
0.0
1001
ACDBBLOCKREPETAG
1070
     1
1071
      123
1005
869
  0
LINE
  5
86A
  8
0
 10
115.4055653410495
 20
119.3209460844369
 30
0.0
 11
116.1821440150311
 21
114.4905609721516
 31
0.0
1001
ACDBBLOCKREPETAG
1070
     1
1071
      125
1005
86A
  0
LINE
  5
86B
  8
0
 10
114.0549126759576
 20
119.31658914715091
 30
0.0
 11
114.83008969763669
 21
114.4949224308895
 31
0.0
1001
ACDBBLOCKREPETAG
1070
     1
1071
      127
1005
86B
  0
LINE
  5
86C
  8
0
 10
112.7042600108678
 20
119.312232209865
 30
0.0
 11
113.4780353802407
 21
114.49928388962751
 31
0.0
1001
ACDBBLOCKREPETAG
1070
     1
1071
      129
1005
86C
  0
LINE
  5
86D
  8
0
 10
111.35360734577689
 20
119.307875272579
 30
0.0
 11
112.1259810628449
 21
114.5036453483654
 31
0.0
1001
ACDBBLOCKREPETAG
1070
     1
1071
      131
1005
86D
  0
LINE
  5
86E
  8
0
 10
126.5841791021721
 20
114.4570060725891
 30
0.0
 11
127.2605872018206
 21
114.4570060725891
 31
0.0
1001
ACDBBLOCKREPETAG
1070
     1
1071
      132
1005
86E
  0
LINE
  5
86F
  8
0
 10
127.2605872018206
 20
114.4570060725891
 30
0.0
 11
130.18038350367621
 21
112.00700607258931
 31
0.0
1001
ACDBBLOCKREPETAG
1070
     1
1071
      133
1005
86F
  0
LINE
  5
87B
  8
0
 10
115.6660110610687
 20
270.48500214490491
 30
0.0
 11
121.8666666666665
 21
264.28434653930702
 31
0.0
1001
ACAD
1010
0.0
1020
0.0
1030
0.0
  0
LINE
  5
87C
  8
0
 10
106.6857549399996
 20
270.48500214490491
 30
0.0
 11
121.8666666666665
 21
255.30409041823791
 31
0.0
1001
ACAD
1010
0.0
1020
0.0
1030
0.0
  0
LINE
  5
87D
  8
0
 10
102.26666666666669
 20
265.92383429716858
 30
0.0
 11
121.8666666666666
 21
246.3238342971687
 31
0.0
1001
ACAD
1010
0.0
1020
0.0
1030
0.0
  0
LINE
  5
87E
  8
0
 10
102.26666666666669
 20
256.94357817609938
 30
0.0
 11
121.8666666666665
 21
237.3435781760995
 31
0.0
1001
ACAD
1010
0.0
1020
0.0
1030
0.0
  0
LINE
  5
87F
  8
0
 10
102.26666666666669
 20
247.96332205503029
 30
0.0
 11
121.8666666666665
 21
228.36332205503041
 31
0.0
1001
ACAD
1010
0.0
1020
0.0
1030
0.0
  0
LINE
  5
880
  8
0
 10
102.26666666666669
 20
238.9830659339612
 30
0.0
 11
121.8666666666666
 21
219.38306593396121
 31
0.0
1001
ACAD
1010
0.0
1020
0.0
1030
0.0
  0
LINE
  5
881
  8
0
 10
102.26666666666669
 20
230.002809812892
 30
0.0
 11
121.8666666666666
 21
210.40280981289209
 31
0.0
1001
ACAD
1010
0.0
1020
0.0
1030
0.0
  0
LINE
  5
882
  8
0
 10
102.26666666666669
 20
221.02255369182279
 30
0.0
 11
121.8666666666666
 21
201.42255369182291
 31
0.0
1001
ACAD
1010
0.0
1020
0.0
1030
0.0
  0
LINE
  5
883
  8
0
 10
102.26666666666669
 20
212.0422975707537
 30
0.0
 11
121.8666666666665
 21
192.44229757075371
 31
0.0
1001
ACAD
1010
0.0
1020
0.0
1030
0.0
  0
LINE
  5
884
  8
0
 10
102.26666666666669
 20
203.0620414496845
 30
0.0
 11
121.8666666666666
 21
183.46204144968459
 31
0.0
1001
ACAD
1010
0.0
1020
0.0
1030
0.0
  0
LINE
  5
885
  8
0
 10
102.26666666666669
 20
194.0817853286153
 30
0.0
 11
121.8666666666666
 21
174.48178532861539
 31
0.0
1001
ACAD
1010
0.0
1020
0.0
1030
0.0
  0
LINE
  5
886
  8
0
 10
102.26666666666669
 20
185.10152920754621
 30
0.0
 11
121.8666666666666
 21
165.5015292075463
 31
0.0
1001
ACAD
1010
0.0
1020
0.0
1030
0.0
  0
LINE
  5
887
  8
0
 10
102.26666666666669
 20
176.121273086477
 30
0.0
 11
121.8666666666666
 21
156.52127308647709
 31
0.0
1001
ACAD
1010
0.0
1020
0.0
1030
0.0
  0
LINE
  5
888
  8
0
 10
102.26666666666669
 20
167.14101696540791
 30
0.0
 11
121.8666666666666
 21
147.54101696540801
 31
0.0
1001
ACAD
1010
0.0
1020
0.0
1030
0.0
  0
LINE
  5
889
  8
0
 10
102.26666666666669
 20
158.16076084433871
 30
0.0
 11
121.8666666666666
 21
138.5607608443388
 31
0.0
1001
ACAD
1010
0.0
1020
0.0
1030
0.0
  0
LINE
  5
88A
  8
0
 10
102.26666666666669
 20
149.18050472326959
 30
0.0
 11
121.8666666666666
 21
129.58050472326971
 31
0.0
1001
ACAD
1010
0.0
1020
0.0
1030
0.0
  0
LINE
  5
88B
  8
0
 10
102.26666666666669
 20
140.20024860220039
 30
0.0
 11
121.8666666666666
 21
120.60024860220049
 31
0.0
1001
ACAD
1010
0.0
1020
0.0
1030
0.0
  0
LINE
  5
88C
  8
0
 10
102.26666666666669
 20
131.2199924811313
 30
0.0
 11
121.8666666666666
 21
111.61999248113131
 31
0.0
1001
ACAD
1010
0.0
1020
0.0
1030
0.0
  0
LINE
  5
88D
  8
0
 10
102.26666666666669
 20
122.2397363600621
 30
0.0
 11
121.8666666666666
 21
102.6397363600622
 31
0.0
1001
ACAD
1010
0.0
1020
0.0
1030
0.0
  0
LINE
  5
88E
  8
0
 10
102.26666666666669
 20
113.25948023899289
 30
0.0
 11
121.8666666666666
 21
93.659480238993055
 31
0.0
1001
ACAD
1010
0.0
1020
0.0
1030
0.0
  0
LINE
  5
88F
  8
0
 10
102.26666666666669
 20
104.2792241179238
 30
0.0
 11
121.8666666666666
 21
84.67922411792388
 31
0.0
1001
ACAD
1010
0.0
1020
0.0
1030
0.0
  0
LINE
  5
890
  8
0
 10
102.26666666666669
 20
95.298967996854657
 30
0.0
 11
121.8666666666666
 21
75.698967996854734
 31
0.0
1001
ACAD
1010
0.0
1020
0.0
1030
0.0
  0
LINE
  5
891
  8
0
 10
102.26666666666669
 20
86.318711875785525
 30
0.0
 11
121.8666666666666
 21
66.718711875785573
 31
0.0
1001
ACAD
1010
0.0
1020
0.0
1030
0.0
  0
LINE
  5
892
  8
0
 10
102.26666666666669
 20
77.338455754716321
 30
0.0
 11
121.8666666666666
 21
57.738455754716412
 31
0.0
1001
ACAD
1010
0.0
1020
0.0
1030
0.0
  0
LINE
  5
893
  8
0
 10
102.26666666666669
 20
68.358199633647175
 30
0.0
 11
121.8666666666666
 21
48.758199633647251
 31
0.0
1001
ACAD
1010
0.0
1020
0.0
1030
0.0
  0
LINE
  5
894
  8
0
 10
102.26666666666669
 20
59.377943512578007
 30
0.0
 11
121.8666666666666
 21
39.777943512578098
 31
0.0
1001
ACAD
1010
0.0
1020
0.0
1030
0.0
  0
LINE
  5
895
  8
0
 10
102.26666666666669
 20
50.39768739150886
 30
0.0
 11
121.8666666666666
 21
30.797687391508941
 31
0.0
1001
ACAD
1010
0.0
1020
0.0
1030
0.0
  0
LINE
  5
896
  8
0
 10
102.26666666666669
 20
41.4174312704397
 30
0.0
 11
121.8666666666666
 21
21.81743127043978
 31
0.0
1001
ACAD
1010
0.0
1020
0.0
1030
0.0
  0
LINE
  5
897
  8
0
 10
102.26666666666669
 20
32.437175149370539
 30
0.0
 11
121.8666666666666
 21
12.837175149370619
 31
0.0
1001
ACAD
1010
0.0
1020
0.0
1030
0.0
  0
LINE
  5
898
  8
0
 10
102.26666666666669
 20
23.45691902830141
 30
0.0
 11
121.8666666666666
 21
3.8569190283014692
 31
0.0
1001
ACAD
1010
0.0
1020
0.0
1030
0.0
  0
LINE
  5
899
  8
0
 10
102.26666666666669
 20
14.476662907232241
 30
0.0
 11
121.8666666666666
 21
-5.1233370927676978
 31
0.0
1001
ACAD
1010
0.0
1020
0.0
1030
0.0
  0
LINE
  5
89A
  8
0
 10
102.26666666666669
 20
5.4964067861630852
 30
0.0
 11
121.8666666666666
 21
-14.103593213836829
 31
0.0
1001
ACAD
1010
0.0
1020
0.0
1030
0.0
  0
LINE
  5
89B
  8
0
 10
102.26666666666669
 20
-3.4838493349060609
 30
0.0
 11
121.8666666666666
 21
-23.083849334905981
 31
0.0
1001
ACAD
1010
0.0
1020
0.0
1030
0.0
  0
LINE
  5
89C
  8
0
 10
102.26666666666669
 20
-12.46410545597525
 30
0.0
 11
121.8666666666666
 21
-32.064105455975138
 31
0.0
1001
ACAD
1010
0.0
1020
0.0
1030
0.0
  0
LINE
  5
89D
  8
0
 10
102.26666666666669
 20
-21.4443615770444
 30
0.0
 11
121.8666666666666
 21
-41.044361577044292
 31
0.0
1001
ACAD
1010
0.0
1020
0.0
1030
0.0
  0
LINE
  5
89E
  8
0
 10
102.26666666666669
 20
-30.42461769811354
 30
0.0
 11
121.8666666666666
 21
-50.024617698113438
 31
0.0
1001
ACAD
1010
0.0
1020
0.0
1030
0.0
  0
LINE
  5
89F
  8
0
 10
102.26666666666669
 20
-39.404873819182683
 30
0.0
 11
121.8666666666666
 21
-59.004873819182599
 31
0.0
1001
ACAD
1010
0.0
1020
0.0
1030
0.0
  0
LINE
  5
8A0
  8
0
 10
102.26666666666669
 20
-48.385129940251858
 30
0.0
 11
121.8666666666666
 21
-67.985129940251753
 31
0.0
1001
ACAD
1010
0.0
1020
0.0
1030
0.0
  0
LINE
  5
8A1
  8
0
 10
102.26666666666669
 20
-57.365386061321033
 30
0.0
 11
121.8666666666666
 21
-76.965386061320913
 31
0.0
1001
ACAD
1010
0.0
1020
0.0
1030
0.0
  0
LINE
  5
8A2
  8
0
 10
102.26666666666669
 20
-66.345642182390179
 30
0.0
 11
121.8666666666666
 21
-85.945642182390046
 31
0.0
1001
ACAD
1010
0.0
1020
0.0
1030
0.0
  0
LINE
  5
8A3
  8
0
 10
102.26666666666669
 20
-75.325898303459326
 30
0.0
 11
121.8666666666666
 21
-94.925898303459206
 31
0.0
1001
ACAD
1010
0.0
1020
0.0
1030
0.0
  0
LINE
  5
8A4
  8
0
 10
102.26666666666669
 20
-84.306154424528486
 30
0.0
 11
121.8666666666666
 21
-103.9061544245283
 31
0.0
1001
ACAD
1010
0.0
1020
0.0
1030
0.0
  0
LINE
  5
8A5
  8
0
 10
102.26666666666669
 20
-93.286410545597633
 30
0.0
 11
115.79676876090799
 21
-106.816512639839
 31
0.0
1001
ACAD
1010
0.0
1020
0.0
1030
0.0
  0
LINE
  5
8A6
  8
0
 10
102.26666666666669
 20
-102.26666666666679
 30
0.0
 11
106.8165126398389
 21
-106.816512639839
 31
0.0
1001
ACAD
1010
0.0
1020
0.0
1030
0.0
  0
LINE
  5
8A7
  8
0
 10
126.56666666666671
 20
127.3326773688747
 30
0.0
 11
129.6803835036765
 21
129.13038262290249
 31
0.0
1001
ACAD
1010
0.0
1020
0.0
1030
0.0
  0
LINE
  5
8A8
  8
0
 10
126.56666666666671
 20
122.81106251067131
 30
0.0
 11
129.6803835036765
 21
124.60876776469919
 31
0.0
1001
ACAD
1010
0.0
1020
0.0
1030
0.0
  0
LINE
  5
8A9
  8
0
 10
126.56666666666671
 20
118.2894476524678
 30
0.0
 11
129.6803835036765
 21
120.0871529064957
 31
0.0
1001
ACAD
1010
0.0
1020
0.0
1030
0.0
  0
LINE
  5
8AA
  8
0
 10
126.56666666666671
 20
113.76783279426439
 30
0.0
 11
129.6803835036765
 21
115.5655380482923
 31
0.0
1001
ACAD
1010
0.0
1020
0.0
1030
0.0
  0
LINE
  5
8AB
  8
0
 10
126.56666666666671
 20
109.246217936061
 30
0.0
 11
129.6803835036765
 21
111.0439231900889
 31
0.0
1001
ACAD
1010
0.0
1020
0.0
1030
0.0
  0
LINE
  5
8AC
  8
0
 10
126.56666666666671
 20
104.72460307785759
 30
0.0
 11
129.6803835036765
 21
106.5223083318855
 31
0.0
1001
ACAD
1010
0.0
1020
0.0
1030
0.0
  0
LINE
  5
8AD
  8
0
 10
129.6803835036765
 20
104.31698702661539
 30
0.0
 11
126.56666666666661
 21
109.7101027886991
 31
0.0
1001
ACAD
1010
0.0
1020
0.0
1030
0.0
  0
LINE
  5
8AE
  8
0
 10
129.68038350367641
 20
112.1486536932821
 30
0.0
 11
126.56666666666661
 21
117.5417694553657
 31
0.0
1001
ACAD
1010
0.0
1020
0.0
1030
0.0
  0
LINE
  5
8AF
  8
0
 10
129.68038350367641
 20
119.98032035994881
 30
0.0
 11
126.56666666666661
 21
125.3734361220324
 31
0.0
1001
ACAD
1010
0.0
1020
0.0
1030
0.0
  0
LINE
  5
8B0
  8
0
 10
129.6803835036765
 20
127.8119870266154
 30
0.0
 11
127.8303185246893
 21
131.01639356752511
 31
0.0
1001
ACAD
1010
0.0
1020
0.0
1030
0.0
  0
ENDSEC
  0
EOF
