  0
SECTION
  2
HEADER
  9
$ACADVER
  1
AC1009
  9
$INSBASE
 10
0.0
 20
0.0
 30
0.0
  9
$EXTMIN
 10
-129.34480379733691
 20
-118.3156046602292
 30
-0.0015258207003583
  9
$EXTMAX
 10
172.05415473495651
 20
120.79552535524699
 30
0.0000000349246037
  9
$LIMMIN
 10
0.0
 20
0.0
  9
$LIMMAX
 10
12.0
 20
9.0
  9
$ORTHOMODE
 70
     0
  9
$REGENMODE
 70
     1
  9
$FILLMODE
 70
     1
  9
$QTEXTMODE
 70
     0
  9
$MIRRTEXT
 70
     0
  9
$DRAGMODE
 70
     2
  9
$LTSCALE
 40
1.0
  9
$OSMODE
 70
     0
  9
$ATTMODE
 70
     1
  9
$TEXTSIZE
 40
35.0
  9
$TRACEWID
 40
0.05
  9
$TEXTSTYLE
  7
ARIAL
  9
$CLAYER
  8
0
  9
$CELTYPE
  6
CONTINUOUS
  9
$CECOLOR
 62
   256
  9
$DIMSCALE
 40
2.0
  9
$DIMASZ
 40
2.0
  9
$DIMEXO
 40
2.0
  9
$DIMDLI
 40
6.0
  9
$DIMRND
 40
0.0
  9
$DIMDLE
 40
2.0
  9
$DIMEXE
 40
2.0
  9
$DIMTP
 40
0.0
  9
$DIMTM
 40
0.0
  9
$DIMTXT
 40
2.0
  9
$DIMCEN
 40
2.0
  9
$DIMTSZ
 40
0.0
  9
$DIMTOL
 70
     0
  9
$DIMLIM
 70
     0
  9
$DIMTIH
 70
     0
  9
$DIMTOH
 70
     0
  9
$DIMSE1
 70
     0
  9
$DIMSE2
 70
     0
  9
$DIMTAD
 70
     1
  9
$DIMZIN
 70
     0
  9
$DIMBLK
  1
ARCHTICK
  9
$DIMASO
 70
     1
  9
$DIMSHO
 70
     1
  9
$DIMPOST
  1

  9
$DIMAPOST
  1

  9
$DIMALT
 70
     0
  9
$DIMALTD
 70
     2
  9
$DIMALTF
 40
0.0394
  9
$DIMLFAC
 40
1.0
  9
$DIMTOFL
 70
     0
  9
$DIMTVP
 40
0.0
  9
$DIMTIX
 70
     0
  9
$DIMSOXD
 70
     0
  9
$DIMSAH
 70
     0
  9
$DIMBLK1
  1

  9
$DIMBLK2
  1

  9
$DIMSTYLE
  2
1_TO_2
  9
$DIMCLRD
 70
   256
  9
$DIMCLRE
 70
   256
  9
$DIMCLRT
 70
   256
  9
$DIMTFAC
 40
1.0
  9
$DIMGAP
 40
1.0
  9
$LUNITS
 70
     2
  9
$LUPREC
 70
     1
  9
$SKETCHINC
 40
0.1
  9
$FILLETRAD
 40
0.0
  9
$AUNITS
 70
     1
  9
$AUPREC
 70
     4
  9
$MENU
  1
.
  9
$ELEVATION
 40
0.0
  9
$PELEVATION
 40
0.0
  9
$THICKNESS
 40
0.0
  9
$LIMCHECK
 70
     0
  9
$BLIPMODE
 70
     0
  9
$CHAMFERA
 40
0.0
  9
$CHAMFERB
 40
0.0
  9
$SKPOLY
 70
     0
  9
$TDCREATE
 40
2452152.65359294
  9
$TDUPDATE
 40
2455419.5988684609
  9
$TDINDWG
 40
25.846282615700002
  9
$TDUSRTIMER
 40
25.846282615700002
  9
$USRTIMER
 70
     1
  9
$ANGBASE
 50
0.0
  9
$ANGDIR
 70
     0
  9
$PDMODE
 70
     0
  9
$PDSIZE
 40
0.0
  9
$PLINEWID
 40
0.0
  9
$COORDS
 70
     1
  9
$SPLFRAME
 70
     0
  9
$SPLINETYPE
 70
     6
  9
$SPLINESEGS
 70
     8
  9
$ATTDIA
 70
     0
  9
$ATTREQ
 70
     0
  9
$HANDLING
 70
     1
  9
$HANDSEED
  5
9A8
  9
$SURFTAB1
 70
     6
  9
$SURFTAB2
 70
     6
  9
$SURFTYPE
 70
     6
  9
$SURFU
 70
     6
  9
$SURFV
 70
     6
  9
$UCSNAME
  2

  9
$UCSORG
 10
0.0
 20
0.0
 30
0.0
  9
$UCSXDIR
 10
1.0
 20
0.0
 30
0.0
  9
$UCSYDIR
 10
0.0
 20
1.0
 30
0.0
  9
$PUCSNAME
  2

  9
$PUCSORG
 10
0.0
 20
0.0
 30
0.0
  9
$PUCSXDIR
 10
1.0
 20
0.0
 30
0.0
  9
$PUCSYDIR
 10
0.0
 20
1.0
 30
0.0
  9
$USERI1
 70
     0
  9
$USERI2
 70
     0
  9
$USERI3
 70
     0
  9
$USERI4
 70
     0
  9
$USERI5
 70
     0
  9
$USERR1
 40
0.0
  9
$USERR2
 40
0.0
  9
$USERR3
 40
0.0
  9
$USERR4
 40
0.0
  9
$USERR5
 40
0.0
  9
$WORLDVIEW
 70
     1
  9
$SHADEDGE
 70
     3
  9
$SHADEDIF
 70
    70
  9
$TILEMODE
 70
     1
  9
$MAXACTVP
 70
    48
  9
$PLIMCHECK
 70
     0
  9
$PEXTMIN
 10
0.0
 20
0.0
 30
0.0
  9
$PEXTMAX
 10
208.41041893864801
 20
295.40953368001158
 30
0.0
  9
$PLIMMIN
 10
-0.793749988079071
 20
-0.793749988079071
  9
$PLIMMAX
 10
209.2062500119209
 20
296.20625001192087
  9
$UNITMODE
 70
     0
  9
$VISRETAIN
 70
     1
  9
$PLINEGEN
 70
     1
  9
$PSLTSCALE
 70
     1
  0
ENDSEC
  0
SECTION
  2
TABLES
  0
TABLE
  2
VPORT
 70
     1
  0
VPORT
  2
*ACTIVE
 70
     0
 10
0.0
 20
0.0
 11
1.0
 21
1.0
 12
21.35467546880983
 22
1.239960347508912
 13
0.0
 23
0.0
 14
1.0
 24
1.0
 15
50.0
 25
50.0
 16
0.0
 26
0.0
 36
1.0
 17
0.0
 27
0.0
 37
0.0
 40
241.120467242497
 41
1.978962131837307
 42
50.0
 43
0.0
 44
0.0
 50
0.0
 51
0.0
 71
     0
 72
 20000
 73
     1
 74
     3
 75
     0
 76
     0
 77
     0
 78
     0
  0
ENDTAB
  0
TABLE
  2
LTYPE
 70
     2
  0
LTYPE
  2
CONTINUOUS
 70
     0
  3
Solid line
 72
    65
 73
     0
 40
0.0
  0
ENDTAB
  0
TABLE
  2
LAYER
 70
    16
  0
LAYER
  2
0
 70
     0
 62
     7
  6
CONTINUOUS
  0
LAYER
  2
DEFPOINTS
 70
     0
 62
   211
  6
CONTINUOUS
  0
ENDTAB
  0
TABLE
  2
STYLE
 70
     4
  0
STYLE
  2
STANDARD
 70
     0
 40
0.0
 41
1.0
 50
0.0
 71
     0
 42
1.5
  3
romans.shx
  4

  0
STYLE
  2
ARIAL
 70
     0
 40
0.0
 41
1.0
 50
0.0
 71
     0
 42
35.0
  3
txt
  4

  0
STYLE
  2
EURO_COMMON_WIND-ALUM-SILL
 70
     0
 40
0.0
 41
1.0
 50
0.0
 71
     0
 42
35.0
  3
txt
  4

  0
ENDTAB
  0
TABLE
  2
VIEW
 70
     2
  0
VIEW
  2
09
 70
     0
 40
2970.0
 10
19050.0
 20
1485.0
 41
2100.0
 11
0.0
 21
0.0
 31
1.0
 12
0.0
 22
0.0
 32
0.0
 42
50.0
 43
0.0
 44
0.0
 50
0.0
 71
     0
  0
VIEW
  2
COMM-04
 70
     1
 40
477.26027331217421
 10
194.21746115522001
 20
180.60494410563541
 41
755.81685306636155
 11
0.0
 21
0.0
 31
1.0
 12
0.0
 22
0.0
 32
0.0
 42
50.0
 43
0.0
 44
0.0
 50
0.0
 71
     0
  0
ENDTAB
  0
TABLE
  2
UCS
 70
     0
  0
ENDTAB
  0
TABLE
  2
APPID
 70
    14
  0
APPID
  2
ACAD
 70
     0
  0
APPID
  2
GENIUS_GENOREF_13
 70
     0
  0
APPID
  2
ACAD_PSEXT
 70
     0
  0
APPID
  2
ACDBDYNAMICBLOCKGUID
 70
     0
  0
APPID
  2
ACDBBLOCKREPETAG
 70
     0
  0
APPID
  2
ACAD_MLEADERVER
 70
     0
  0
APPID
  2
ACADANNOTATIVE
 70
     0
  0
APPID
  2
ACAD_EXEMPT_FROM_CAD_STANDARDS
 70
     0
  0
APPID
  2
GENIUS_GENODEF_13
 70
     0
  0
APPID
  2
GENIUS_GENREC_14
 70
     0
  0
APPID
  2
GENIUS_GENOBJ-N-REC_13
 70
     0
  0
APPID
  2
RAK
 70
     0
  0
APPID
  2
ACAUTHENVIRON
 70
     0
  0
APPID
  2
CONTENTBLOCKICON
 70
     0
  0
ENDTAB
  0
TABLE
  2
DIMSTYLE
 70
     2
  0
DIMSTYLE
  2
1_TO_2
 70
     0
  3

  4

  5
ARCHTICK
  6

  7

 40
2.0
 41
2.0
 42
2.0
 43
6.0
 44
2.0
 45
0.0
 46
2.0
 47
0.0
 48
0.0
140
2.0
141
2.0
142
0.0
143
0.0394
144
1.0
145
0.0
146
1.0
147
1.0
 71
     0
 72
     0
 73
     0
 74
     0
 75
     0
 76
     0
 77
     1
 78
     0
170
     0
171
     2
172
     0
173
     0
174
     0
175
     0
176
   256
177
   256
178
   256
  0
DIMSTYLE
  2
EURO_COMMON_WIND-ALUM-SILL
 70
     0
  3

  4

  5
EURO_COMMON_WIND-ALUM-SILL
  6

  7

 40
2.0
 41
2.0
 42
2.0
 43
6.0
 44
2.0
 45
0.0
 46
2.0
 47
0.0
 48
0.0
140
2.0
141
2.0
142
0.0
143
0.0394
144
1.0
145
0.0
146
1.0
147
1.0
 71
     0
 72
     0
 73
     0
 74
     0
 75
     0
 76
     0
 77
     1
 78
     0
170
     0
171
     2
172
     0
173
     0
174
     0
175
     0
176
   256
177
   256
178
   256
  0
ENDTAB
  0
ENDSEC
  0
SECTION
  2
BLOCKS
  0
BLOCK
  8
0
  2
$MODEL_SPACE
 70
     0
 10
0.0
 20
0.0
 30
0.0
  3
$MODEL_SPACE
  1

  0
ENDBLK
  5
17
  8
0
  0
BLOCK
 67
     1
  8
0
  2
$PAPER_SPACE
 70
     0
 10
0.0
 20
0.0
 30
0.0
  3
$PAPER_SPACE
  1

  0
ENDBLK
  5
20
 67
     1
  8
0
  0
BLOCK
  8
0
  2
_ARCHTICK
 70
     0
 10
0.0
 20
0.0
 30
0.0
  3
_ARCHTICK
  1

  0
POLYLINE
  5
8E
  8
0
  6
BYBLOCK
 62
     0
 66
     1
 10
0.0
 20
0.0
 30
0.0
 40
0.15
 41
0.15
  0
VERTEX
  5
832
  8
0
  6
BYBLOCK
 62
     0
 10
-0.5
 20
-0.5
 30
0.0
  0
VERTEX
  5
833
  8
0
  6
BYBLOCK
 62
     0
 10
0.5
 20
0.5
 30
0.0
  0
SEQEND
  5
834
  8
0
  6
BYBLOCK
 62
     0
  0
ENDBLK
  5
8F
  8
0
  0
BLOCK
  8
0
  2
EURO_COMMON_WIND-ALUM-SILL
 70
     0
 10
0.0
 20
0.0
 30
0.0
  3
EURO_COMMON_WIND-ALUM-SILL
  1

  0
POLYLINE
  5
6E9
  8
0
  6
BYBLOCK
 62
     0
 66
     1
 10
0.0
 20
0.0
 30
0.0
 40
0.15
 41
0.15
  0
VERTEX
  5
856
  8
0
  6
BYBLOCK
 62
     0
 10
-0.5
 20
-0.5
 30
0.0
  0
VERTEX
  5
857
  8
0
  6
BYBLOCK
 62
     0
 10
0.5
 20
0.5
 30
0.0
  0
SEQEND
  5
858
  8
0
  6
BYBLOCK
 62
     0
  0
ENDBLK
  5
6EA
  8
0
  0
BLOCK
  8
0
  2
*D9
 70
     1
 10
0.0
 20
0.0
 30
0.0
  3
*D9
  1

  0
LINE
  5
7B6
  8
0
 10
121.3468044205737
 20
49.99999999999995
 30
0.0
 11
135.34680442057359
 21
49.99999999999995
 31
0.0
  0
LINE
  5
7B7
  8
0
 10
121.3468044205737
 20
-25.000000000000089
 30
0.0
 11
135.34680442057359
 21
-25.000000000000089
 31
0.0
  0
LINE
  5
7B8
  8
0
 10
131.34680442057359
 20
53.99999999999995
 30
0.0
 11
131.34680442057359
 21
-29.000000000000089
 31
0.0
  0
INSERT
  5
7B9
  8
0
  2
EURO_COMMON_WIND-ALUM-SILL
 10
131.34680442057359
 20
49.999999999999957
 30
0.0
 41
4.0
 42
4.0
 43
4.0
 50
90.0
  0
INSERT
  5
7BA
  8
0
  2
EURO_COMMON_WIND-ALUM-SILL
 10
131.34680442057359
 20
-25.000000000000089
 30
0.0
 41
4.0
 42
4.0
 43
4.0
 50
270.0
  0
INSERT
  5
7BB
  8
0
  6
CONTINUOUS
  2
*U30
 10
0.0
 20
0.0
 30
0.0
  0
POINT
  5
7BC
  8
DEFPOINTS
 62
     0
 10
75.0
 20
49.999999999999972
 30
0.0
  0
POINT
  5
7BD
  8
DEFPOINTS
 62
     0
 10
-74.846213215099425
 20
-25.000000000000028
 30
0.0
  0
POINT
  5
7BE
  8
DEFPOINTS
 62
     0
 10
131.34680442057359
 20
-25.000000000000089
 30
0.0
  0
ENDBLK
  5
78E
  8
0
  0
BLOCK
  8
0
  2
*U10
 70
     1
 10
0.0
 20
0.0
 30
0.0
  3
*U10
  1

  0
TEXT
  5
86F
  8
0
  6
CONTINUOUS
 10
134.4733331631293
 20
75.803912350731707
 30
0.0
 40
4.0
  1
Timber framing
  7
EURO_COMMON_WIND-ALUM-SILL
  0
ENDBLK
  5
871
  8
0
  0
BLOCK
  8
0
  2
*U11
 70
     1
 10
0.0
 20
0.0
 30
0.0
  3
*U11
  1

  0
TEXT
  5
873
  8
0
  6
CONTINUOUS
 10
134.16889495225101
 20
-74.0584413134832
 30
0.0
 40
4.0
  1
Plywood
  7
EURO_COMMON_WIND-ALUM-SILL
  0
ENDBLK
  5
875
  8
0
  0
BLOCK
  8
0
  2
*U12
 70
     1
 10
0.0
 20
0.0
 30
0.0
  3
*U12
  1

  0
TEXT
  5
877
  8
0
  6
CONTINUOUS
 10
-119.7394270122783
 20
-78.463302997580186
 30
0.0
 40
4.0
  1
Kraft underlay
  7
EURO_COMMON_WIND-ALUM-SILL
  0
ENDBLK
  5
879
  8
0
  0
BLOCK
  8
0
  2
*U13
 70
     1
 10
0.0
 20
0.0
 30
0.0
  3
*U13
  1

  0
TEXT
  5
87B
  8
0
  6
CONTINUOUS
 10
-105.2701227830832
 20
-98.143273628148904
 30
0.0
 40
4.0
  1
Euroline
  7
EURO_COMMON_WIND-ALUM-SILL
  0
ENDBLK
  5
87D
  8
0
  0
BLOCK
  8
0
  2
*U14
 70
     1
 10
0.0
 20
0.0
 30
0.0
  3
*U14
  1

  0
TEXT
  5
87F
  8
0
  6
CONTINUOUS
 10
134.14160982264659
 20
-94.487747820515125
 30
0.0
 40
4.0
  1
Flashing tape
  7
EURO_COMMON_WIND-ALUM-SILL
  0
ENDBLK
  5
881
  8
0
  0
BLOCK
  8
0
  2
*U15
 70
     1
 10
0.0
 20
0.0
 30
0.0
  3
*U15
  1

  0
TEXT
  5
89B
  8
0
  6
CONTINUOUS
 10
-129.33560709413359
 20
39.327047551101032
 30
0.0
 40
4.0
  1
Cavibat horizontal
  7
EURO_COMMON_WIND-ALUM-SILL
  0
TEXT
  5
89C
  8
0
  6
CONTINUOUS
 10
-120.3451568894952
 20
32.626274472428911
 30
0.0
 40
4.0
  1
drained batten
  7
EURO_COMMON_WIND-ALUM-SILL
  0
ENDBLK
  5
89E
  8
0
  0
BLOCK
  8
0
  2
*U16
 70
     1
 10
0.0
 20
0.0
 30
0.0
  3
*U16
  1

  0
TEXT
  5
8A0
  8
0
  6
CONTINUOUS
 10
-125.62755798090041
 20
-52.705142295773861
 30
0.0
 40
4.0
  1
Trimseal lap tape
  7
EURO_COMMON_WIND-ALUM-SILL
  0
ENDBLK
  5
8A2
  8
0
  0
BLOCK
  8
0
  2
*U17
 70
     1
 10
0.0
 20
0.0
 30
0.0
  3
*U17
  1

  0
TEXT
  5
8B4
  8
0
  6
CONTINUOUS
 10
-110.8908594815825
 20
-40.833657718413008
 30
0.0
 40
4.0
  1
Sill flashing
  7
EURO_COMMON_WIND-ALUM-SILL
  0
ENDBLK
  5
8B6
  8
0
  0
BLOCK
  8
0
  2
*U18
 70
     1
 10
0.0
 20
0.0
 30
0.0
  3
*U18
  1

  0
TEXT
  5
8B8
  8
0
  6
CONTINUOUS
 10
-123.5566166439291
 20
4.8182700919164141
 30
0.0
 40
4.0
  1
"Z" grab flashing
  7
EURO_COMMON_WIND-ALUM-SILL
  0
ENDBLK
  5
8BA
  8
0
  0
BLOCK
  8
0
  2
*U19
 70
     1
 10
0.0
 20
0.0
 30
0.0
  3
*U19
  1

  0
TEXT
  5
8C4
  8
0
  6
CONTINUOUS
 10
134.19072305593451
 20
-106.8232798030069
 30
0.0
 40
4.0
  1
Building wrap
  7
EURO_COMMON_WIND-ALUM-SILL
  0
ENDBLK
  5
8C6
  8
0
  0
BLOCK
  8
0
  2
*U20
 70
     1
 10
0.0
 20
0.0
 30
0.0
  3
*U20
  1

  0
SOLID
  5
8C8
  8
0
 10
78.563432149694023
 20
37.435560838354426
 30
0.0
 11
75.0
 21
35.499999999999972
 31
0.0
 12
77.743064734568577
 22
38.4866436523982
 32
0.0
 13
77.743064734568577
 23
38.4866436523982
 33
0.0
  0
POLYLINE
  5
8C9
  8
0
 66
     1
 10
0.0
 20
0.0
 30
0.0
  0
VERTEX
  5
8CA
  8
0
 10
78.153248442131314
 20
37.961102245376317
 30
0.0
  0
VERTEX
  5
8CB
  8
0
 10
128.60430178523029
 20
77.338018762737164
 30
0.0
  0
VERTEX
  5
8CC
  8
0
 10
132.60430178523029
 20
77.338018762737164
 30
0.0
  0
SEQEND
  5
8CD
  8
0
  0
ENDBLK
  5
8CF
  8
0
  0
BLOCK
  8
0
  2
*U21
 70
     1
 10
0.0
 20
0.0
 30
0.0
  3
*U21
  1

  0
SOLID
  5
8D1
  8
0
 10
-20.434513686524699
 20
-14.98643445163918
 30
0.0
 11
-23.916914773552438
 21
-12.90861657860207
 31
0.0
 12
-19.94886470537902
 22
-13.744692592438991
 32
0.0
 13
-19.94886470537902
 23
-13.744692592438991
 33
0.0
  0
POLYLINE
  5
8D2
  8
0
 66
     1
 10
0.0
 20
0.0
 30
0.0
  0
VERTEX
  5
8D3
  8
0
 10
-20.191689195951859
 20
-14.365563522039089
 30
0.0
  0
VERTEX
  5
8D4
  8
0
 10
128.59999999999999
 20
-72.5584413134832
 30
0.0
  0
VERTEX
  5
8D5
  8
0
 10
132.59999999999999
 20
-72.5584413134832
 30
0.0
  0
SEQEND
  5
8D6
  8
0
  0
ENDBLK
  5
8D8
  8
0
  0
BLOCK
  8
0
  2
*U22
 70
     1
 10
0.0
 20
0.0
 30
0.0
  3
*U22
  1

  0
SOLID
  5
8DA
  8
0
 10
-43.618789887622611
 20
-51.123178562550208
 30
0.0
 11
-39.975000000000037
 21
-49.343504519556973
 31
0.0
 12
-42.84463669056413
 22
-52.208749658914648
 32
0.0
 13
-42.84463669056413
 23
-52.208749658914648
 33
0.0
  0
POLYLINE
  5
8DB
  8
0
 66
     1
 10
0.0
 20
0.0
 30
0.0
  0
VERTEX
  5
8DC
  8
0
 10
-43.231713289093371
 20
-51.665964110732432
 30
0.0
  0
VERTEX
  5
8DD
  8
0
 10
-79.000000000000014
 20
-77.173398495533803
 30
0.0
  0
VERTEX
  5
8DE
  8
0
 10
-83.000000000000014
 20
-77.173398495533803
 30
0.0
  0
SEQEND
  5
8DF
  8
0
  0
ENDBLK
  5
8E1
  8
0
  0
BLOCK
  8
0
  2
*U23
 70
     1
 10
0.0
 20
0.0
 30
0.0
  3
*U23
  1

  0
SOLID
  5
8E3
  8
0
 10
-67.920735320210539
 20
-86.046853462967348
 30
0.0
 11
-64.375000000000028
 21
-84.079061430394773
 31
0.0
 12
-67.090871130175628
 22
-87.090454538031679
 32
0.0
 13
-67.090871130175628
 23
-87.090454538031679
 33
0.0
  0
POLYLINE
  5
8E4
  8
0
 66
     1
 10
0.0
 20
0.0
 30
0.0
  0
VERTEX
  5
8E5
  8
0
 10
-67.505803225193077
 20
-86.568654000499521
 30
0.0
  0
VERTEX
  5
8E6
  8
0
 10
-79.000000000000014
 20
-95.708757939199387
 30
0.0
  0
VERTEX
  5
8E7
  8
0
 10
-83.000000000000014
 20
-95.708757939199387
 30
0.0
  0
SEQEND
  5
8E8
  8
0
  0
ENDBLK
  5
8EA
  8
0
  0
BLOCK
  8
0
  2
*U24
 70
     1
 10
0.0
 20
0.0
 30
0.0
  3
*U24
  1

  0
SOLID
  5
8EC
  8
0
 10
-0.5357288879465596
 20
-40.140476306421277
 30
0.0
 11
-3.975000000000025
 21
-37.992021358734704
 31
0.0
 12
-0.0248392352943414
 22
-38.908904326961427
 32
0.0
 13
-0.0248392352943414
 23
-38.908904326961427
 33
0.0
  0
POLYLINE
  5
8ED
  8
0
 66
     1
 10
0.0
 20
0.0
 30
0.0
  0
VERTEX
  5
8EE
  8
0
 10
-0.2802840616204505
 20
-39.524690316691348
 30
0.0
  0
VERTEX
  5
8EF
  8
0
 10
128.59999999999999
 20
-92.987747820515125
 30
0.0
  0
VERTEX
  5
8F0
  8
0
 10
132.59999999999999
 20
-92.987747820515125
 30
0.0
  0
SEQEND
  5
8F1
  8
0
  0
ENDBLK
  5
8F3
  8
0
  0
BLOCK
  8
0
  2
*U25
 70
     1
 10
0.0
 20
0.0
 30
0.0
  3
*U25
  1

  0
SOLID
  5
8F5
  8
0
 10
-25.95000000000001
 20
38.627638728909119
 30
0.0
 11
-21.949999999999999
 21
37.960972062242462
 31
0.0
 12
-25.95000000000001
 22
37.294305395575797
 32
0.0
 13
-25.95000000000001
 23
37.294305395575797
 33
0.0
  0
POLYLINE
  5
8F6
  8
0
 66
     1
 10
0.0
 20
0.0
 30
0.0
  0
VERTEX
  5
8F7
  8
0
 10
-25.95000000000001
 20
37.960972062242462
 30
0.0
  0
VERTEX
  5
8F8
  8
0
 10
-83.0
 20
37.960972062242462
 30
0.0
  0
SEQEND
  5
8F9
  8
0
  0
ENDBLK
  5
8FB
  8
0
  0
BLOCK
  8
0
  2
*U26
 70
     1
 10
0.0
 20
0.0
 30
0.0
  3
*U26
  1

  0
SOLID
  5
8FD
  8
0
 10
-47.46101676059385
 20
-10.56456090379543
 30
0.0
 11
-44.534354520694578
 21
-7.7575887667780101
 31
0.0
 12
-46.392449459944999
 22
-11.36202043365372
 32
0.0
 13
-46.392449459944999
 23
-11.36202043365372
 33
0.0
  0
POLYLINE
  5
8FE
  8
0
 66
     1
 10
0.0
 20
0.0
 30
0.0
  0
VERTEX
  5
8FF
  8
0
 10
-46.926733110269417
 20
-10.96329066872458
 30
0.0
  0
VERTEX
  5
900
  8
0
 10
-77.000000000000014
 20
-51.2603946832227
 30
0.0
  0
VERTEX
  5
901
  8
0
 10
-81.000000000000014
 20
-51.2603946832227
 30
0.0
  0
SEQEND
  5
902
  8
0
  0
ENDBLK
  5
904
  8
0
  0
BLOCK
  8
0
  2
*U27
 70
     1
 10
0.0
 20
0.0
 30
0.0
  3
*U27
  1

  0
SOLID
  5
906
  8
0
 10
-76.809451925642946
 20
-27.93911355903268
 30
0.0
 11
-75.846213215099425
 21
-24.000000000000028
 31
0.0
 12
-75.47983462484622
 22
-28.038590245747731
 32
0.0
 13
-75.47983462484622
 23
-28.038590245747731
 33
0.0
  0
POLYLINE
  5
907
  8
0
 66
     1
 10
0.0
 20
0.0
 30
0.0
  0
VERTEX
  5
908
  8
0
 10
-76.144643275244576
 20
-27.988851902390209
 30
0.0
  0
VERTEX
  5
909
  8
0
 10
-77.000000000000014
 20
-39.421652261387102
 30
0.0
  0
VERTEX
  5
90A
  8
0
 10
-81.000000000000014
 20
-39.421652261387102
 30
0.0
  0
SEQEND
  5
90B
  8
0
  0
ENDBLK
  5
90D
  8
0
  0
BLOCK
  8
0
  2
*U28
 70
     1
 10
0.0
 20
0.0
 30
0.0
  3
*U28
  1

  0
SOLID
  5
90F
  8
0
 10
-64.196951562295453
 20
-6.5291105070778626
 30
0.0
 11
-61.95746112824429
 21
-9.9098097010668447
 31
0.0
 12
-65.172341007153975
 22
-7.4381722259046743
 32
0.0
 13
-65.172341007153975
 23
-7.4381722259046743
 33
0.0
  0
POLYLINE
  5
910
  8
0
 66
     1
 10
0.0
 20
0.0
 30
0.0
  0
VERTEX
  5
911
  8
0
 10
-64.684646284724721
 20
-6.9836413664912689
 30
0.0
  0
VERTEX
  5
912
  8
0
 10
-77.000000000000014
 20
6.230275548942334
 30
0.0
  0
VERTEX
  5
913
  8
0
 10
-81.000000000000014
 20
6.230275548942334
 30
0.0
  0
SEQEND
  5
914
  8
0
  0
ENDBLK
  5
916
  8
0
  0
BLOCK
  8
0
  2
*U29
 70
     1
 10
0.0
 20
0.0
 30
0.0
  3
*U29
  1

  0
SOLID
  5
918
  8
0
 10
1.5009973466250801
 20
-55.88016803764954
 30
0.0
 11
-1.975000000000029
 21
-53.791654956364283
 31
0.0
 12
1.9904611920892119
 22
-54.639924947863811
 32
0.0
 13
1.9904611920892119
 23
-54.639924947863811
 33
0.0
  0
POLYLINE
  5
919
  8
0
 66
     1
 10
0.0
 20
0.0
 30
0.0
  0
VERTEX
  5
91A
  8
0
 10
1.745729269357146
 20
-55.260046492756679
 30
0.0
  0
VERTEX
  5
91B
  8
0
 10
128.59999999999999
 20
-105.3232798030069
 30
0.0
  0
VERTEX
  5
91C
  8
0
 10
132.59999999999999
 20
-105.3232798030069
 30
0.0
  0
SEQEND
  5
91D
  8
0
  0
ENDBLK
  5
91F
  8
0
  0
BLOCK
  8
0
  2
*U30
 70
     1
 10
0.0
 20
0.0
 30
0.0
  3
*U30
  1

  0
TEXT
  5
9A5
  8
0
  6
CONTINUOUS
 10
129.27859159656271
 20
-1.2066848567531101
 30
0.0
 40
4.0
  1
75mm min.
 50
90.0
  7
EURO_COMMON_WIND-ALUM-SILL
  0
ENDBLK
  5
9A7
  8
0
  0
ENDSEC
  0
SECTION
  2
ENTITIES
  0
POLYLINE
  5
75A
  8
0
 66
     1
 10
0.0
 20
0.0
 30
0.0
  0
VERTEX
  5
859
  8
0
 10
-26.0
 20
-115.5608311502174
 30
0.0
  0
VERTEX
  5
85A
  8
0
 10
-26.0
 20
49.999999999999972
 30
0.0
  0
VERTEX
  5
85B
  8
0
 10
-38.0
 20
49.999999999999972
 30
0.0
  0
VERTEX
  5
85C
  8
0
 10
-38.0
 20
-115.5608311502174
 30
0.0
  0
SEQEND
  5
85D
  8
0
  0
LINE
  5
75B
  8
0
 10
-39.97500000000003
 20
-115.5608311502174
 30
0.0
 11
-39.975000000000037
 21
49.999999999999972
 31
0.0
  0
LINE
  5
75C
  8
0
 10
-42.0
 20
49.999999999999972
 30
0.0
 11
-74.938381539904839
 21
49.999999999999972
 31
0.0
  0
LINE
  5
75D
  8
0
 10
-74.938381539904839
 20
49.999999999999972
 30
0.0
 11
-74.938381539904839
 21
-115.5608311502174
 31
0.0
  0
LINE
  5
75E
  8
0
 10
-42.0
 20
-115.5608311502174
 30
0.0
 11
-42.0
 21
49.999999999999972
 31
0.0
  0
POLYLINE
  5
75F
  8
0
 66
     1
 10
0.0
 20
0.0
 30
0.0
 70
   128
 40
0.25
 41
0.25
  0
VERTEX
  5
85E
  8
0
 10
-51.068709041389148
 20
12.333556149394299
 30
0.0
  0
VERTEX
  5
85F
  8
0
 10
-51.068709041389148
 20
-8.4098097010668447
 30
0.0
 42
-0.4142135623730953
  0
VERTEX
  5
860
  8
0
 10
-52.568709041389148
 20
-9.9098097010668447
 30
0.0
  0
VERTEX
  5
861
  8
0
 10
-75.346213215099425
 20
-9.9098097010668447
 30
0.0
 42
0.4142135623730951
  0
VERTEX
  5
862
  8
0
 10
-76.846213215099425
 20
-11.409809701066839
 30
0.0
  0
VERTEX
  5
863
  8
0
 10
-76.846213215099425
 20
-24.000000000000028
 30
0.0
  0
SEQEND
  5
864
  8
0
  0
POLYLINE
  5
760
  8
0
 66
     1
 10
0.0
 20
0.0
 30
0.0
 70
   128
 40
0.25
 41
0.25
  0
VERTEX
  5
865
  8
0
 10
-75.846213215099397
 20
-15.64134816496974
 30
0.0
  0
VERTEX
  5
866
  8
0
 10
-75.846213215099425
 20
-24.000000000000028
 30
0.0
 42
-0.9999999999999998
  0
VERTEX
  5
867
  8
0
 10
-77.846213215099425
 20
-24.000000000000028
 30
0.0
  0
VERTEX
  5
868
  8
0
 10
-77.846213215099425
 20
50.45830318067712
 30
0.0
 42
-0.3832221302826042
  0
VERTEX
  5
869
  8
0
 10
-76.059721783154501
 20
52.446874047246148
 30
0.0
  0
VERTEX
  5
86A
  8
0
 10
-17.713599090852991
 20
58.711371489618919
 30
0.0
 42
0.9999999999999994
  0
VERTEX
  5
86B
  8
0
 10
-17.914056120506832
 20
60.578383257810707
 30
0.0
  0
VERTEX
  5
86C
  8
0
 10
-25.08116076780157
 20
59.808866678808918
 30
0.0
  0
SEQEND
  5
86D
  8
0
  0
DIMENSION
  5
761
  8
0
  2
*D9
 10
131.34680442057359
 20
-25.000000000000089
 30
0.0
 11
127.3126980085682
 21
12.499999999999959
 31
0.0
 70
     0
  1
75mm min.
 13
75.0
 23
49.999999999999972
 33
0.0
 14
-74.846213215099425
 24
-25.000000000000028
 34
0.0
 50
90.0
  0
INSERT
  5
762
  8
0
  6
CONTINUOUS
  2
*U10
 10
0.0
 20
0.0
 30
0.0
  0
INSERT
  5
763
  8
0
  6
CONTINUOUS
  2
*U11
 10
0.0
 20
0.0
 30
0.0
  0
INSERT
  5
764
  8
0
  6
CONTINUOUS
  2
*U12
 10
0.0
 20
0.0
 30
0.0
  0
INSERT
  5
765
  8
0
  6
CONTINUOUS
  2
*U13
 10
0.0
 20
0.0
 30
0.0
  0
INSERT
  5
766
  8
0
  6
CONTINUOUS
  2
*U14
 10
0.0
 20
0.0
 30
0.0
  0
LINE
  5
76A
  8
0
 10
-85.658902052978604
 20
58.994005091954428
 30
0.0
 11
-85.658902052978604
 21
118.040750731855
 31
0.0
  0
LINE
  5
76B
  8
0
 10
-78.305348662383579
 20
78.536898310768095
 30
0.0
 11
-78.305348662383579
 21
118.040750731855
 31
0.0
  0
LINE
  5
76C
  8
0
 10
-49.805348662384269
 20
97.536898310765366
 30
0.0
 11
-49.805348662384269
 21
118.040750731855
 31
0.0
  0
LINE
  5
76D
  8
0
 10
-44.305348662384041
 20
98.786898310764926
 30
0.0
 11
-44.305348662384041
 21
118.040750731855
 31
0.0
  0
LINE
  5
76E
  8
0
 10
-30.80534866238381
 20
82.286898310764457
 30
0.0
 11
-30.80534866238381
 21
118.040750731855
 31
0.0
  0
LINE
  5
76F
  8
0
 10
-25.055348662384031
 20
84.536898310765139
 30
0.0
 11
-25.055348662384031
 21
118.040750731855
 31
0.0
  0
POLYLINE
  5
770
  8
0
 66
     1
 10
0.0
 20
0.0
 30
0.0
  0
VERTEX
  5
882
  8
0
 10
112.0
 20
-115.5608311502174
 30
0.0
  0
VERTEX
  5
883
  8
0
 10
112.0
 20
69.061536037832383
 30
0.0
  0
VERTEX
  5
884
  8
0
 10
102.0
 20
69.061536037832383
 30
0.0
  0
VERTEX
  5
885
  8
0
 10
102.0
 20
-115.5608311502174
 30
0.0
  0
SEQEND
  5
886
  8
0
  0
POLYLINE
  5
771
  8
0
 66
     1
 10
0.0
 20
0.0
 30
0.0
 70
   128
  0
VERTEX
  5
887
  8
0
 10
-92.833628810702507
 20
118.040750731855
 30
0.0
  0
VERTEX
  5
888
  8
0
 10
18.366705849982889
 20
118.040750731855
 30
0.0
  0
VERTEX
  5
889
  8
0
 10
19.366705849982679
 20
120.7882281513097
 30
0.0
  0
VERTEX
  5
88A
  8
0
 10
21.366705849982669
 20
115.2932733124005
 30
0.0
  0
VERTEX
  5
88B
  8
0
 10
22.366705849982889
 20
118.040750731855
 30
0.0
  0
VERTEX
  5
88C
  8
0
 10
122.85355339059321
 20
118.040750731855
 30
0.0
  0
SEQEND
  5
88D
  8
0
  0
LINE
  5
772
  8
0
 10
118.9999999999999
 20
83.036898310765508
 30
0.0
 11
118.9999999999999
 21
118.040750731855
 31
0.0
  0
POLYLINE
  5
774
  8
0
 66
     1
 10
0.0
 20
0.0
 30
0.0
  0
VERTEX
  5
88E
  8
0
 10
100.0
 20
-115.5608311502174
 30
0.0
  0
VERTEX
  5
88F
  8
0
 10
100.0
 20
-0.0000000000000249
 30
0.0
  0
VERTEX
  5
890
  8
0
 10
0.0000000000000071
 20
-0.0000000000000249
 30
0.0
  0
VERTEX
  5
891
  8
0
 10
0.0000000000000071
 20
-115.5608311502174
 30
0.0
  0
SEQEND
  5
892
  8
0
  0
POLYLINE
  5
775
  8
0
 66
     1
 10
0.0
 20
0.0
 30
0.0
 70
   128
  0
VERTEX
  5
893
  8
0
 10
122.93426524045481
 20
-115.5608311502174
 30
0.0
  0
VERTEX
  5
894
  8
0
 10
23.30099161025095
 20
-115.5608311502174
 30
0.0
  0
VERTEX
  5
895
  8
0
 10
22.300991610250779
 20
-112.8133537307626
 30
0.0
  0
VERTEX
  5
896
  8
0
 10
20.300991610250779
 20
-118.30830856967189
 30
0.0
  0
VERTEX
  5
897
  8
0
 10
19.30099161025095
 20
-115.5608311502174
 30
0.0
  0
VERTEX
  5
898
  8
0
 10
-93.649871214764516
 20
-115.5608311502174
 30
0.0
  0
SEQEND
  5
899
  8
0
  0
INSERT
  5
777
  8
0
  6
CONTINUOUS
  2
*U15
 10
0.0
 20
0.0
 30
0.0
  0
INSERT
  5
778
  8
0
  6
CONTINUOUS
  2
*U16
 10
0.0
 20
0.0
 30
0.0
  0
LINE
  5
779
  8
0
 10
-72.938381539904839
 20
49.999999999999972
 30
0.0
 11
-72.938381539904867
 21
-115.5608311502174
 31
0.0
  0
POLYLINE
  5
77A
  8
0
 66
     1
 10
0.0
 20
0.0
 30
0.0
 70
   129
1001
GENIUS_GENREC_14
1002
{
1000
PYDIR
1011
-52.568709041389148
1021
0.0
1031
0.0
1021
-2.0075887667780088
1031
0.0
1002
}
1002
{
1000
PXDIR
1011
-51.068709041389148
1021
0.0
1031
0.0
1021
4.992411233221989
1031
0.0
1002
}
1002
{
1000
PORI
1011
-51.068709041389148
1021
0.0
1031
0.0
1021
-2.0075887667780088
1031
0.0
1002
}
1002
{
1000
PINS
1011
-51.068709041389148
1021
0.0
1031
0.0
1021
-2.0075887667780088
1031
0.0
1002
}
1002
{
1000
PINS2
1011
-52.568709041389148
1021
0.0
1031
0.0
1021
4.992411233221989
1031
0.0
1002
}
1002
{
1000
C
1070
     1
1002
}
1001
GENIUS_GENOBJ-N-REC_13
1002
{
1000
OWNER
1000
GEN
1002
}
1001
GENIUS_GENODEF_13
1002
{
1000
HIER
1070
     0
1002
}
1002
{
1000
MANEDIT
1070
     0
1002
}
1002
{
1000
NOSEL
1070
     0
1002
}
1002
{
1000
BEHIND
1070
     0
1002
}
1002
{
1000
OTHER
1070
     0
1002
}
1002
{
1000
REACTOR
1002
}
  0
VERTEX
  5
8A3
  8
0
 10
-51.068709041389148
 20
-2.0075887667780088
 30
0.0
  0
VERTEX
  5
8A4
  8
0
 10
-51.068709041389148
 20
4.992411233221989
 30
0.0
  0
VERTEX
  5
8A5
  8
0
 10
-52.568709041389148
 20
4.992411233221989
 30
0.0
  0
VERTEX
  5
8A6
  8
0
 10
-52.568709041389148
 20
-2.0075887667780088
 30
0.0
  0
SEQEND
  5
8A7
  8
0
  0
POLYLINE
  5
77B
  8
0
 66
     1
 10
0.0
 20
0.0
 30
0.0
 70
   129
1001
GENIUS_GENREC_14
1002
{
1000
PYDIR
1011
-70.852510320472049
1021
0.0
1031
0.0
1021
0.7424112332219904
1031
0.0
1002
}
1002
{
1000
PXDIR
1011
-33.564510632582881
1021
0.0
1031
0.0
1021
2.2424112332219899
1031
0.0
1002
}
1002
{
1000
PORI
1011
-33.564510632582881
1021
0.0
1031
0.0
1021
0.7424112332219904
1031
0.0
1002
}
1002
{
1000
PINS
1011
-33.564510632582881
1021
0.0
1031
0.0
1021
0.7424112332219904
1031
0.0
1002
}
1002
{
1000
PINS2
1011
-70.852510320472049
1021
0.0
1031
0.0
1021
2.2424112332219899
1031
0.0
1002
}
1002
{
1000
C
1070
     1
1002
}
1001
GENIUS_GENOBJ-N-REC_13
1002
{
1000
OWNER
1000
GEN
1002
}
1001
GENIUS_GENODEF_13
1002
{
1000
HIER
1070
     0
1002
}
1002
{
1000
MANEDIT
1070
     0
1002
}
1002
{
1000
NOSEL
1070
     0
1002
}
1002
{
1000
BEHIND
1070
     0
1002
}
1002
{
1000
OTHER
1070
     0
1002
}
1002
{
1000
REACTOR
1002
}
  0
VERTEX
  5
8A8
  8
0
 10
-20.852510320472049
 20
1.4924112332219901
 30
0.0
  0
VERTEX
  5
8A9
  8
0
 10
-23.519176987139019
 20
2.4924112332219899
 30
0.0
  0
VERTEX
  5
8AA
  8
0
 10
-51.068709041389148
 20
2.4924112332219899
 30
0.0
  0
VERTEX
  5
8AB
  8
0
 10
-51.068709041389148
 20
0.4924112332219904
 30
0.0
  0
VERTEX
  5
8AC
  8
0
 10
-23.519176987139019
 20
0.4924112332219904
 30
0.0
  0
SEQEND
  5
8AD
  8
0
  0
POLYLINE
  5
77C
  8
0
 66
     1
 10
0.0
 20
0.0
 30
0.0
 70
   129
 40
0.6166666666666667
 41
0.6166666666666667
  0
VERTEX
  5
8AE
  8
0
 10
-44.0
 20
10.74241123322199
 30
0.0
  0
VERTEX
  5
8AF
  8
0
 10
-49.068709041389162
 20
10.74241123322199
 30
0.0
  0
VERTEX
  5
8B0
  8
0
 10
-49.068709041389162
 20
-7.7575887667780101
 30
0.0
  0
VERTEX
  5
8B1
  8
0
 10
-44.0
 20
-7.7575887667780101
 30
0.0
  0
SEQEND
  5
8B2
  8
0
  0
INSERT
  5
77D
  8
0
  6
CONTINUOUS
  2
*U17
 10
0.0
 20
0.0
 30
0.0
  0
INSERT
  5
77E
  8
0
  6
CONTINUOUS
  2
*U18
 10
0.0
 20
0.0
 30
0.0
  0
POLYLINE
  5
77F
  8
0
 66
     1
 10
0.0
 20
0.0
 30
0.0
  0
VERTEX
  5
8BB
  8
0
 10
-1.9750000000000261
 20
-115.5608311502174
 30
0.0
  0
VERTEX
  5
8BC
  8
0
 10
-1.9750000000000441
 20
48.0
 30
0.0
  0
SEQEND
  5
8BD
  8
0
  0
POLYLINE
  5
780
  8
0
 66
     1
 10
0.0
 20
0.0
 30
0.0
  0
VERTEX
  5
8BE
  8
0
 10
-3.9750000000000312
 20
-101.9866660740214
 30
0.0
  0
VERTEX
  5
8BF
  8
0
 10
-3.9750000000000441
 20
46.999999999999972
 30
0.0
 42
-0.4142135623730951
  0
VERTEX
  5
8C0
  8
0
 10
-0.9750000000000445
 20
49.999999999999972
 30
0.0
  0
VERTEX
  5
8C1
  8
0
 10
100.0
 20
49.999999999999972
 30
0.0
  0
SEQEND
  5
8C2
  8
0
  0
INSERT
  5
781
  8
0
  6
CONTINUOUS
  2
*U19
 10
0.0
 20
0.0
 30
0.0
  0
INSERT
  5
782
  8
0
  6
CONTINUOUS
  2
*U20
 10
0.0
 20
0.0
 30
0.0
1001
ACAD
1000
DSTYLE
1002
{
1070
   147
1040
1.0
1070
    77
1070
     0
1002
}
  0
INSERT
  5
783
  8
0
  6
CONTINUOUS
  2
*U21
 10
0.0
 20
0.0
 30
0.0
1001
ACAD
1000
DSTYLE
1002
{
1070
   147
1040
1.0
1070
    77
1070
     0
1002
}
  0
INSERT
  5
784
  8
0
  6
CONTINUOUS
  2
*U22
 10
0.0
 20
0.0
 30
0.0
1001
ACAD
1000
DSTYLE
1002
{
1070
   147
1040
1.0
1070
    77
1070
     0
1002
}
  0
INSERT
  5
785
  8
0
  6
CONTINUOUS
  2
*U23
 10
0.0
 20
0.0
 30
0.0
1001
ACAD
1000
DSTYLE
1002
{
1070
   147
1040
1.0
1070
    77
1070
     0
1002
}
  0
INSERT
  5
786
  8
0
  6
CONTINUOUS
  2
*U24
 10
0.0
 20
0.0
 30
0.0
1001
ACAD
1000
DSTYLE
1002
{
1070
   147
1040
1.0
1070
    77
1070
     0
1002
}
  0
INSERT
  5
787
  8
0
  6
CONTINUOUS
  2
*U25
 10
0.0
 20
0.0
 30
0.0
1001
ACAD
1000
DSTYLE
1002
{
1070
   147
1040
1.0
1070
    77
1070
     0
1002
}
  0
INSERT
  5
788
  8
0
  6
CONTINUOUS
  2
*U26
 10
0.0
 20
0.0
 30
0.0
1001
ACAD
1000
DSTYLE
1002
{
1070
   147
1040
1.0
1070
    77
1070
     0
1002
}
  0
INSERT
  5
789
  8
0
  6
CONTINUOUS
  2
*U27
 10
0.0
 20
0.0
 30
0.0
1001
ACAD
1000
DSTYLE
1002
{
1070
   147
1040
1.0
1070
    77
1070
     0
1002
}
  0
INSERT
  5
78A
  8
0
  6
CONTINUOUS
  2
*U28
 10
0.0
 20
0.0
 30
0.0
1001
ACAD
1000
DSTYLE
1002
{
1070
   147
1040
1.0
1070
    77
1070
     0
1002
}
  0
INSERT
  5
78B
  8
0
  6
CONTINUOUS
  2
*U29
 10
0.0
 20
0.0
 30
0.0
1001
ACAD
1000
DSTYLE
1002
{
1070
   147
1040
1.0
1070
    77
1070
     0
1002
}
  0
POLYLINE
  5
7A1
  8
0
 66
     1
 10
0.0
 20
0.0
 30
0.0
 70
     1
  0
VERTEX
  5
920
  8
0
 10
-23.949999999999999
 20
4.9999999999999751
 30
0.0
  0
VERTEX
  5
921
  8
0
 10
-5.950000000000002
 20
4.9999999999999751
 30
0.0
  0
VERTEX
  5
922
  8
0
 10
-5.950000000000002
 20
49.999999999999972
 30
0.0
  0
VERTEX
  5
923
  8
0
 10
-23.949999999999999
 20
49.999999999999972
 30
0.0
  0
SEQEND
  5
924
  8
0
  0
LINE
  5
7A2
  8
0
 10
-15.449999999999999
 20
49.999999999999972
 30
0.0
 11
-15.449999999999999
 21
4.9999999999999751
 31
0.0
  0
LINE
  5
7A3
  8
0
 10
-14.449999999999999
 20
4.9999999999999751
 30
0.0
 11
-14.449999999999999
 21
49.999999999999972
 31
0.0
  0
LINE
  5
7A4
  8
0
 10
-22.949999999999999
 20
49.999999999999972
 30
0.0
 11
-22.949999999999999
 21
4.9999999999999751
 31
0.0
  0
LINE
  5
7A5
  8
0
 10
-6.950000000000002
 20
49.999999999999972
 30
0.0
 11
-6.950000000000002
 21
4.9999999999999751
 31
0.0
  0
POLYLINE
  5
7A6
  8
0
 66
     1
 10
0.0
 20
0.0
 30
0.0
 70
     1
 40
1.0
 41
1.0
1001
ACDBBLOCKREPETAG
1070
     1
1071
        3
1005
7A6
  0
VERTEX
  5
925
  8
0
 10
99.500000000000014
 20
47.499999999999972
 30
0.0
  0
VERTEX
  5
926
  8
0
 10
0.5
 20
47.499999999999993
 30
0.0
  0
VERTEX
  5
927
  8
0
 10
0.5
 20
-1.500000000000014
 30
0.0
  0
VERTEX
  5
928
  8
0
 10
99.500000000000014
 20
-1.500000000000028
 30
0.0
  0
SEQEND
  5
929
  8
0
  0
LINE
  5
7A7
  8
0
 10
100.0
 20
47.999999999999972
 30
0.0
 11
0.0
 21
-2.0000000000000142
 31
0.0
1001
ACDBBLOCKREPETAG
1070
     1
1071
        1
1005
7A7
  0
LINE
  5
7A8
  8
0
 10
100.0
 20
-2.000000000000028
 30
0.0
 11
0.0
 21
47.999999999999979
 31
0.0
1001
ACDBBLOCKREPETAG
1070
     1
1071
        2
1005
7A8
  0
POLYLINE
  5
7A9
  8
0
 66
     1
 10
0.0
 20
0.0
 30
0.0
 70
     1
1001
ACDBBLOCKREPETAG
1070
     1
1071
        0
1005
7A9
  0
VERTEX
  5
92A
  8
0
 10
100.0
 20
47.999999999999972
 30
0.0
  0
VERTEX
  5
92B
  8
0
 10
0.0
 20
47.999999999999979
 30
0.0
  0
VERTEX
  5
92C
  8
0
 10
0.0
 20
-2.0000000000000142
 30
0.0
  0
VERTEX
  5
92D
  8
0
 10
100.0
 20
-2.000000000000028
 30
0.0
  0
SEQEND
  5
92E
  8
0
  0
POLYLINE
  5
7AA
  8
0
 66
     1
 10
0.0
 20
0.0
 30
0.0
 70
     1
1001
ACDBBLOCKREPETAG
1070
     1
1071
        0
1005
7AA
  0
VERTEX
  5
92F
  8
0
 10
-81.305348662384475
 20
23.640451701360529
 30
0.0
  0
VERTEX
  5
930
  8
0
 10
-81.305348662384944
 20
18.390451701360519
 30
0.0
 42
-0.4142135623730951
  0
VERTEX
  5
931
  8
0
 10
-81.805348662384944
 20
17.890451701360519
 30
0.0
  0
VERTEX
  5
932
  8
0
 10
-85.305348662384944
 20
17.89045170136097
 30
0.0
 42
-0.4142135623730784
  0
VERTEX
  5
933
  8
0
 10
-85.805348662384944
 20
18.39045170136097
 30
0.0
  0
VERTEX
  5
934
  8
0
 10
-85.805348662385398
 20
57.890451701360753
 30
0.0
 42
-0.1989123673796969
  0
VERTEX
  5
935
  8
0
 10
-85.658902052978746
 20
58.244005091954087
 30
0.0
  0
VERTEX
  5
936
  8
0
 10
-78.45179527179252
 20
65.451111873139382
 30
0.0
 42
0.1989123673796435
  0
VERTEX
  5
937
  8
0
 10
-78.305348662385853
 20
65.804665263732716
 30
0.0
  0
VERTEX
  5
938
  8
0
 10
-78.305348662383579
 20
77.786898310767853
 30
0.0
  0
VERTEX
  5
939
  8
0
 10
-76.805348662383579
 20
77.786898310767853
 30
0.0
  0
VERTEX
  5
93A
  8
0
 10
-76.805348662385398
 20
69.036898310767413
 30
0.0
 42
0.4142135623731409
  0
VERTEX
  5
93B
  8
0
 10
-76.305348662385398
 20
68.536898310767413
 30
0.0
  0
VERTEX
  5
93C
  8
0
 10
-70.827891148323573
 20
68.536898310767413
 30
0.0
 42
0.2840790438403827
  0
VERTEX
  5
93D
  8
0
 10
-70.380677552823812
 20
68.813291513017305
 30
0.0
  0
VERTEX
  5
93E
  8
0
 10
-65.657070755072795
 20
78.260505108515247
 30
0.0
 42
-0.2840790438403819
  0
VERTEX
  5
93F
  8
0
 10
-65.209857159573033
 20
78.536898310765139
 30
0.0
  0
VERTEX
  5
940
  8
0
 10
-46.305348662382663
 20
78.536898310764684
 30
0.0
 42
0.414213562373126
  0
VERTEX
  5
941
  8
0
 10
-45.805348662382663
 20
79.036898310764684
 30
0.0
  0
VERTEX
  5
942
  8
0
 10
-45.805348662384482
 20
89.036898310765594
 30
0.0
 42
0.4142135623730571
  0
VERTEX
  5
943
  8
0
 10
-46.305348662384482
 20
89.536898310765594
 30
0.0
  0
VERTEX
  5
944
  8
0
 10
-49.305348662383572
 20
89.536898310765594
 30
0.0
 42
-0.4142135623730062
  0
VERTEX
  5
945
  8
0
 10
-49.805348662383572
 20
90.036898310765594
 30
0.0
  0
VERTEX
  5
946
  8
0
 10
-49.80534866238493
 20
92.536898310766034
 30
0.0
  0
VERTEX
  5
947
  8
0
 10
-48.305348662384482
 20
92.536898310767413
 30
0.0
  0
VERTEX
  5
948
  8
0
 10
-48.305348662383572
 20
91.536898310764229
 30
0.0
 42
0.4142135623728287
  0
VERTEX
  5
949
  8
0
 10
-47.805348662383572
 20
91.036898310764684
 30
0.0
  0
VERTEX
  5
94A
  8
0
 10
-46.30534866238402
 20
91.036898310764684
 30
0.0
 42
0.4142135623730951
  0
VERTEX
  5
94B
  8
0
 10
-45.80534866238402
 20
91.536898310764684
 30
0.0
  0
VERTEX
  5
94C
  8
0
 10
-45.80534866238402
 20
96.536898310764684
 30
0.0
 42
0.4142135623730951
  0
VERTEX
  5
94D
  8
0
 10
-46.30534866238402
 20
97.036898310764684
 30
0.0
  0
VERTEX
  5
94E
  8
0
 10
-47.805348662384027
 20
97.036898310764684
 30
0.0
 42
0.4142135623730951
  0
VERTEX
  5
94F
  8
0
 10
-48.30534866238402
 20
96.536898310764684
 30
0.0
  0
VERTEX
  5
950
  8
0
 10
-48.30534866238402
 20
95.536898310765139
 30
0.0
  0
VERTEX
  5
951
  8
0
 10
-49.805348662384027
 20
95.536898310763775
 30
0.0
  0
VERTEX
  5
952
  8
0
 10
-49.805348662384468
 20
98.036898310766503
 30
0.0
 42
-0.4142135623731676
  0
VERTEX
  5
953
  8
0
 10
-49.305348662384468
 20
98.536898310766503
 30
0.0
  0
VERTEX
  5
954
  8
0
 10
-44.805348662384027
 20
98.536898310764684
 30
0.0
 42
-0.4142135623729752
  0
VERTEX
  5
955
  8
0
 10
-44.30534866238402
 20
98.036898310764684
 30
0.0
  0
VERTEX
  5
956
  8
0
 10
-44.305348662383111
 20
79.036898310764684
 30
0.0
 42
0.4142135623730715
  0
VERTEX
  5
957
  8
0
 10
-43.805348662383118
 20
78.536898310764684
 30
0.0
  0
VERTEX
  5
958
  8
0
 10
-31.305348662384031
 20
78.536898310764215
 30
0.0
 42
0.4142135623731053
  0
VERTEX
  5
959
  8
0
 10
-30.805348662384031
 20
79.036898310764229
 30
0.0
  0
VERTEX
  5
95A
  8
0
 10
-30.805348662383579
 20
84.036898310764229
 30
0.0
 42
-0.414213562373072
  0
VERTEX
  5
95B
  8
0
 10
-30.305348662383569
 20
84.536898310764215
 30
0.0
  0
VERTEX
  5
95C
  8
0
 10
-25.055348662384031
 20
84.536898310765139
 30
0.0
  0
VERTEX
  5
95D
  8
0
 10
-25.055348662384031
 20
83.036898310764684
 30
0.0
  0
VERTEX
  5
95E
  8
0
 10
-29.305348662384031
 20
83.036898310764684
 30
0.0
  0
VERTEX
  5
95F
  8
0
 10
-29.305348662384031
 20
64.036898310764201
 30
0.0
  0
VERTEX
  5
960
  8
0
 10
-20.055348662384031
 20
64.036898310764684
 30
0.0
  0
VERTEX
  5
961
  8
0
 10
-20.055348662384031
 20
62.536898310764677
 30
0.0
  0
VERTEX
  5
962
  8
0
 10
-30.305348662384031
 20
62.536898310764677
 30
0.0
 42
-0.4142135623731081
  0
VERTEX
  5
963
  8
0
 10
-30.805348662384031
 20
63.036898310764677
 30
0.0
  0
VERTEX
  5
964
  8
0
 10
-30.805348662384478
 20
76.536898310764229
 30
0.0
 42
0.4142135623730852
  0
VERTEX
  5
965
  8
0
 10
-31.305348662384478
 20
77.036898310764229
 30
0.0
  0
VERTEX
  5
966
  8
0
 10
-43.805348662382663
 20
77.036898310764684
 30
0.0
 42
0.4142135623731053
  0
VERTEX
  5
967
  8
0
 10
-44.305348662382663
 20
76.536898310764684
 30
0.0
  0
VERTEX
  5
968
  8
0
 10
-44.305348662383572
 20
72.536898310764229
 30
0.0
 42
-0.4142135623730655
  0
VERTEX
  5
969
  8
0
 10
-44.805348662383572
 20
72.036898310764229
 30
0.0
  0
VERTEX
  5
96A
  8
0
 10
-49.939169307267619
 20
72.036898310764229
 30
0.0
  0
VERTEX
  5
96B
  8
0
 10
-49.939169307267619
 20
73.536898310764215
 30
0.0
  0
VERTEX
  5
96C
  8
0
 10
-46.305348662383118
 20
73.536898310764684
 30
0.0
 42
0.4142135623729824
  0
VERTEX
  5
96D
  8
0
 10
-45.805348662383118
 20
74.036898310764684
 30
0.0
  0
VERTEX
  5
96E
  8
0
 10
-45.805348662381753
 20
76.536898310765594
 30
0.0
 42
0.4142135623731982
  0
VERTEX
  5
96F
  8
0
 10
-46.305348662381753
 20
77.036898310765594
 30
0.0
  0
VERTEX
  5
970
  8
0
 10
-64.282806176448574
 20
77.036898310764229
 30
0.0
 42
0.2840790438404103
  0
VERTEX
  5
971
  8
0
 10
-64.730019771948349
 20
76.760505108514337
 30
0.0
  0
VERTEX
  5
972
  8
0
 10
-68.480019771946075
 20
69.260505108517521
 30
0.0
 42
0.5575365158350297
  0
VERTEX
  5
973
  8
0
 10
-68.032806176446314
 20
68.536898310767413
 30
0.0
  0
VERTEX
  5
974
  8
0
 10
-65.432949506549534
 20
68.536898310768322
 30
0.0
  0
VERTEX
  5
975
  8
0
 10
-65.432949506547715
 20
67.036898310767853
 30
0.0
  0
VERTEX
  5
976
  8
0
 10
-76.305348662385398
 20
67.036898310768322
 30
0.0
 42
0.4142135623731073
  0
VERTEX
  5
977
  8
0
 10
-76.805348662385398
 20
66.536898310768322
 30
0.0
  0
VERTEX
  5
978
  8
0
 10
-76.805348662385853
 20
65.18334492017226
 30
0.0
 42
-0.1989123673796139
  0
VERTEX
  5
979
  8
0
 10
-76.95179527179252
 20
64.829791529578927
 30
0.0
  0
VERTEX
  5
97A
  8
0
 10
-84.158902052980551
 20
57.622684748393169
 30
0.0
 42
0.1989123673797151
  0
VERTEX
  5
97B
  8
0
 10
-84.305348662387203
 20
57.269131357799843
 30
0.0
  0
VERTEX
  5
97C
  8
0
 10
-84.305348662385398
 20
19.890451701360071
 30
0.0
 42
0.4142135623731039
  0
VERTEX
  5
97D
  8
0
 10
-83.805348662385384
 20
19.390451701360071
 30
0.0
  0
VERTEX
  5
97E
  8
0
 10
-83.305348662384944
 20
19.390451701360519
 30
0.0
 42
0.4142135623730508
  0
VERTEX
  5
97F
  8
0
 10
-82.805348662384944
 20
19.890451701360519
 30
0.0
  0
VERTEX
  5
980
  8
0
 10
-82.805348662385384
 20
23.640451701360071
 30
0.0
  0
SEQEND
  5
981
  8
0
  0
ARC
  5
7AB
  8
0
  6
CONTINUOUS
 10
68.06225192205676
 20
23.89226912264758
 30
0.0
 40
74.256200364664537
 50
47.215752703854058
 51
52.163154674271823
  0
ARC
  5
7AC
  8
0
  6
CONTINUOUS
 10
68.06225192205676
 20
23.89226912264758
 30
0.0
 40
96.329112076786913
 50
142.49761490754059
 51
155.04318400190411
  0
POLYLINE
  5
7AD
  8
0
 66
     1
 10
0.0
 20
0.0
 30
0.0
 70
     1
  0
VERTEX
  5
982
  8
0
 10
102.0
 20
71.036898310765537
 30
0.0
  0
VERTEX
  5
983
  8
0
 10
112.0
 20
71.036898310765537
 30
0.0
  0
VERTEX
  5
984
  8
0
 10
112.0
 20
64.03689831076565
 30
0.0
  0
VERTEX
  5
985
  8
0
 10
119.0
 20
64.03689831076565
 30
0.0
  0
VERTEX
  5
986
  8
0
 10
119.0
 20
83.036898310765537
 30
0.0
  0
VERTEX
  5
987
  8
0
 10
-29.305348662384031
 20
83.036898310765537
 30
0.0
  0
VERTEX
  5
988
  8
0
 10
-29.305348662384031
 20
64.036898310765537
 30
0.0
  0
VERTEX
  5
989
  8
0
 10
102.0
 20
64.03689831076565
 30
0.0
  0
SEQEND
  5
98A
  8
0
  0
POLYLINE
  5
7AE
  8
0
 66
     1
 10
0.0
 20
0.0
 30
0.0
 70
     1
 40
1.0
 41
1.0
  0
VERTEX
  5
98B
  8
0
 10
101.5
 20
71.536898310765537
 30
0.0
  0
VERTEX
  5
98C
  8
0
 10
112.5
 20
71.536898310765537
 30
0.0
  0
VERTEX
  5
98D
  8
0
 10
112.5
 20
64.53689831076565
 30
0.0
  0
VERTEX
  5
98E
  8
0
 10
118.5
 20
64.53689831076565
 30
0.0
  0
VERTEX
  5
98F
  8
0
 10
118.5
 20
82.536898310765537
 30
0.0
  0
VERTEX
  5
990
  8
0
 10
-28.805348662384031
 20
82.536898310765537
 30
0.0
  0
VERTEX
  5
991
  8
0
 10
-28.80534866238402
 20
64.536898310765537
 30
0.0
  0
VERTEX
  5
992
  8
0
 10
101.5
 20
64.53689831076565
 30
0.0
  0
SEQEND
  5
993
  8
0
  0
ARC
  5
7AF
  8
0
  6
CONTINUOUS
 10
68.06225192205676
 20
23.89226912264758
 30
0.0
 40
48.83449460847612
 50
56.335054923528332
 51
123.6649450764713
  0
ARC
  5
7B0
  8
0
  6
CONTINUOUS
 10
68.06225192205676
 20
23.89226912264758
 30
0.0
 40
57.513480217416173
 50
54.451650034274593
 51
135.03315876253899
  0
ARC
  5
7B1
  8
0
  6
CONTINUOUS
 10
68.06225192205676
 20
23.89226912264758
 30
0.0
 40
74.256200364664537
 50
127.83684532572821
 51
146.81413977496359
  0
POLYLINE
  5
7B2
  8
0
 66
     1
 10
0.0
 20
0.0
 30
0.0
 70
     1
1001
ACDBBLOCKREPETAG
1070
     1
1071
        3
1005
7B2
  0
VERTEX
  5
994
  8
0
 10
91.482233047032409
 20
61.749999999999972
 30
0.0
  0
VERTEX
  5
995
  8
0
 10
0.249999999999958
 20
52.28825242185232
 30
0.0
  0
VERTEX
  5
996
  8
0
 10
0.2499999999999574
 20
61.749999999999972
 30
0.0
  0
SEQEND
  5
997
  8
0
  0
POLYLINE
  5
7B3
  8
0
 66
     1
 10
0.0
 20
0.0
 30
0.0
 70
     1
1001
ACDBBLOCKREPETAG
1070
     1
1071
        0
1005
7B3
  0
VERTEX
  5
998
  8
0
 10
94.99999999999801
 20
61.999999999999972
 30
0.0
  0
VERTEX
  5
999
  8
0
 10
-0.000000000000042
 20
51.999999999999972
 30
0.0
  0
VERTEX
  5
99A
  8
0
 10
-0.0000000000000426
 20
61.999999999999972
 30
0.0
  0
SEQEND
  5
99B
  8
0
  0
POLYLINE
  5
7B4
  8
0
 66
     1
 10
0.0
 20
0.0
 30
0.0
 70
     1
1001
ACDBBLOCKREPETAG
1070
     1
1071
        1
1005
7B4
  0
VERTEX
  5
99C
  8
0
 10
99.999999999999943
 20
62.000000000000419
 30
0.0
  0
VERTEX
  5
99D
  8
0
 10
100.0
 20
51.999999999999972
 30
0.0
  0
VERTEX
  5
99E
  8
0
 10
5.0000000000006404
 20
51.999999999999972
 30
0.0
  0
SEQEND
  5
99F
  8
0
  0
POLYLINE
  5
7B5
  8
0
 66
     1
 10
0.0
 20
0.0
 30
0.0
 70
     1
1001
ACDBBLOCKREPETAG
1070
     1
1071
        2
1005
7B5
  0
VERTEX
  5
9A0
  8
0
 10
99.749999999999943
 20
61.711747578148071
 30
0.0
  0
VERTEX
  5
9A1
  8
0
 10
99.750000000000014
 20
52.249999999999972
 30
0.0
  0
VERTEX
  5
9A2
  8
0
 10
8.5177669529661681
 20
52.249999999999972
 30
0.0
  0
SEQEND
  5
9A3
  8
0
  0
LINE
  5
7BF
  8
0
 10
-38.0
 20
42.770911021520959
 30
0.0
 11
-30.770911021520991
 21
49.999999999999972
 31
0.0
1001
ACAD
1010
0.0
1020
0.0
1030
0.0
  0
LINE
  5
7C0
  8
0
 10
-38.0
 20
34.351920908018627
 30
0.0
 11
-26.000000000000028
 21
46.351920908018599
 31
0.0
1001
ACAD
1010
0.0
1020
0.0
1030
0.0
  0
LINE
  5
7C1
  8
0
 10
-38.0
 20
25.932930794516299
 30
0.0
 11
-26.000000000000028
 21
37.932930794516267
 31
0.0
1001
ACAD
1010
0.0
1020
0.0
1030
0.0
  0
LINE
  5
7C2
  8
0
 10
-38.0
 20
17.51394068101396
 30
0.0
 11
-26.000000000000028
 21
29.513940681013931
 31
0.0
1001
ACAD
1010
0.0
1020
0.0
1030
0.0
  0
LINE
  5
7C3
  8
0
 10
-38.0
 20
9.0949505675116384
 30
0.0
 11
-26.000000000000011
 21
21.094950567511621
 31
0.0
1001
ACAD
1010
0.0
1020
0.0
1030
0.0
  0
LINE
  5
7C4
  8
0
 10
-38.0
 20
0.6759604540093065
 30
0.0
 11
-26.000000000000011
 21
12.67596045400928
 31
0.0
1001
ACAD
1010
0.0
1020
0.0
1030
0.0
  0
LINE
  5
7C5
  8
0
 10
-38.0
 20
-7.7430296594930246
 30
0.0
 11
-26.000000000000011
 21
4.2569703405069603
 31
0.0
1001
ACAD
1010
0.0
1020
0.0
1030
0.0
  0
LINE
  5
7C6
  8
0
 10
-38.0
 20
-16.16201977299535
 30
0.0
 11
-26.000000000000011
 21
-4.1620197729953707
 31
0.0
1001
ACAD
1010
0.0
1020
0.0
1030
0.0
  0
LINE
  5
7C7
  8
0
 10
-37.999999999999993
 20
-24.581009886497672
 30
0.0
 11
-26.0
 21
-12.58100988649768
 31
0.0
1001
ACAD
1010
0.0
1020
0.0
1030
0.0
  0
LINE
  5
7C8
  8
0
 10
-37.999999999999993
 20
-33.0
 30
0.0
 11
-26.0
 21
-21.000000000000021
 31
0.0
1001
ACAD
1010
0.0
1020
0.0
1030
0.0
  0
LINE
  5
7C9
  8
0
 10
-37.999999999999993
 20
-41.418990113502332
 30
0.0
 11
-26.0
 21
-29.418990113502339
 31
0.0
1001
ACAD
1010
0.0
1020
0.0
1030
0.0
  0
LINE
  5
7CA
  8
0
 10
-37.999999999999993
 20
-49.837980227004678
 30
0.0
 11
-26.0
 21
-37.837980227004678
 31
0.0
1001
ACAD
1010
0.0
1020
0.0
1030
0.0
  0
LINE
  5
7CB
  8
0
 10
-37.999999999999993
 20
-58.25697034050701
 30
0.0
 11
-26.0
 21
-46.25697034050701
 31
0.0
1001
ACAD
1010
0.0
1020
0.0
1030
0.0
  0
LINE
  5
7CC
  8
0
 10
-37.999999999999972
 20
-66.675960454009314
 30
0.0
 11
-26.0
 21
-54.675960454009342
 31
0.0
1001
ACAD
1010
0.0
1020
0.0
1030
0.0
  0
LINE
  5
7CD
  8
0
 10
-37.999999999999972
 20
-75.094950567511646
 30
0.0
 11
-26.0
 21
-63.094950567511667
 31
0.0
1001
ACAD
1010
0.0
1020
0.0
1030
0.0
  0
LINE
  5
7CE
  8
0
 10
-37.999999999999979
 20
-83.513940681013963
 30
0.0
 11
-26.000000000000011
 21
-71.513940681014006
 31
0.0
1001
ACAD
1010
0.0
1020
0.0
1030
0.0
  0
LINE
  5
7CF
  8
0
 10
-37.999999999999979
 20
-91.932930794516309
 30
0.0
 11
-26.000000000000011
 21
-79.932930794516338
 31
0.0
1001
ACAD
1010
0.0
1020
0.0
1030
0.0
  0
LINE
  5
7D0
  8
0
 10
-37.99999999999995
 20
-100.3519209080186
 30
0.0
 11
-26.000000000000011
 21
-88.351920908018656
 31
0.0
1001
ACAD
1010
0.0
1020
0.0
1030
0.0
  0
LINE
  5
7D1
  8
0
 10
-37.99999999999995
 20
-108.7709110215209
 30
0.0
 11
-26.000000000000011
 21
-96.770911021521002
 31
0.0
1001
ACAD
1010
0.0
1020
0.0
1030
0.0
  0
LINE
  5
7D2
  8
0
 10
-36.37093001519407
 20
-115.5608311502174
 30
0.0
 11
-26.000000000000011
 21
-105.18990113502331
 31
0.0
1001
ACAD
1010
0.0
1020
0.0
1030
0.0
  0
LINE
  5
7D3
  8
0
 10
-27.95193990169173
 20
-115.5608311502174
 30
0.0
 11
-26.0
 21
-113.60889124852559
 31
0.0
1001
ACAD
1010
0.0
1020
0.0
1030
0.0
  0
LINE
  5
7D4
  8
0
 10
-47.15980021930794
 20
-7.7575887667779986
 30
0.0
 11
-49.068709041389162
 21
-5.8486799446967828
 31
0.0
1001
ACAD
1010
0.0
1020
0.0
1030
0.0
  0
LINE
  5
7D5
  8
0
 10
-43.999999999999979
 20
-5.3795643780933204
 30
0.0
 11
-49.068709041389162
 21
-0.3108553367041509
 31
0.0
1001
ACAD
1010
0.0
1020
0.0
1030
0.0
  0
LINE
  5
7D6
  8
0
 10
-44.0
 20
0.1582602298993549
 30
0.0
 11
-49.068709041389162
 21
5.2269692712885103
 31
0.0
1001
ACAD
1010
0.0
1020
0.0
1030
0.0
  0
LINE
  5
7D7
  8
0
 10
-44.0
 20
5.6960848378919868
 30
0.0
 11
-49.046326395329977
 21
10.742411233221979
 31
0.0
1001
ACAD
1010
0.0
1020
0.0
1030
0.0
  0
LINE
  5
7D8
  8
0
 10
-44.0
 20
-7.622369765017396
 30
0.0
 11
-44.135219001760611
 21
-7.7575887667780101
 31
0.0
1001
ACAD
1010
0.0
1020
0.0
1030
0.0
  0
LINE
  5
7D9
  8
0
 10
-44.0
 20
-2.0845451570247588
 30
0.0
 11
-49.068709041389141
 21
-7.1532541984139
 31
0.0
1001
ACAD
1010
0.0
1020
0.0
1030
0.0
  0
LINE
  5
7DA
  8
0
 10
-44.000000000000007
 20
3.4532794509678828
 30
0.0
 11
-49.068709041389148
 21
-1.6154295904212499
 31
0.0
1001
ACAD
1010
0.0
1020
0.0
1030
0.0
  0
LINE
  5
7DB
  8
0
 10
-44.0
 20
8.99110405896052
 30
0.0
 11
-49.068709041389141
 21
3.9223950175713851
 31
0.0
1001
ACAD
1010
0.0
1020
0.0
1030
0.0
  0
LINE
  5
7DC
  8
0
 10
-47.786517433731191
 20
10.742411233221979
 30
0.0
 11
-49.068709041389141
 21
9.4602196255640312
 31
0.0
1001
ACAD
1010
0.0
1020
0.0
1030
0.0
  0
ENDSEC
  0
EOF
