  0
SECTION
  2
HEADER
  9
$ACADVER
  1
AC1009
  9
$INSBASE
 10
0.0
 20
0.0
 30
0.0
  9
$EXTMIN
 10
-140.73452333218151
 20
-118.3171401119412
 30
-0.0015258207003583
  9
$EXTMAX
 10
172.05450233752421
 20
171.1145816099525
 30
0.0000000349246037
  9
$LIMMIN
 10
0.0
 20
0.0
  9
$LIMMAX
 10
12.0
 20
9.0
  9
$ORTHOMODE
 70
     0
  9
$REGENMODE
 70
     1
  9
$FILLMODE
 70
     1
  9
$QTEXTMODE
 70
     0
  9
$MIRRTEXT
 70
     0
  9
$DRAGMODE
 70
     2
  9
$LTSCALE
 40
1.0
  9
$OSMODE
 70
     0
  9
$ATTMODE
 70
     1
  9
$TEXTSIZE
 40
35.0
  9
$TRACEWID
 40
0.05
  9
$TEXTSTYLE
  7
ARIAL
  9
$CLAYER
  8
0
  9
$CELTYPE
  6
BYLAYER
  9
$CECOLOR
 62
   256
  9
$DIMSCALE
 40
2.0
  9
$DIMASZ
 40
2.0
  9
$DIMEXO
 40
2.0
  9
$DIMDLI
 40
6.0
  9
$DIMRND
 40
0.0
  9
$DIMDLE
 40
2.0
  9
$DIMEXE
 40
2.0
  9
$DIMTP
 40
0.0
  9
$DIMTM
 40
0.0
  9
$DIMTXT
 40
2.0
  9
$DIMCEN
 40
2.0
  9
$DIMTSZ
 40
0.0
  9
$DIMTOL
 70
     0
  9
$DIMLIM
 70
     0
  9
$DIMTIH
 70
     0
  9
$DIMTOH
 70
     0
  9
$DIMSE1
 70
     0
  9
$DIMSE2
 70
     0
  9
$DIMTAD
 70
     1
  9
$DIMZIN
 70
     0
  9
$DIMBLK
  1
ARCHTICK
  9
$DIMASO
 70
     1
  9
$DIMSHO
 70
     1
  9
$DIMPOST
  1

  9
$DIMAPOST
  1

  9
$DIMALT
 70
     0
  9
$DIMALTD
 70
     2
  9
$DIMALTF
 40
0.0394
  9
$DIMLFAC
 40
1.0
  9
$DIMTOFL
 70
     0
  9
$DIMTVP
 40
0.0
  9
$DIMTIX
 70
     0
  9
$DIMSOXD
 70
     0
  9
$DIMSAH
 70
     0
  9
$DIMBLK1
  1

  9
$DIMBLK2
  1

  9
$DIMSTYLE
  2
1_TO_2
  9
$DIMCLRD
 70
   256
  9
$DIMCLRE
 70
   256
  9
$DIMCLRT
 70
   256
  9
$DIMTFAC
 40
1.0
  9
$DIMGAP
 40
1.0
  9
$LUNITS
 70
     2
  9
$LUPREC
 70
     1
  9
$SKETCHINC
 40
0.1
  9
$FILLETRAD
 40
0.0
  9
$AUNITS
 70
     1
  9
$AUPREC
 70
     4
  9
$MENU
  1
.
  9
$ELEVATION
 40
0.0
  9
$PELEVATION
 40
0.0
  9
$THICKNESS
 40
0.0
  9
$LIMCHECK
 70
     0
  9
$BLIPMODE
 70
     0
  9
$CHAMFERA
 40
0.0
  9
$CHAMFERB
 40
0.0
  9
$SKPOLY
 70
     0
  9
$TDCREATE
 40
2452152.65359294
  9
$TDUPDATE
 40
2455419.5985020492
  9
$TDINDWG
 40
25.857554050899999
  9
$TDUSRTIMER
 40
25.857554050899999
  9
$USRTIMER
 70
     1
  9
$ANGBASE
 50
0.0
  9
$ANGDIR
 70
     0
  9
$PDMODE
 70
     0
  9
$PDSIZE
 40
0.0
  9
$PLINEWID
 40
0.0
  9
$COORDS
 70
     1
  9
$SPLFRAME
 70
     0
  9
$SPLINETYPE
 70
     6
  9
$SPLINESEGS
 70
     8
  9
$ATTDIA
 70
     0
  9
$ATTREQ
 70
     0
  9
$HANDLING
 70
     1
  9
$HANDSEED
  5
B19
  9
$SURFTAB1
 70
     6
  9
$SURFTAB2
 70
     6
  9
$SURFTYPE
 70
     6
  9
$SURFU
 70
     6
  9
$SURFV
 70
     6
  9
$UCSNAME
  2

  9
$UCSORG
 10
0.0
 20
0.0
 30
0.0
  9
$UCSXDIR
 10
1.0
 20
0.0
 30
0.0
  9
$UCSYDIR
 10
0.0
 20
1.0
 30
0.0
  9
$PUCSNAME
  2

  9
$PUCSORG
 10
0.0
 20
0.0
 30
0.0
  9
$PUCSXDIR
 10
1.0
 20
0.0
 30
0.0
  9
$PUCSYDIR
 10
0.0
 20
1.0
 30
0.0
  9
$USERI1
 70
     0
  9
$USERI2
 70
     0
  9
$USERI3
 70
     0
  9
$USERI4
 70
     0
  9
$USERI5
 70
     0
  9
$USERR1
 40
0.0
  9
$USERR2
 40
0.0
  9
$USERR3
 40
0.0
  9
$USERR4
 40
0.0
  9
$USERR5
 40
0.0
  9
$WORLDVIEW
 70
     1
  9
$SHADEDGE
 70
     3
  9
$SHADEDIF
 70
    70
  9
$TILEMODE
 70
     1
  9
$MAXACTVP
 70
    48
  9
$PLIMCHECK
 70
     0
  9
$PEXTMIN
 10
0.0
 20
0.0
 30
0.0
  9
$PEXTMAX
 10
208.41041893864801
 20
295.40953368001158
 30
0.0
  9
$PLIMMIN
 10
-0.793749988079071
 20
-0.793749988079071
  9
$PLIMMAX
 10
209.2062500119209
 20
296.20625001192087
  9
$UNITMODE
 70
     0
  9
$VISRETAIN
 70
     1
  9
$PLINEGEN
 70
     1
  9
$PSLTSCALE
 70
     1
  0
ENDSEC
  0
SECTION
  2
TABLES
  0
TABLE
  2
VPORT
 70
     1
  0
VPORT
  2
*ACTIVE
 70
     0
 10
0.0
 20
0.0
 11
1.0
 21
1.0
 12
15.659989502671349
 22
26.398720749005619
 13
0.0
 23
0.0
 14
1.0
 24
1.0
 15
50.0
 25
50.0
 16
0.0
 26
0.0
 36
1.0
 17
0.0
 27
0.0
 37
0.0
 40
291.8639210640946
 41
1.978962131837307
 42
50.0
 43
0.0
 44
0.0
 50
0.0
 51
0.0
 71
     0
 72
 20000
 73
     1
 74
     3
 75
     0
 76
     0
 77
     0
 78
     0
  0
ENDTAB
  0
TABLE
  2
LTYPE
 70
     2
  0
LTYPE
  2
CONTINUOUS
 70
     0
  3
Solid line
 72
    65
 73
     0
 40
0.0
  0
ENDTAB
  0
TABLE
  2
LAYER
 70
    16
  0
LAYER
  2
0
 70
     0
 62
     7
  6
CONTINUOUS
  0
LAYER
  2
DEFPOINTS
 70
     0
 62
   211
  6
CONTINUOUS
  0
ENDTAB
  0
TABLE
  2
STYLE
 70
     4
  0
STYLE
  2
STANDARD
 70
     0
 40
0.0
 41
1.0
 50
0.0
 71
     0
 42
1.5
  3
romans.shx
  4

  0
STYLE
  2
ARIAL
 70
     0
 40
0.0
 41
1.0
 50
0.0
 71
     0
 42
35.0
  3
txt
  4

  0
STYLE
  2
EURO_COMMON_WIND-REC-SILL$
 70
     0
 40
0.0
 41
1.0
 50
0.0
 71
     0
 42
35.0
  3
txt
  4

  0
ENDTAB
  0
TABLE
  2
VIEW
 70
     2
  0
VIEW
  2
09
 70
     0
 40
2970.0
 10
19050.0
 20
1485.0
 41
2100.0
 11
0.0
 21
0.0
 31
1.0
 12
0.0
 22
0.0
 32
0.0
 42
50.0
 43
0.0
 44
0.0
 50
0.0
 71
     0
  0
VIEW
  2
COMM-04
 70
     1
 40
477.26027331217421
 10
194.21746115522001
 20
180.60494410563541
 41
755.81685306636155
 11
0.0
 21
0.0
 31
1.0
 12
0.0
 22
0.0
 32
0.0
 42
50.0
 43
0.0
 44
0.0
 50
0.0
 71
     0
  0
ENDTAB
  0
TABLE
  2
UCS
 70
     0
  0
ENDTAB
  0
TABLE
  2
APPID
 70
    13
  0
APPID
  2
ACAD
 70
     0
  0
APPID
  2
GENIUS_GENOREF_13
 70
     0
  0
APPID
  2
ACAD_PSEXT
 70
     0
  0
APPID
  2
ACDBDYNAMICBLOCKGUID
 70
     0
  0
APPID
  2
ACDBBLOCKREPETAG
 70
     0
  0
APPID
  2
ACAD_MLEADERVER
 70
     0
  0
APPID
  2
ACADANNOTATIVE
 70
     0
  0
APPID
  2
ACAD_EXEMPT_FROM_CAD_STANDARDS
 70
     0
  0
APPID
  2
GENIUS_GENODEF_13
 70
     0
  0
APPID
  2
GENIUS_GENREC_14
 70
     0
  0
APPID
  2
GENIUS_GENOBJ-N-REC_13
 70
     0
  0
APPID
  2
RAK
 70
     0
  0
APPID
  2
CONTENTBLOCKICON
 70
     0
  0
ENDTAB
  0
TABLE
  2
DIMSTYLE
 70
     2
  0
DIMSTYLE
  2
1_TO_2
 70
     0
  3

  4

  5
ARCHTICK
  6

  7

 40
2.0
 41
2.0
 42
2.0
 43
6.0
 44
2.0
 45
0.0
 46
2.0
 47
0.0
 48
0.0
140
2.0
141
2.0
142
0.0
143
0.0394
144
1.0
145
0.0
146
1.0
147
1.0
 71
     0
 72
     0
 73
     0
 74
     0
 75
     0
 76
     0
 77
     1
 78
     0
170
     0
171
     2
172
     0
173
     0
174
     0
175
     0
176
   256
177
   256
178
   256
  0
DIMSTYLE
  2
EURO_COMMON_WIND-REC-SILL$
 70
     0
  3

  4

  5
EURO_COMMON_WIND-REC-SILL$
  6

  7

 40
2.0
 41
2.0
 42
2.0
 43
6.0
 44
2.0
 45
0.0
 46
2.0
 47
0.0
 48
0.0
140
2.0
141
2.0
142
0.0
143
0.0394
144
1.0
145
0.0
146
1.0
147
1.0
 71
     0
 72
     0
 73
     0
 74
     0
 75
     0
 76
     0
 77
     1
 78
     0
170
     0
171
     2
172
     0
173
     0
174
     0
175
     0
176
   256
177
   256
178
   256
  0
ENDTAB
  0
ENDSEC
  0
SECTION
  2
BLOCKS
  0
BLOCK
  8
0
  2
$MODEL_SPACE
 70
     0
 10
0.0
 20
0.0
 30
0.0
  3
$MODEL_SPACE
  1

  0
ENDBLK
  5
17
  8
0
  0
BLOCK
 67
     1
  8
0
  2
$PAPER_SPACE
 70
     0
 10
0.0
 20
0.0
 30
0.0
  3
$PAPER_SPACE
  1

  0
ENDBLK
  5
20
 67
     1
  8
0
  0
BLOCK
  8
0
  2
_ARCHTICK
 70
     0
 10
0.0
 20
0.0
 30
0.0
  3
_ARCHTICK
  1

  0
POLYLINE
  5
8E
  8
0
  6
BYBLOCK
 62
     0
 66
     1
 10
0.0
 20
0.0
 30
0.0
 40
0.15
 41
0.15
  0
VERTEX
  5
97D
  8
0
  6
BYBLOCK
 62
     0
 10
-0.5
 20
-0.5
 30
0.0
  0
VERTEX
  5
97E
  8
0
  6
BYBLOCK
 62
     0
 10
0.5
 20
0.5
 30
0.0
  0
SEQEND
  5
97F
  8
0
  6
BYBLOCK
 62
     0
  0
ENDBLK
  5
8F
  8
0
  0
BLOCK
  8
0
  2
EURO_COMMON_WIND-REC-SILL$
 70
     0
 10
0.0
 20
0.0
 30
0.0
  3
EURO_COMMON_WIND-REC-SILL$
  1

  0
POLYLINE
  5
814
  8
0
  6
BYBLOCK
 62
     0
 66
     1
 10
0.0
 20
0.0
 30
0.0
 40
0.15
 41
0.15
  0
VERTEX
  5
9A1
  8
0
  6
BYBLOCK
 62
     0
 10
-0.5
 20
-0.5
 30
0.0
  0
VERTEX
  5
9A2
  8
0
  6
BYBLOCK
 62
     0
 10
0.5
 20
0.5
 30
0.0
  0
SEQEND
  5
9A3
  8
0
  6
BYBLOCK
 62
     0
  0
ENDBLK
  5
815
  8
0
  0
BLOCK
  8
0
  2
*D9
 70
     1
 10
0.0
 20
0.0
 30
0.0
  3
*D9
  1

  0
LINE
  5
8FC
  8
0
 10
121.3468044205738
 20
49.999999999999979
 30
0.0
 11
135.34680442057379
 21
49.999999999999979
 31
0.0
  0
LINE
  5
8FD
  8
0
 10
121.3468044205738
 20
-25.00000000000006
 30
0.0
 11
135.34680442057379
 21
-25.00000000000006
 31
0.0
  0
LINE
  5
8FE
  8
0
 10
131.34680442057379
 20
53.999999999999979
 30
0.0
 11
131.34680442057379
 21
-29.00000000000006
 31
0.0
  0
INSERT
  5
8FF
  8
0
  2
EURO_COMMON_WIND-REC-SILL$
 10
131.34680442057379
 20
49.999999999999993
 30
0.0
 41
4.0
 42
4.0
 43
4.0
 50
90.0
  0
INSERT
  5
900
  8
0
  2
EURO_COMMON_WIND-REC-SILL$
 10
131.34680442057379
 20
-25.00000000000006
 30
0.0
 41
4.0
 42
4.0
 43
4.0
 50
270.0
  0
INSERT
  5
901
  8
0
  2
*U36
 10
0.0
 20
0.0
 30
0.0
  0
POINT
  5
902
  8
DEFPOINTS
 62
     0
 10
75.0
 20
50.0
 30
0.0
  0
POINT
  5
903
  8
DEFPOINTS
 62
     0
 10
-74.846213215099397
 20
-25.0
 30
0.0
  0
POINT
  5
904
  8
DEFPOINTS
 62
     0
 10
131.34680442057379
 20
-25.00000000000006
 30
0.0
  0
ENDBLK
  5
8CD
  8
0
  0
BLOCK
  8
0
  2
*U10
 70
     1
 10
0.0
 20
0.0
 30
0.0
  3
*U10
  1

  0
SOLID
  5
9CF
  8
0
 10
78.866229053332773
 20
51.223404001795821
 30
0.0
 11
75.0
 21
50.0
 31
0.0
 12
78.260464022840466
 22
52.411186181158023
 32
0.0
 13
78.260464022840466
 23
52.411186181158023
 33
0.0
  0
POLYLINE
  5
9D0
  8
0
 66
     1
 10
0.0
 20
0.0
 30
0.0
  0
VERTEX
  5
9D1
  8
0
 10
78.56334653808662
 20
51.817295091476922
 30
0.0
  0
VERTEX
  5
9D2
  8
0
 10
128.60430178523029
 20
77.338018762737192
 30
0.0
  0
VERTEX
  5
9D3
  8
0
 10
132.60430178523029
 20
77.338018762737192
 30
0.0
  0
SEQEND
  5
9D4
  8
0
  0
ENDBLK
  5
9D6
  8
0
  0
BLOCK
  8
0
  2
*U11
 70
     1
 10
0.0
 20
0.0
 30
0.0
  3
*U11
  1

  0
TEXT
  5
9D8
  8
0
 10
134.4733331631293
 20
75.803912350731736
 30
0.0
 40
4.0
  1
Timber framing
  7
EURO_COMMON_WIND-REC-SILL$
  0
ENDBLK
  5
9DA
  8
0
  0
BLOCK
  8
0
  2
*U12
 70
     1
 10
0.0
 20
0.0
 30
0.0
  3
*U12
  1

  0
SOLID
  5
9DC
  8
0
 10
-27.884876630112991
 20
-14.930583971741431
 30
0.0
 11
-31.399999999999981
 21
-12.908616578602061
 31
0.0
 12
-27.419110090169792
 22
-13.68124842512189
 32
0.0
 13
-27.419110090169792
 23
-13.68124842512189
 33
0.0
  0
POLYLINE
  5
9DD
  8
0
 66
     1
 10
0.0
 20
0.0
 30
0.0
  0
VERTEX
  5
9DE
  8
0
 10
-27.65199336014139
 20
-14.30591619843166
 30
0.0
  0
VERTEX
  5
9DF
  8
0
 10
128.59999999999991
 20
-72.558441313483172
 30
0.0
  0
VERTEX
  5
9E0
  8
0
 10
132.59999999999991
 20
-72.558441313483172
 30
0.0
  0
SEQEND
  5
9E1
  8
0
  0
ENDBLK
  5
9E3
  8
0
  0
BLOCK
  8
0
  2
*U13
 70
     1
 10
0.0
 20
0.0
 30
0.0
  3
*U13
  1

  0
TEXT
  5
9E5
  8
0
 10
134.16889495225089
 20
-74.058441313483172
 30
0.0
 40
4.0
  1
Plywood
  7
EURO_COMMON_WIND-REC-SILL$
  0
ENDBLK
  5
9E7
  8
0
  0
BLOCK
  8
0
  2
*U14
 70
     1
 10
0.0
 20
0.0
 30
0.0
  3
*U14
  1

  0
SOLID
  5
9E9
  8
0
 10
-41.799815657544542
 20
-50.673839651623851
 30
0.0
 11
-37.975000000000023
 21
-49.326535072010643
 31
0.0
 12
-41.156105217802711
 22
-51.84149313084837
 32
0.0
 13
-41.156105217802711
 23
-51.84149313084837
 33
0.0
  0
POLYLINE
  5
9EA
  8
0
 66
     1
 10
0.0
 20
0.0
 30
0.0
  0
VERTEX
  5
9EB
  8
0
 10
-41.47796043767363
 20
-51.257666391236107
 30
0.0
  0
VERTEX
  5
9EC
  8
0
 10
-88.487598451888516
 20
-77.173398495533775
 30
0.0
  0
VERTEX
  5
9ED
  8
0
 10
-92.487598451888516
 20
-77.173398495533775
 30
0.0
  0
SEQEND
  5
9EE
  8
0
  0
ENDBLK
  5
9F0
  8
0
  0
BLOCK
  8
0
  2
*U15
 70
     1
 10
0.0
 20
0.0
 30
0.0
  3
*U15
  1

  0
TEXT
  5
9F2
  8
0
 10
-129.22702546416679
 20
-78.463302997580143
 30
0.0
 40
4.0
  1
Kraft underlay
  7
EURO_COMMON_WIND-REC-SILL$
  0
ENDBLK
  5
9F4
  8
0
  0
BLOCK
  8
0
  2
*U16
 70
     1
 10
0.0
 20
0.0
 30
0.0
  3
*U16
  1

  0
SOLID
  5
9F6
  8
0
 10
-68.267455282041112
 20
-85.216266918314432
 30
0.0
 11
-64.375
 21
-84.079061430394745
 31
0.0
 12
-67.688228892335218
 22
-86.417214280710496
 32
0.0
 13
-67.688228892335218
 23
-86.417214280710496
 33
0.0
  0
POLYLINE
  5
9F7
  8
0
 66
     1
 10
0.0
 20
0.0
 30
0.0
  0
VERTEX
  5
9F8
  8
0
 10
-67.977842087188165
 20
-85.816740599512457
 30
0.0
  0
VERTEX
  5
9F9
  8
0
 10
-88.487598451888516
 20
-95.708757939199359
 30
0.0
  0
VERTEX
  5
9FA
  8
0
 10
-92.487598451888516
 20
-95.708757939199359
 30
0.0
  0
SEQEND
  5
9FB
  8
0
  0
ENDBLK
  5
9FD
  8
0
  0
BLOCK
  8
0
  2
*U17
 70
     1
 10
0.0
 20
0.0
 30
0.0
  3
*U17
  1

  0
TEXT
  5
9FF
  8
0
 10
-114.7577212349717
 20
-98.143273628148876
 30
0.0
 40
4.0
  1
Euroline
  7
EURO_COMMON_WIND-REC-SILL$
  0
ENDBLK
  5
A01
  8
0
  0
BLOCK
  8
0
  2
*U18
 70
     1
 10
0.0
 20
0.0
 30
0.0
  3
*U18
  1

  0
SOLID
  5
A03
  8
0
 10
-0.4634004679658417
 20
-43.526888085531233
 30
0.0
 11
-3.950000000000045
 21
-41.456122973872418
 31
0.0
 12
0.019734188137869
 22
-42.284165798835879
 32
0.0
 13
0.019734188137869
 23
-42.284165798835879
 33
0.0
  0
POLYLINE
  5
A04
  8
0
 66
     1
 10
0.0
 20
0.0
 30
0.0
  0
VERTEX
  5
A05
  8
0
 10
-0.2218331399139863
 20
-42.905526942183549
 30
0.0
  0
VERTEX
  5
A06
  8
0
 10
128.59999999999991
 20
-92.987747820515096
 30
0.0
  0
VERTEX
  5
A07
  8
0
 10
132.59999999999991
 20
-92.987747820515096
 30
0.0
  0
SEQEND
  5
A08
  8
0
  0
ENDBLK
  5
A0A
  8
0
  0
BLOCK
  8
0
  2
*U19
 70
     1
 10
0.0
 20
0.0
 30
0.0
  3
*U19
  1

  0
TEXT
  5
A0C
  8
0
 10
134.1907230559344
 20
-94.487747820515096
 30
0.0
 40
4.0
  1
Building wrap
  7
EURO_COMMON_WIND-REC-SILL$
  0
ENDBLK
  5
A0E
  8
0
  0
BLOCK
  8
0
  2
*U20
 70
     1
 10
0.0
 20
0.0
 30
0.0
  3
*U20
  1

  0
SOLID
  5
A28
  8
0
 10
-25.189148515968132
 20
40.400718224437703
 30
0.0
 11
-21.950000000000049
 21
37.96097206224249
 31
0.0
 12
-25.805328432573699
 22
39.218305399680737
 32
0.0
 13
-25.805328432573699
 23
39.218305399680737
 33
0.0
  0
POLYLINE
  5
A29
  8
0
 66
     1
 10
0.0
 20
0.0
 30
0.0
  0
VERTEX
  5
A2A
  8
0
 10
-25.497238474270912
 20
39.80951181205922
 30
0.0
  0
VERTEX
  5
A2B
  8
0
 10
-88.487598451888516
 20
72.635098565942485
 30
0.0
  0
VERTEX
  5
A2C
  8
0
 10
-92.487598451888516
 20
72.635098565942485
 30
0.0
  0
SEQEND
  5
A2D
  8
0
  0
ENDBLK
  5
A2F
  8
0
  0
BLOCK
  8
0
  2
*U21
 70
     1
 10
0.0
 20
0.0
 30
0.0
  3
*U21
  1

  0
TEXT
  5
A31
  8
0
 10
-138.82320554602219
 20
74.001174054801055
 30
0.0
 40
4.0
  1
Cavibat horizontal
  7
EURO_COMMON_WIND-REC-SILL$
  0
TEXT
  5
A32
  8
0
 10
-129.83275534138369
 20
67.300400976128927
 30
0.0
 40
4.0
  1
drained batten
  7
EURO_COMMON_WIND-REC-SILL$
  0
ENDBLK
  5
A34
  8
0
  0
BLOCK
  8
0
  2
*U22
 70
     1
 10
0.0
 20
0.0
 30
0.0
  3
*U22
  1

  0
SOLID
  5
A36
  8
0
 10
-47.790911287452282
 20
-10.17404949878444
 30
0.0
 11
-44.534354520694592
 21
-7.7575887667779808
 31
0.0
 12
-46.831164197787601
 22
-11.099610572759561
 32
0.0
 13
-46.831164197787601
 23
-11.099610572759561
 33
0.0
  0
POLYLINE
  5
A37
  8
0
 66
     1
 10
0.0
 20
0.0
 30
0.0
  0
VERTEX
  5
A38
  8
0
 10
-47.311037742619938
 20
-10.636830035772
 30
0.0
  0
VERTEX
  5
A39
  8
0
 10
-86.487598451888516
 20
-51.260394683222671
 30
0.0
  0
VERTEX
  5
A3A
  8
0
 10
-90.487598451888516
 20
-51.260394683222671
 30
0.0
  0
SEQEND
  5
A3B
  8
0
  0
ENDBLK
  5
A3D
  8
0
  0
BLOCK
  8
0
  2
*U23
 70
     1
 10
0.0
 20
0.0
 30
0.0
  3
*U23
  1

  0
TEXT
  5
A3F
  8
0
 10
-135.11515643278889
 20
-52.705142295773832
 30
0.0
 40
4.0
  1
Trimseal lap tape
  7
EURO_COMMON_WIND-REC-SILL$
  0
ENDBLK
  5
A41
  8
0
  0
BLOCK
  8
0
  2
*U24
 70
     1
 10
0.0
 20
0.0
 30
0.0
  3
*U24
  1

  0
SOLID
  5
A53
  8
0
 10
-84.773804110447486
 20
-28.756449187849341
 30
0.0
 11
-83.246213215099374
 21
-25.0
 31
0.0
 12
-83.472923784909966
 22
-29.048832765375789
 32
0.0
 13
-83.472923784909966
 23
-29.048832765375789
 33
0.0
  0
POLYLINE
  5
A54
  8
0
 66
     1
 10
0.0
 20
0.0
 30
0.0
  0
VERTEX
  5
A55
  8
0
 10
-84.123363947678726
 20
-28.90264097661257
 30
0.0
  0
VERTEX
  5
A56
  8
0
 10
-86.487598451888516
 20
-39.421652261387067
 30
0.0
  0
VERTEX
  5
A57
  8
0
 10
-90.487598451888516
 20
-39.421652261387067
 30
0.0
  0
SEQEND
  5
A58
  8
0
  0
ENDBLK
  5
A5A
  8
0
  0
BLOCK
  8
0
  2
*U25
 70
     1
 10
0.0
 20
0.0
 30
0.0
  3
*U25
  1

  0
TEXT
  5
A5C
  8
0
 10
-120.378457933471
 20
-40.833657718412987
 30
0.0
 40
4.0
  1
Sill flashing
  7
EURO_COMMON_WIND-REC-SILL$
  0
ENDBLK
  5
A5E
  8
0
  0
BLOCK
  8
0
  2
*U26
 70
     1
 10
0.0
 20
0.0
 30
0.0
  3
*U26
  1

  0
SOLID
  5
A60
  8
0
 10
-64.932574443105381
 20
-7.1542434782769027
 30
0.0
 11
-61.95746112824429
 21
-9.9098097010668162
 31
0.0
 12
-65.665454660504224
 22
-8.2680946194637404
 32
0.0
 13
-65.665454660504224
 23
-8.2680946194637404
 33
0.0
  0
POLYLINE
  5
A61
  8
0
 66
     1
 10
0.0
 20
0.0
 30
0.0
  0
VERTEX
  5
A62
  8
0
 10
-65.299014551804802
 20
-7.711169048870322
 30
0.0
  0
VERTEX
  5
A63
  8
0
 10
-86.487598451888516
 20
6.2302755489423616
 30
0.0
  0
VERTEX
  5
A64
  8
0
 10
-90.487598451888516
 20
6.2302755489423616
 30
0.0
  0
SEQEND
  5
A65
  8
0
  0
ENDBLK
  5
A67
  8
0
  0
BLOCK
  8
0
  2
*U27
 70
     1
 10
0.0
 20
0.0
 30
0.0
  3
*U27
  1

  0
TEXT
  5
A69
  8
0
 10
-133.04421509581761
 20
4.8182700919164416
 30
0.0
 40
4.0
  1
"Z" grab flashing
  7
EURO_COMMON_WIND-REC-SILL$
  0
ENDBLK
  5
A6B
  8
0
  0
BLOCK
  8
0
  2
*U28
 70
     1
 10
0.0
 20
0.0
 30
0.0
  3
*U28
  1

  0
SOLID
  5
A6D
  8
0
 10
78.866229053332773
 20
121.83736000268669
 30
0.0
 11
75.0
 21
120.61395600089089
 31
0.0
 12
78.260464022840466
 22
123.0251421820489
 32
0.0
 13
78.260464022840466
 23
123.0251421820489
 33
0.0
  0
POLYLINE
  5
A6E
  8
0
 66
     1
 10
0.0
 20
0.0
 30
0.0
  0
VERTEX
  5
A6F
  8
0
 10
78.56334653808662
 20
122.4312510923678
 30
0.0
  0
VERTEX
  5
A70
  8
0
 10
128.60430178523029
 20
147.95197476362799
 30
0.0
  0
VERTEX
  5
A71
  8
0
 10
132.60430178523029
 20
147.95197476362799
 30
0.0
  0
SEQEND
  5
A72
  8
0
  0
ENDBLK
  5
A74
  8
0
  0
BLOCK
  8
0
  2
*U29
 70
     1
 10
0.0
 20
0.0
 30
0.0
  3
*U29
  1

  0
TEXT
  5
A76
  8
0
 10
134.45423357240631
 20
146.4519747636281
 30
0.0
 40
4.0
  1
Jamb liner
  7
EURO_COMMON_WIND-REC-SILL$
  0
ENDBLK
  5
A78
  8
0
  0
BLOCK
  8
0
  2
*U30
 70
     1
 10
0.0
 20
0.0
 30
0.0
  3
*U30
  1

  0
SOLID
  5
A7A
  8
0
 10
78.866229053332773
 20
99.384074604755881
 30
0.0
 11
75.0
 21
98.160670602960053
 31
0.0
 12
78.260464022840466
 22
100.5718567841181
 32
0.0
 13
78.260464022840466
 23
100.5718567841181
 33
0.0
  0
POLYLINE
  5
A7B
  8
0
 66
     1
 10
0.0
 20
0.0
 30
0.0
  0
VERTEX
  5
A7C
  8
0
 10
78.56334653808662
 20
99.977965694437003
 30
0.0
  0
VERTEX
  5
A7D
  8
0
 10
128.60430178523029
 20
125.4986893656972
 30
0.0
  0
VERTEX
  5
A7E
  8
0
 10
132.60430178523029
 20
125.4986893656972
 30
0.0
  0
SEQEND
  5
A7F
  8
0
  0
ENDBLK
  5
A81
  8
0
  0
BLOCK
  8
0
  2
*U31
 70
     1
 10
0.0
 20
0.0
 30
0.0
  3
*U31
  1

  0
TEXT
  5
A83
  8
0
 10
134.17319673748131
 20
123.9986893656972
 30
0.0
 40
4.0
  1
Packer
  7
EURO_COMMON_WIND-REC-SILL$
  0
ENDBLK
  5
A85
  8
0
  0
BLOCK
  8
0
  2
*U32
 70
     1
 10
0.0
 20
0.0
 30
0.0
  3
*U32
  1

  0
SOLID
  5
A87
  8
0
 10
-25.459058779056662
 20
129.6872490296108
 30
0.0
 11
-21.950000000000049
 21
127.6547749388608
 31
0.0
 12
-25.928560712323879
 22
128.43931244771409
 32
0.0
 13
-25.928560712323879
 23
128.43931244771409
 33
0.0
  0
POLYLINE
  5
A88
  8
0
 66
     1
 10
0.0
 20
0.0
 30
0.0
  0
VERTEX
  5
A89
  8
0
 10
-25.69380974569027
 20
129.0632807386624
 30
0.0
  0
VERTEX
  5
A8A
  8
0
 10
-88.487598451888516
 20
152.68772257522119
 30
0.0
  0
VERTEX
  5
A8B
  8
0
 10
-92.487598451888516
 20
152.68772257522119
 30
0.0
  0
SEQEND
  5
A8C
  8
0
  0
ENDBLK
  5
A8E
  8
0
  0
BLOCK
  8
0
  2
*U33
 70
     1
 10
0.0
 20
0.0
 30
0.0
  3
*U33
  1

  0
TEXT
  5
A90
  8
0
 10
-140.71679354056519
 20
154.08790447608521
 30
0.0
 40
4.0
  1
Aluminium window
  7
EURO_COMMON_WIND-REC-SILL$
  0
TEXT
  5
A91
  8
0
 10
-108.5394401981368
 20
147.3871313974131
 30
0.0
 40
4.0
  1
frame
  7
EURO_COMMON_WIND-REC-SILL$
  0
ENDBLK
  5
A93
  8
0
  0
BLOCK
  8
0
  2
*U34
 70
     1
 10
0.0
 20
0.0
 30
0.0
  3
*U34
  1

  0
SOLID
  5
A95
  8
0
 10
-30.07365047787312
 20
71.964543253557892
 30
0.0
 11
-26.81448156841725
 21
69.551606771990123
 31
0.0
 12
-30.680053179492081
 22
70.777086500136122
 32
0.0
 13
-30.680053179492081
 23
70.777086500136122
 33
0.0
  0
POLYLINE
  5
A96
  8
0
 66
     1
 10
0.0
 20
0.0
 30
0.0
  0
VERTEX
  5
A97
  8
0
 10
-30.3768518286826
 20
71.370814876847007
 30
0.0
  0
VERTEX
  5
A98
  8
0
 10
-88.487598451888516
 20
101.04643349947339
 30
0.0
  0
VERTEX
  5
A99
  8
0
 10
-92.487598451888516
 20
101.04643349947339
 30
0.0
  0
SEQEND
  5
A9A
  8
0
  0
ENDBLK
  5
A9C
  8
0
  0
BLOCK
  8
0
  2
*U35
 70
     1
 10
0.0
 20
0.0
 30
0.0
  3
*U35
  1

  0
TEXT
  5
A9E
  8
0
 10
-113.99373760604951
 20
99.63442804244751
 30
0.0
 40
4.0
  1
Packing
  7
EURO_COMMON_WIND-REC-SILL$
  0
ENDBLK
  5
AA0
  8
0
  0
BLOCK
  8
0
  2
*U36
 70
     1
 10
0.0
 20
0.0
 30
0.0
  3
*U36
  1

  0
TEXT
  5
B16
  8
0
 10
129.27859159656279
 20
-1.2066848567530819
 30
0.0
 40
4.0
  1
75mm min.
 50
90.0
  7
EURO_COMMON_WIND-REC-SILL$
  0
ENDBLK
  5
B18
  8
0
  0
ENDSEC
  0
SECTION
  2
ENTITIES
  0
POLYLINE
  5
88D
  8
0
 66
     1
 10
0.0
 20
0.0
 30
0.0
  0
VERTEX
  5
9A4
  8
0
 10
-31.399999999999991
 20
-115.5608311502174
 30
0.0
  0
VERTEX
  5
9A5
  8
0
 10
-31.399999999999981
 20
90.386738351100689
 30
0.0
  0
VERTEX
  5
9A6
  8
0
 10
-43.399999999999977
 20
90.386738351100689
 30
0.0
  0
VERTEX
  5
9A7
  8
0
 10
-43.399999999999977
 20
-115.5608311502174
 30
0.0
  0
SEQEND
  5
9A8
  8
0
  0
LINE
  5
88E
  8
0
 10
-3.950000000000045
 20
-115.5608311502174
 30
0.0
 11
-3.9500000000000428
 21
90.386738351100689
 31
0.0
  0
LINE
  5
88F
  8
0
 10
-45.375
 20
-115.5608311502174
 30
0.0
 11
-45.375
 21
90.386738351100647
 31
0.0
  0
LINE
  5
890
  8
0
 10
-47.39999999999997
 20
49.999999999999943
 30
0.0
 11
-80.338381539904844
 21
49.999999999999943
 31
0.0
  0
LINE
  5
891
  8
0
 10
-80.338381539904844
 20
49.999999999999943
 30
0.0
 11
-80.338381539904844
 21
-115.5608311502174
 31
0.0
  0
LINE
  5
892
  8
0
 10
-47.39999999999997
 20
-115.5608311502174
 30
0.0
 11
-47.39999999999997
 21
49.999999999999943
 31
0.0
  0
POLYLINE
  5
893
  8
0
 66
     1
 10
0.0
 20
0.0
 30
0.0
 70
   128
 40
0.25
 41
0.25
  0
VERTEX
  5
9A9
  8
0
 10
-56.468709041389161
 20
12.333556149394269
 30
0.0
  0
VERTEX
  5
9AA
  8
0
 10
-56.468709041389161
 20
-8.4098097010668731
 30
0.0
 42
-0.4142135623730953
  0
VERTEX
  5
9AB
  8
0
 10
-57.968709041389161
 20
-9.9098097010668731
 30
0.0
  0
VERTEX
  5
9AC
  8
0
 10
-80.746213215099374
 20
-9.9098097010668731
 30
0.0
 42
0.4142135623730951
  0
VERTEX
  5
9AD
  8
0
 10
-82.246213215099374
 20
-11.40980970106687
 30
0.0
  0
VERTEX
  5
9AE
  8
0
 10
-82.246213215099374
 20
-24.00000000000006
 30
0.0
  0
SEQEND
  5
9AF
  8
0
  0
POLYLINE
  5
894
  8
0
 66
     1
 10
0.0
 20
0.0
 30
0.0
 70
   128
 40
0.5
 41
0.5
  0
VERTEX
  5
9B0
  8
0
 10
-80.746213215099374
 20
-15.64134816496977
 30
0.0
  0
VERTEX
  5
9B1
  8
0
 10
-80.746213215099374
 20
-24.00000000000006
 30
0.0
 42
-1.0
  0
VERTEX
  5
9B2
  8
0
 10
-83.746213215099374
 20
-24.00000000000006
 30
0.0
  0
VERTEX
  5
9B3
  8
0
 10
-83.746213215099374
 20
50.401825005797953
 30
0.0
 42
-0.3816568575720623
  0
VERTEX
  5
9B4
  8
0
 10
-81.9705804969702
 20
52.389199988740479
 30
0.0
  0
VERTEX
  5
9B5
  8
0
 10
-50.766889582173803
 20
55.91198123283371
 30
0.0
 42
0.3832221302826038
  0
VERTEX
  5
9B6
  8
0
 10
-48.980398150228893
 20
57.900552099402731
 30
0.0
  0
VERTEX
  5
9B7
  8
0
 10
-48.980398150228893
 20
92.078457564528136
 30
0.0
 42
-0.3832221302826046
  0
VERTEX
  5
9B8
  8
0
 10
-47.193906718283984
 20
94.067028431097157
 30
0.0
  0
VERTEX
  5
9B9
  8
0
 10
21.394729113369859
 20
100.46703643966541
 30
0.0
 42
0.9999999999999994
  0
VERTEX
  5
9BA
  8
0
 10
21.1942720837161
 20
102.33404820785719
 30
0.0
  0
VERTEX
  5
9BB
  8
0
 10
14.02716743642133
 20
101.56453162885541
 30
0.0
  0
SEQEND
  5
9BC
  8
0
  0
POLYLINE
  5
895
  8
0
 66
     1
 10
0.0
 20
0.0
 30
0.0
 70
   128
  0
VERTEX
  5
9BD
  8
0
 10
-78.07769316759402
 20
52.828692563729192
 30
0.0
  0
VERTEX
  5
9BE
  8
0
 10
-78.07769316759402
 20
109.9018450618961
 30
0.0
  0
VERTEX
  5
9BF
  8
0
 10
-47.549660687993082
 20
113.17957411336521
 30
0.0
  0
SEQEND
  5
9C0
  8
0
  0
POLYLINE
  5
896
  8
0
 66
     1
 10
0.0
 20
0.0
 30
0.0
 70
   128
  0
VERTEX
  5
9C1
  8
0
 10
-46.049660687993082
 20
113.34062588047431
 30
0.0
  0
VERTEX
  5
9C2
  8
0
 10
-38.110010870422123
 20
114.1930889693724
 30
0.0
  0
SEQEND
  5
9C3
  8
0
  0
POLYLINE
  5
897
  8
0
 66
     1
 10
0.0
 20
0.0
 30
0.0
 70
   128
  0
VERTEX
  5
9C4
  8
0
 10
-36.337821828335557
 20
114.38336508729201
 30
0.0
  0
VERTEX
  5
9C5
  8
0
 10
-15.04966068799115
 20
116.6690290673958
 30
0.0
  0
SEQEND
  5
9C6
  8
0
  0
POLYLINE
  5
898
  8
0
 66
     1
 10
0.0
 20
0.0
 30
0.0
 70
   128
  0
VERTEX
  5
9C7
  8
0
 10
-13.54966068799126
 20
116.8300808345048
 30
0.0
  0
VERTEX
  5
9C8
  8
0
 10
-0.0496606879926276
 20
118.2795467384865
 30
0.0
  0
SEQEND
  5
9C9
  8
0
  0
POLYLINE
  5
899
  8
0
 66
     1
 10
0.0
 20
0.0
 30
0.0
 70
   128
  0
VERTEX
  5
9CA
  8
0
 10
1.450339312007827
 20
118.4405985055957
 30
0.0
  0
VERTEX
  5
9CB
  8
0
 10
22.228006482638879
 20
120.6714518484188
 30
0.0
  0
VERTEX
  5
9CC
  8
0
 10
22.228006482638879
 20
101.5007708385882
 30
0.0
  0
SEQEND
  5
9CD
  8
0
  0
DIMENSION
  5
89A
  8
0
  2
*D9
 10
131.34680442057379
 20
-25.00000000000006
 30
0.0
 11
127.3126980085683
 21
12.49999999999998
 31
0.0
 70
     0
  1
75mm min.
 13
75.0
 23
50.0
 33
0.0
 14
-74.846213215099397
 24
-25.0
 34
0.0
 50
90.0
  0
INSERT
  5
89B
  8
0
  2
*U10
 10
0.0
 20
0.0
 30
0.0
1001
ACAD
1000
DSTYLE
1002
{
1070
   147
1040
1.0
1070
    77
1070
     0
1002
}
  0
INSERT
  5
89C
  8
0
  2
*U11
 10
0.0
 20
0.0
 30
0.0
  0
INSERT
  5
89D
  8
0
  2
*U12
 10
0.0
 20
0.0
 30
0.0
1001
ACAD
1000
DSTYLE
1002
{
1070
   147
1040
1.0
1070
    77
1070
     0
1002
}
  0
INSERT
  5
89E
  8
0
  2
*U13
 10
0.0
 20
0.0
 30
0.0
  0
INSERT
  5
89F
  8
0
  2
*U14
 10
0.0
 20
0.0
 30
0.0
1001
ACAD
1000
DSTYLE
1002
{
1070
   147
1040
1.0
1070
    77
1070
     0
1002
}
  0
INSERT
  5
8A0
  8
0
  2
*U15
 10
0.0
 20
0.0
 30
0.0
  0
INSERT
  5
8A1
  8
0
  2
*U16
 10
0.0
 20
0.0
 30
0.0
1001
ACAD
1000
DSTYLE
1002
{
1070
   147
1040
1.0
1070
    77
1070
     0
1002
}
  0
INSERT
  5
8A2
  8
0
  2
*U17
 10
0.0
 20
0.0
 30
0.0
  0
INSERT
  5
8A3
  8
0
  2
*U18
 10
0.0
 20
0.0
 30
0.0
1001
ACAD
1000
DSTYLE
1002
{
1070
   147
1040
1.0
1070
    77
1070
     0
1002
}
  0
INSERT
  5
8A4
  8
0
  2
*U19
 10
0.0
 20
0.0
 30
0.0
  0
LINE
  5
8A8
  8
0
 10
-54.903214078586757
 20
101.34384513229119
 30
0.0
 11
-54.903214078586757
 21
168.358271300539
 31
0.0
  0
LINE
  5
8A9
  8
0
 10
-47.549660687991718
 20
120.1367383511047
 30
0.0
 11
-47.549660687991718
 21
168.358271300539
 31
0.0
  0
LINE
  5
8AA
  8
0
 10
-19.0496606879924
 20
139.88673835110211
 30
0.0
 11
-19.0496606879924
 21
168.358271300539
 31
0.0
  0
LINE
  5
8AB
  8
0
 10
-13.549660687992169
 20
141.1367383511016
 30
0.0
 11
-13.549660687992169
 21
168.358271300539
 31
0.0
  0
LINE
  5
8AC
  8
0
 10
-0.0496606879919455
 20
124.6367383511013
 30
0.0
 11
-0.0496606879919455
 21
168.358271300539
 31
0.0
  0
LINE
  5
8AD
  8
0
 10
5.7003393120078272
 20
126.886738351102
 30
0.0
 11
5.7003393120078272
 21
168.358271300539
 31
0.0
  0
POLYLINE
  5
8AE
  8
0
 66
     1
 10
0.0
 20
0.0
 30
0.0
  0
VERTEX
  5
A0F
  8
0
 10
112.0
 20
-115.5608311502174
 30
0.0
  0
VERTEX
  5
A10
  8
0
 10
112.0
 20
113.386738351101
 30
0.0
  0
VERTEX
  5
A11
  8
0
 10
102.0
 20
113.386738351101
 30
0.0
  0
VERTEX
  5
A12
  8
0
 10
102.0
 20
-115.5608311502173
 30
0.0
  0
SEQEND
  5
A13
  8
0
  0
POLYLINE
  5
8AF
  8
0
 66
     1
 10
0.0
 20
0.0
 30
0.0
 70
   128
  0
VERTEX
  5
A14
  8
0
 10
-92.833628810702507
 20
168.358271300539
 30
0.0
  0
VERTEX
  5
A15
  8
0
 10
18.36670584998285
 20
168.358271300539
 30
0.0
  0
VERTEX
  5
A16
  8
0
 10
19.366705849982729
 20
171.10574871999381
 30
0.0
  0
VERTEX
  5
A17
  8
0
 10
21.366705849982619
 20
165.6107938810845
 30
0.0
  0
VERTEX
  5
A18
  8
0
 10
22.36670584998285
 20
168.358271300539
 30
0.0
  0
VERTEX
  5
A19
  8
0
 10
122.85355339059311
 20
168.358271300539
 30
0.0
  0
SEQEND
  5
A1A
  8
0
  0
LINE
  5
8B0
  8
0
 10
119.0
 20
168.358271300539
 30
0.0
 11
119.0
 21
125.386738351101
 31
0.0
  0
POLYLINE
  5
8B2
  8
0
 66
     1
 10
0.0
 20
0.0
 30
0.0
  0
VERTEX
  5
A1B
  8
0
 10
100.0
 20
-115.5608311502174
 30
0.0
  0
VERTEX
  5
A1C
  8
0
 10
100.0
 20
40.386738351100689
 30
0.0
  0
VERTEX
  5
A1D
  8
0
 10
0.0
 20
40.386738351100703
 30
0.0
  0
VERTEX
  5
A1E
  8
0
 10
0.0
 20
-115.5608311502174
 30
0.0
  0
SEQEND
  5
A1F
  8
0
  0
POLYLINE
  5
8B3
  8
0
 66
     1
 10
0.0
 20
0.0
 30
0.0
 70
   128
  0
VERTEX
  5
A20
  8
0
 10
122.93426524045481
 20
-115.5608311502174
 30
0.0
  0
VERTEX
  5
A21
  8
0
 10
23.300991610251
 20
-115.5608311502174
 30
0.0
  0
VERTEX
  5
A22
  8
0
 10
22.300991610250779
 20
-112.8133537307626
 30
0.0
  0
VERTEX
  5
A23
  8
0
 10
20.300991610250779
 20
-118.30830856967189
 30
0.0
  0
VERTEX
  5
A24
  8
0
 10
19.300991610251
 20
-115.5608311502174
 30
0.0
  0
VERTEX
  5
A25
  8
0
 10
-93.649871214764516
 20
-115.5608311502174
 30
0.0
  0
SEQEND
  5
A26
  8
0
  0
INSERT
  5
8B5
  8
0
  2
*U20
 10
0.0
 20
0.0
 30
0.0
1001
ACAD
1000
DSTYLE
1002
{
1070
   147
1040
1.0
1070
    77
1070
     0
1002
}
  0
INSERT
  5
8B6
  8
0
  2
*U21
 10
0.0
 20
0.0
 30
0.0
  0
INSERT
  5
8B7
  8
0
  2
*U22
 10
0.0
 20
0.0
 30
0.0
1001
ACAD
1000
DSTYLE
1002
{
1070
   147
1040
1.0
1070
    77
1070
     0
1002
}
  0
INSERT
  5
8B8
  8
0
  2
*U23
 10
0.0
 20
0.0
 30
0.0
  0
LINE
  5
8B9
  8
0
 10
-78.338381539904844
 20
49.999999999999943
 30
0.0
 11
-78.338381539904844
 21
-115.5608311502174
 31
0.0
  0
POLYLINE
  5
8BA
  8
0
 66
     1
 10
0.0
 20
0.0
 30
0.0
 70
   129
1001
GENIUS_GENREC_14
1002
{
1000
PYDIR
1011
-57.968709041389161
1021
0.0
1031
0.0
1021
-2.0075887667780381
1031
0.0
1002
}
1002
{
1000
PXDIR
1011
-56.468709041389161
1021
0.0
1031
0.0
1021
4.9924112332219606
1031
0.0
1002
}
1002
{
1000
PORI
1011
-56.468709041389161
1021
0.0
1031
0.0
1021
-2.0075887667780381
1031
0.0
1002
}
1002
{
1000
PINS
1011
-56.468709041389161
1021
0.0
1031
0.0
1021
-2.0075887667780381
1031
0.0
1002
}
1002
{
1000
PINS2
1011
-57.968709041389161
1021
0.0
1031
0.0
1021
4.9924112332219606
1031
0.0
1002
}
1002
{
1000
C
1070
     1
1002
}
1001
GENIUS_GENOBJ-N-REC_13
1002
{
1000
OWNER
1000
GEN
1002
}
1001
GENIUS_GENODEF_13
1002
{
1000
HIER
1070
     0
1002
}
1002
{
1000
MANEDIT
1070
     0
1002
}
1002
{
1000
NOSEL
1070
     0
1002
}
1002
{
1000
BEHIND
1070
     0
1002
}
1002
{
1000
OTHER
1070
     0
1002
}
1002
{
1000
REACTOR
1002
}
  0
VERTEX
  5
A42
  8
0
 10
-56.468709041389161
 20
-2.0075887667780381
 30
0.0
  0
VERTEX
  5
A43
  8
0
 10
-56.468709041389161
 20
4.9924112332219606
 30
0.0
  0
VERTEX
  5
A44
  8
0
 10
-57.968709041389161
 20
4.9924112332219606
 30
0.0
  0
VERTEX
  5
A45
  8
0
 10
-57.968709041389161
 20
-2.0075887667780381
 30
0.0
  0
SEQEND
  5
A46
  8
0
  0
POLYLINE
  5
8BB
  8
0
 66
     1
 10
0.0
 20
0.0
 30
0.0
 70
   129
1001
GENIUS_GENREC_14
1002
{
1000
PYDIR
1011
-76.25251032047197
1021
0.0
1031
0.0
1021
0.7424112332219615
1031
0.0
1002
}
1002
{
1000
PXDIR
1011
-38.964510632582801
1021
0.0
1031
0.0
1021
2.242411233221961
1031
0.0
1002
}
1002
{
1000
PORI
1011
-38.964510632582801
1021
0.0
1031
0.0
1021
0.7424112332219615
1031
0.0
1002
}
1002
{
1000
PINS
1011
-38.964510632582801
1021
0.0
1031
0.0
1021
0.7424112332219615
1031
0.0
1002
}
1002
{
1000
PINS2
1011
-76.25251032047197
1021
0.0
1031
0.0
1021
2.242411233221961
1031
0.0
1002
}
1002
{
1000
C
1070
     1
1002
}
1001
GENIUS_GENOBJ-N-REC_13
1002
{
1000
OWNER
1000
GEN
1002
}
1001
GENIUS_GENODEF_13
1002
{
1000
HIER
1070
     0
1002
}
1002
{
1000
MANEDIT
1070
     0
1002
}
1002
{
1000
NOSEL
1070
     0
1002
}
1002
{
1000
BEHIND
1070
     0
1002
}
1002
{
1000
OTHER
1070
     0
1002
}
1002
{
1000
REACTOR
1002
}
  0
VERTEX
  5
A47
  8
0
 10
-26.25251032047197
 20
1.492411233221961
 30
0.0
  0
VERTEX
  5
A48
  8
0
 10
-28.91917698713894
 20
2.492411233221961
 30
0.0
  0
VERTEX
  5
A49
  8
0
 10
-56.468709041389161
 20
2.492411233221961
 30
0.0
  0
VERTEX
  5
A4A
  8
0
 10
-56.468709041389161
 20
0.4924112332219615
 30
0.0
  0
VERTEX
  5
A4B
  8
0
 10
-28.91917698713894
 20
0.4924112332219615
 30
0.0
  0
SEQEND
  5
A4C
  8
0
  0
POLYLINE
  5
8BD
  8
0
 66
     1
 10
0.0
 20
0.0
 30
0.0
 70
   129
 40
0.6166666666666667
 41
0.6166666666666667
  0
VERTEX
  5
A4D
  8
0
 10
-49.39999999999997
 20
10.74241123322196
 30
0.0
  0
VERTEX
  5
A4E
  8
0
 10
-54.468709041389161
 20
10.74241123322196
 30
0.0
  0
VERTEX
  5
A4F
  8
0
 10
-54.468709041389161
 20
-7.7575887667780377
 30
0.0
  0
VERTEX
  5
A50
  8
0
 10
-49.39999999999997
 20
-7.7575887667780377
 30
0.0
  0
SEQEND
  5
A51
  8
0
  0
INSERT
  5
8BE
  8
0
  2
*U24
 10
0.0
 20
0.0
 30
0.0
1001
ACAD
1000
DSTYLE
1002
{
1070
   147
1040
1.0
1070
    77
1070
     0
1002
}
  0
INSERT
  5
8BF
  8
0
  2
*U25
 10
0.0
 20
0.0
 30
0.0
  0
INSERT
  5
8C0
  8
0
  2
*U26
 10
0.0
 20
0.0
 30
0.0
1001
ACAD
1000
DSTYLE
1002
{
1070
   147
1040
1.0
1070
    77
1070
     0
1002
}
  0
INSERT
  5
8C1
  8
0
  2
*U27
 10
0.0
 20
0.0
 30
0.0
  0
LINE
  5
8C2
  8
0
 10
-80.338381539904844
 20
49.999999999999943
 30
0.0
 11
-47.39999999999997
 21
41.174187266394199
 31
0.0
  0
INSERT
  5
8C3
  8
0
  2
*U28
 10
0.0
 20
0.0
 30
0.0
1001
ACAD
1000
DSTYLE
1002
{
1070
   147
1040
1.0
1070
    77
1070
     0
1002
}
  0
INSERT
  5
8C4
  8
0
  2
*U29
 10
0.0
 20
0.0
 30
0.0
  0
INSERT
  5
8C5
  8
0
  2
*U30
 10
0.0
 20
0.0
 30
0.0
1001
ACAD
1000
DSTYLE
1002
{
1070
   147
1040
1.0
1070
    77
1070
     0
1002
}
  0
INSERT
  5
8C6
  8
0
  2
*U31
 10
0.0
 20
0.0
 30
0.0
  0
INSERT
  5
8C7
  8
0
  2
*U32
 10
0.0
 20
0.0
 30
0.0
1001
ACAD
1000
DSTYLE
1002
{
1070
   147
1040
1.0
1070
    77
1070
     0
1002
}
  0
INSERT
  5
8C8
  8
0
  2
*U33
 10
0.0
 20
0.0
 30
0.0
  0
INSERT
  5
8C9
  8
0
  2
*U34
 10
0.0
 20
0.0
 30
0.0
1001
ACAD
1000
DSTYLE
1002
{
1070
   147
1040
1.0
1070
    77
1070
     0
1002
}
  0
INSERT
  5
8CA
  8
0
  2
*U35
 10
0.0
 20
0.0
 30
0.0
  0
POLYLINE
  5
8E0
  8
0
 66
     1
 10
0.0
 20
0.0
 30
0.0
 70
     1
  0
VERTEX
  5
AA1
  8
0
 10
-25.406702657802271
 20
45.386738351100689
 30
0.0
  0
VERTEX
  5
AA2
  8
0
 10
-7.4067026578022661
 20
45.386738351100689
 30
0.0
  0
VERTEX
  5
AA3
  8
0
 10
-7.4067026578022661
 20
90.386738351100689
 30
0.0
  0
VERTEX
  5
AA4
  8
0
 10
-25.406702657802271
 20
90.386738351100689
 30
0.0
  0
SEQEND
  5
AA5
  8
0
  0
LINE
  5
8E1
  8
0
 10
-16.906702657802271
 20
90.386738351100689
 30
0.0
 11
-16.906702657802271
 21
45.386738351100689
 31
0.0
  0
LINE
  5
8E2
  8
0
 10
-15.90670265780226
 20
45.386738351100689
 30
0.0
 11
-15.90670265780226
 21
90.386738351100689
 31
0.0
  0
LINE
  5
8E3
  8
0
 10
-24.406702657802271
 20
90.386738351100689
 30
0.0
 11
-24.406702657802271
 21
45.386738351100689
 31
0.0
  0
LINE
  5
8E4
  8
0
 10
-8.4067026578022652
 20
90.386738351100689
 30
0.0
 11
-8.4067026578022652
 21
45.386738351100689
 31
0.0
  0
POLYLINE
  5
8E5
  8
0
 66
     1
 10
0.0
 20
0.0
 30
0.0
 70
     1
 40
1.0
 41
1.0
1001
ACDBBLOCKREPETAG
1070
     1
1071
        3
1005
8E5
  0
VERTEX
  5
AA6
  8
0
 10
99.500000000000014
 20
89.886738351100675
 30
0.0
  0
VERTEX
  5
AA7
  8
0
 10
0.5
 20
89.886738351100703
 30
0.0
  0
VERTEX
  5
AA8
  8
0
 10
0.5
 20
40.886738351100703
 30
0.0
  0
VERTEX
  5
AA9
  8
0
 10
99.500000000000014
 20
40.886738351100689
 30
0.0
  0
SEQEND
  5
AAA
  8
0
  0
LINE
  5
8E6
  8
0
 10
100.0
 20
90.386738351100689
 30
0.0
 11
0.0
 21
40.386738351100703
 31
0.0
1001
ACDBBLOCKREPETAG
1070
     1
1071
        1
1005
8E6
  0
LINE
  5
8E7
  8
0
 10
100.0
 20
40.386738351100689
 30
0.0
 11
0.0
 21
90.386738351100703
 31
0.0
1001
ACDBBLOCKREPETAG
1070
     1
1071
        2
1005
8E7
  0
POLYLINE
  5
8E8
  8
0
 66
     1
 10
0.0
 20
0.0
 30
0.0
 70
     1
1001
ACDBBLOCKREPETAG
1070
     1
1071
        0
1005
8E8
  0
VERTEX
  5
AAB
  8
0
 10
100.0
 20
90.386738351100689
 30
0.0
  0
VERTEX
  5
AAC
  8
0
 10
0.0
 20
90.386738351100703
 30
0.0
  0
VERTEX
  5
AAD
  8
0
 10
0.0
 20
40.386738351100703
 30
0.0
  0
VERTEX
  5
AAE
  8
0
 10
100.0
 20
40.386738351100689
 30
0.0
  0
SEQEND
  5
AAF
  8
0
  0
POLYLINE
  5
8E9
  8
0
 66
     1
 10
0.0
 20
0.0
 30
0.0
 70
     1
1001
ACDBBLOCKREPETAG
1070
     1
1071
        0
1005
8E9
  0
VERTEX
  5
AB0
  8
0
 10
-50.549660687992628
 20
65.99029174169732
 30
0.0
  0
VERTEX
  5
AB1
  8
0
 10
-50.549660687993089
 20
60.74029174169732
 30
0.0
 42
-0.4142135623730951
  0
VERTEX
  5
AB2
  8
0
 10
-51.049660687993089
 20
60.24029174169732
 30
0.0
  0
VERTEX
  5
AB3
  8
0
 10
-54.549660687993089
 20
60.240291741697767
 30
0.0
 42
-0.4142135623730784
  0
VERTEX
  5
AB4
  8
0
 10
-55.049660687993082
 20
60.740291741697767
 30
0.0
  0
VERTEX
  5
AB5
  8
0
 10
-55.049660687993537
 20
100.2402917416975
 30
0.0
 42
-0.1989123673796969
  0
VERTEX
  5
AB6
  8
0
 10
-54.903214078586871
 20
100.59384513229089
 30
0.0
  0
VERTEX
  5
AB7
  8
0
 10
-47.696107297400651
 20
107.8009519134762
 30
0.0
 42
0.1989123673796435
  0
VERTEX
  5
AB8
  8
0
 10
-47.549660687993992
 20
108.1545053040695
 30
0.0
  0
VERTEX
  5
AB9
  8
0
 10
-47.549660687991718
 20
120.1367383511046
 30
0.0
  0
VERTEX
  5
ABA
  8
0
 10
-46.049660687991711
 20
120.1367383511046
 30
0.0
  0
VERTEX
  5
ABB
  8
0
 10
-46.04966068799353
 20
111.3867383511042
 30
0.0
 42
0.4142135623731409
  0
VERTEX
  5
ABC
  8
0
 10
-45.549660687993537
 20
110.8867383511042
 30
0.0
  0
VERTEX
  5
ABD
  8
0
 10
-40.072203173931712
 20
110.8867383511042
 30
0.0
 42
0.2840790438403827
  0
VERTEX
  5
ABE
  8
0
 10
-39.624989578431951
 20
111.16313155335411
 30
0.0
  0
VERTEX
  5
ABF
  8
0
 10
-34.901382780680933
 20
120.61034514885201
 30
0.0
 42
-0.2840790438403819
  0
VERTEX
  5
AC0
  8
0
 10
-34.454169185181172
 20
120.8867383511019
 30
0.0
  0
VERTEX
  5
AC1
  8
0
 10
-15.54966068799081
 20
120.8867383511015
 30
0.0
 42
0.414213562373126
  0
VERTEX
  5
AC2
  8
0
 10
-15.04966068799081
 20
121.3867383511015
 30
0.0
  0
VERTEX
  5
AC3
  8
0
 10
-15.04966068799262
 20
131.38673835110239
 30
0.0
 42
0.4142135623730571
  0
VERTEX
  5
AC4
  8
0
 10
-15.549660687992629
 20
131.88673835110239
 30
0.0
  0
VERTEX
  5
AC5
  8
0
 10
-18.549660687991711
 20
131.88673835110239
 30
0.0
 42
-0.4142135623730062
  0
VERTEX
  5
AC6
  8
0
 10
-19.049660687991722
 20
132.38673835110239
 30
0.0
  0
VERTEX
  5
AC7
  8
0
 10
-19.049660687993079
 20
134.88673835110279
 30
0.0
  0
VERTEX
  5
AC8
  8
0
 10
-17.54966068799262
 20
134.88673835110421
 30
0.0
  0
VERTEX
  5
AC9
  8
0
 10
-17.549660687991722
 20
133.886738351101
 30
0.0
 42
0.4142135623728287
  0
VERTEX
  5
ACA
  8
0
 10
-17.049660687991722
 20
133.38673835110151
 30
0.0
  0
VERTEX
  5
ACB
  8
0
 10
-15.549660687992169
 20
133.38673835110151
 30
0.0
 42
0.4142135623730951
  0
VERTEX
  5
ACC
  8
0
 10
-15.049660687992169
 20
133.88673835110151
 30
0.0
  0
VERTEX
  5
ACD
  8
0
 10
-15.049660687992169
 20
138.88673835110151
 30
0.0
 42
0.4142135623730951
  0
VERTEX
  5
ACE
  8
0
 10
-15.549660687992169
 20
139.38673835110151
 30
0.0
  0
VERTEX
  5
ACF
  8
0
 10
-17.049660687992169
 20
139.38673835110151
 30
0.0
 42
0.4142135623730951
  0
VERTEX
  5
AD0
  8
0
 10
-17.549660687992169
 20
138.88673835110151
 30
0.0
  0
VERTEX
  5
AD1
  8
0
 10
-17.549660687992169
 20
137.88673835110191
 30
0.0
  0
VERTEX
  5
AD2
  8
0
 10
-19.049660687992169
 20
137.88673835110049
 30
0.0
  0
VERTEX
  5
AD3
  8
0
 10
-19.04966068799262
 20
140.3867383511033
 30
0.0
 42
-0.4142135623731676
  0
VERTEX
  5
AD4
  8
0
 10
-18.54966068799262
 20
140.8867383511033
 30
0.0
  0
VERTEX
  5
AD5
  8
0
 10
-14.049660687992169
 20
140.8867383511014
 30
0.0
 42
-0.4142135623729752
  0
VERTEX
  5
AD6
  8
0
 10
-13.549660687992169
 20
140.38673835110151
 30
0.0
  0
VERTEX
  5
AD7
  8
0
 10
-13.54966068799126
 20
121.3867383511015
 30
0.0
 42
0.4142135623730715
  0
VERTEX
  5
AD8
  8
0
 10
-13.04966068799126
 20
120.8867383511015
 30
0.0
  0
VERTEX
  5
AD9
  8
0
 10
-0.5496606879921733
 20
120.886738351101
 30
0.0
 42
0.4142135623731053
  0
VERTEX
  5
ADA
  8
0
 10
-0.0496606879921733
 20
121.386738351101
 30
0.0
  0
VERTEX
  5
ADB
  8
0
 10
-0.0496606879917179
 20
126.386738351101
 30
0.0
 42
-0.414213562373072
  0
VERTEX
  5
ADC
  8
0
 10
0.4503393120082821
 20
126.886738351101
 30
0.0
  0
VERTEX
  5
ADD
  8
0
 10
5.7003393120078272
 20
126.8867383511019
 30
0.0
  0
VERTEX
  5
ADE
  8
0
 10
5.7003393120078272
 20
125.3867383511015
 30
0.0
  0
VERTEX
  5
ADF
  8
0
 10
1.450339312007827
 20
125.3867383511015
 30
0.0
  0
VERTEX
  5
AE0
  8
0
 10
1.4503393120078241
 20
106.386738351101
 30
0.0
  0
VERTEX
  5
AE1
  8
0
 10
10.70033931200782
 20
106.3867383511015
 30
0.0
  0
VERTEX
  5
AE2
  8
0
 10
10.70033931200782
 20
104.8867383511015
 30
0.0
  0
VERTEX
  5
AE3
  8
0
 10
0.4503393120078247
 20
104.8867383511015
 30
0.0
 42
-0.4142135623731081
  0
VERTEX
  5
AE4
  8
0
 10
-0.0496606879921753
 20
105.3867383511015
 30
0.0
  0
VERTEX
  5
AE5
  8
0
 10
-0.0496606879926285
 20
118.886738351101
 30
0.0
 42
0.4142135623730852
  0
VERTEX
  5
AE6
  8
0
 10
-0.5496606879926285
 20
119.386738351101
 30
0.0
  0
VERTEX
  5
AE7
  8
0
 10
-13.04966068799081
 20
119.3867383511015
 30
0.0
 42
0.4142135623731053
  0
VERTEX
  5
AE8
  8
0
 10
-13.54966068799081
 20
118.8867383511015
 30
0.0
  0
VERTEX
  5
AE9
  8
0
 10
-13.54966068799172
 20
114.886738351101
 30
0.0
 42
-0.4142135623730655
  0
VERTEX
  5
AEA
  8
0
 10
-14.04966068799172
 20
114.386738351101
 30
0.0
  0
VERTEX
  5
AEB
  8
0
 10
-19.183481332875768
 20
114.386738351101
 30
0.0
  0
VERTEX
  5
AEC
  8
0
 10
-19.183481332875768
 20
115.886738351101
 30
0.0
  0
VERTEX
  5
AED
  8
0
 10
-15.54966068799126
 20
115.8867383511015
 30
0.0
 42
0.4142135623729824
  0
VERTEX
  5
AEE
  8
0
 10
-15.04966068799126
 20
116.3867383511015
 30
0.0
  0
VERTEX
  5
AEF
  8
0
 10
-15.049660687989901
 20
118.88673835110239
 30
0.0
 42
0.4142135623731982
  0
VERTEX
  5
AF0
  8
0
 10
-15.549660687989901
 20
119.38673835110239
 30
0.0
  0
VERTEX
  5
AF1
  8
0
 10
-33.527118202056727
 20
119.386738351101
 30
0.0
 42
0.2840790438404103
  0
VERTEX
  5
AF2
  8
0
 10
-33.974331797556488
 20
119.1103451488511
 30
0.0
  0
VERTEX
  5
AF3
  8
0
 10
-37.724331797554221
 20
111.61034514885429
 30
0.0
 42
0.5575365158350297
  0
VERTEX
  5
AF4
  8
0
 10
-37.27711820205446
 20
110.8867383511042
 30
0.0
  0
VERTEX
  5
AF5
  8
0
 10
-34.677261532157672
 20
110.88673835110509
 30
0.0
  0
VERTEX
  5
AF6
  8
0
 10
-34.677261532155853
 20
109.3867383511046
 30
0.0
  0
VERTEX
  5
AF7
  8
0
 10
-45.549660687993537
 20
109.38673835110509
 30
0.0
 42
0.4142135623731073
  0
VERTEX
  5
AF8
  8
0
 10
-46.04966068799353
 20
108.88673835110509
 30
0.0
  0
VERTEX
  5
AF9
  8
0
 10
-46.049660687993992
 20
107.533184960509
 30
0.0
 42
-0.1989123673796139
  0
VERTEX
  5
AFA
  8
0
 10
-46.196107297400658
 20
107.1796315699157
 30
0.0
  0
VERTEX
  5
AFB
  8
0
 10
-53.40321407858869
 20
99.97252478872997
 30
0.0
 42
0.1989123673797151
  0
VERTEX
  5
AFC
  8
0
 10
-53.549660687995349
 20
99.618971398136651
 30
0.0
  0
VERTEX
  5
AFD
  8
0
 10
-53.549660687993537
 20
62.240291741696872
 30
0.0
 42
0.4142135623731039
  0
VERTEX
  5
AFE
  8
0
 10
-53.049660687993537
 20
61.740291741696872
 30
0.0
  0
VERTEX
  5
AFF
  8
0
 10
-52.549660687993082
 20
61.74029174169732
 30
0.0
 42
0.4142135623730508
  0
VERTEX
  5
B00
  8
0
 10
-52.049660687993089
 20
62.24029174169732
 30
0.0
  0
VERTEX
  5
B01
  8
0
 10
-52.049660687993537
 20
65.990291741696865
 30
0.0
  0
SEQEND
  5
B02
  8
0
  0
ARC
  5
8EA
  8
0
  6
CONTINUOUS
 10
68.06225192205666
 20
66.24210916298307
 30
0.0
 40
74.256200364664537
 50
47.215752703854058
 51
52.163154674271823
  0
POLYLINE
  5
8EB
  8
0
 66
     1
 10
0.0
 20
0.0
 30
0.0
 70
     1
  0
VERTEX
  5
B03
  8
0
 10
101.9999999999999
 20
113.386738351101
 30
0.0
  0
VERTEX
  5
B04
  8
0
 10
111.9999999999999
 20
113.386738351101
 30
0.0
  0
VERTEX
  5
B05
  8
0
 10
111.9999999999999
 20
106.3867383511011
 30
0.0
  0
VERTEX
  5
B06
  8
0
 10
118.9999999999999
 20
106.3867383511011
 30
0.0
  0
VERTEX
  5
B07
  8
0
 10
118.9999999999999
 20
125.386738351101
 30
0.0
  0
VERTEX
  5
B08
  8
0
 10
1.450339312007827
 20
125.386738351101
 30
0.0
  0
VERTEX
  5
B09
  8
0
 10
1.450339312007827
 20
106.386738351101
 30
0.0
  0
VERTEX
  5
B0A
  8
0
 10
101.9999999999999
 20
106.3867383511011
 30
0.0
  0
SEQEND
  5
B0B
  8
0
  0
POLYLINE
  5
8EC
  8
0
 66
     1
 10
0.0
 20
0.0
 30
0.0
 70
     1
 40
1.0
 41
1.0
  0
VERTEX
  5
B0C
  8
0
 10
101.4999999999999
 20
113.886738351101
 30
0.0
  0
VERTEX
  5
B0D
  8
0
 10
112.4999999999999
 20
113.886738351101
 30
0.0
  0
VERTEX
  5
B0E
  8
0
 10
112.4999999999999
 20
106.8867383511011
 30
0.0
  0
VERTEX
  5
B0F
  8
0
 10
118.4999999999999
 20
106.8867383511011
 30
0.0
  0
VERTEX
  5
B10
  8
0
 10
118.4999999999999
 20
124.886738351101
 30
0.0
  0
VERTEX
  5
B11
  8
0
 10
1.950339312007827
 20
124.886738351101
 30
0.0
  0
VERTEX
  5
B12
  8
0
 10
1.9503393120078409
 20
106.886738351101
 30
0.0
  0
VERTEX
  5
B13
  8
0
 10
101.4999999999999
 20
106.8867383511011
 30
0.0
  0
SEQEND
  5
B14
  8
0
  0
ARC
  5
8ED
  8
0
  6
CONTINUOUS
 10
68.06225192205666
 20
66.24210916298307
 30
0.0
 40
48.83449460847612
 50
56.335054923528332
 51
123.6649450764713
  0
ARC
  5
8EE
  8
0
  6
CONTINUOUS
 10
68.06225192205666
 20
66.24210916298307
 30
0.0
 40
57.513480217416173
 50
54.451650034274593
 51
135.03315876253899
  0
ARC
  5
8EF
  8
0
  6
CONTINUOUS
 10
84.044896579507707
 20
-4.1431305135056951
 30
0.0
 40
142.95089212168361
 50
115.4958127219432
 51
125.29474259278599
  0
LINE
  5
8F0
  8
0
 10
35.962436867077272
 20
102.1367383511007
 30
0.0
 11
99.825000000000017
 21
92.674990772953024
 31
0.0
1001
ACDBBLOCKREPETAG
1070
     1
1071
        3
1005
830
  0
LINE
  5
8F1
  8
0
 10
99.825000000000017
 20
92.674990772953024
 30
0.0
 11
99.825000000000017
 21
102.1367383511007
 31
0.0
1001
ACDBBLOCKREPETAG
1070
     1
1071
        3
1005
830
  0
LINE
  5
8F2
  8
0
 10
99.825000000000017
 20
102.1367383511007
 30
0.0
 11
35.962436867077272
 21
102.1367383511007
 31
0.0
1001
ACDBBLOCKREPETAG
1070
     1
1071
        3
1005
8F2
  0
LINE
  5
8F3
  8
0
 10
33.500000000001357
 20
102.3867383511007
 30
0.0
 11
100.0
 21
92.386738351100675
 31
0.0
1001
ACDBBLOCKREPETAG
1070
     1
1071
        0
1005
82D
  0
LINE
  5
8F4
  8
0
 10
100.0
 20
92.386738351100675
 30
0.0
 11
100.0
 21
102.3867383511007
 31
0.0
1001
ACDBBLOCKREPETAG
1070
     1
1071
        0
1005
82D
  0
LINE
  5
8F5
  8
0
 10
100.0
 20
102.3867383511007
 30
0.0
 11
33.500000000001357
 21
102.3867383511007
 31
0.0
1001
ACDBBLOCKREPETAG
1070
     1
1071
        0
1005
8F5
  0
LINE
  5
8F6
  8
0
 10
30.000000000000021
 20
102.3867383511011
 30
0.0
 11
29.999999999999972
 21
92.386738351100718
 31
0.0
1001
ACDBBLOCKREPETAG
1070
     1
1071
        1
1005
82E
  0
LINE
  5
8F7
  8
0
 10
29.999999999999972
 20
92.386738351100718
 30
0.0
 11
96.499999999999517
 21
92.386738351100675
 31
0.0
1001
ACDBBLOCKREPETAG
1070
     1
1071
        1
1005
82E
  0
LINE
  5
8F8
  8
0
 10
96.499999999999517
 20
92.386738351100675
 30
0.0
 11
30.000000000000021
 21
102.3867383511011
 31
0.0
1001
ACDBBLOCKREPETAG
1070
     1
1071
        1
1005
8F8
  0
LINE
  5
8F9
  8
0
 10
30.175000000000011
 20
102.0984859292488
 30
0.0
 11
30.174999999999969
 21
92.636738351100718
 31
0.0
1001
ACDBBLOCKREPETAG
1070
     1
1071
        2
1005
82F
  0
LINE
  5
8FA
  8
0
 10
30.174999999999969
 20
92.636738351100718
 30
0.0
 11
94.037563132923651
 21
92.636738351100675
 31
0.0
1001
ACDBBLOCKREPETAG
1070
     1
1071
        2
1005
82F
  0
LINE
  5
8FB
  8
0
 10
94.037563132923651
 20
92.636738351100675
 30
0.0
 11
30.175000000000011
 21
102.0984859292488
 31
0.0
1001
ACDBBLOCKREPETAG
1070
     1
1071
        2
1005
8FB
  0
LINE
  5
905
  8
0
 10
-43.399999999999977
 20
83.157649372621677
 30
0.0
 11
-36.170911021520958
 21
90.386738351100689
 31
0.0
1001
ACAD
1010
0.0
1020
0.0
1030
0.0
  0
LINE
  5
906
  8
0
 10
-43.399999999999977
 20
74.738659259119345
 30
0.0
 11
-31.399999999999999
 21
86.738659259119316
 31
0.0
1001
ACAD
1010
0.0
1020
0.0
1030
0.0
  0
LINE
  5
907
  8
0
 10
-43.399999999999977
 20
66.319669145617013
 30
0.0
 11
-31.399999999999999
 21
78.319669145616984
 31
0.0
1001
ACAD
1010
0.0
1020
0.0
1030
0.0
  0
LINE
  5
908
  8
0
 10
-43.399999999999977
 20
57.900679032114667
 30
0.0
 11
-31.400000000000009
 21
69.900679032114653
 31
0.0
1001
ACAD
1010
0.0
1020
0.0
1030
0.0
  0
LINE
  5
909
  8
0
 10
-43.399999999999977
 20
49.481688918612342
 30
0.0
 11
-31.399999999999991
 21
61.481688918612328
 31
0.0
1001
ACAD
1010
0.0
1020
0.0
1030
0.0
  0
LINE
  5
90A
  8
0
 10
-43.399999999999977
 20
41.062698805110017
 30
0.0
 11
-31.399999999999991
 21
53.06269880511001
 31
0.0
1001
ACAD
1010
0.0
1020
0.0
1030
0.0
  0
LINE
  5
90B
  8
0
 10
-43.399999999999977
 20
32.643708691607692
 30
0.0
 11
-31.399999999999991
 21
44.643708691607671
 31
0.0
1001
ACAD
1010
0.0
1020
0.0
1030
0.0
  0
LINE
  5
90C
  8
0
 10
-43.399999999999977
 20
24.22471857810535
 30
0.0
 11
-31.399999999999991
 21
36.224718578105353
 31
0.0
1001
ACAD
1010
0.0
1020
0.0
1030
0.0
  0
LINE
  5
90D
  8
0
 10
-43.399999999999977
 20
15.805728464603019
 30
0.0
 11
-31.399999999999981
 21
27.805728464603028
 31
0.0
1001
ACAD
1010
0.0
1020
0.0
1030
0.0
  0
LINE
  5
90E
  8
0
 10
-43.399999999999991
 20
7.386738351100675
 30
0.0
 11
-31.399999999999981
 21
19.386738351100689
 31
0.0
1001
ACAD
1010
0.0
1020
0.0
1030
0.0
  0
LINE
  5
90F
  8
0
 10
-43.399999999999991
 20
-1.032251762401649
 30
0.0
 11
-31.39999999999997
 21
10.96774823759837
 31
0.0
1001
ACAD
1010
0.0
1020
0.0
1030
0.0
  0
LINE
  5
910
  8
0
 10
-43.399999999999977
 20
-9.4512418759039871
 30
0.0
 11
-31.39999999999997
 21
2.5487581240960391
 31
0.0
1001
ACAD
1010
0.0
1020
0.0
1030
0.0
  0
LINE
  5
911
  8
0
 10
-43.399999999999977
 20
-17.8702319894063
 30
0.0
 11
-31.39999999999997
 21
-5.8702319894062924
 31
0.0
1001
ACAD
1010
0.0
1020
0.0
1030
0.0
  0
LINE
  5
912
  8
0
 10
-43.399999999999977
 20
-26.289222102908639
 30
0.0
 11
-31.39999999999997
 21
-14.289222102908621
 31
0.0
1001
ACAD
1010
0.0
1020
0.0
1030
0.0
  0
LINE
  5
913
  8
0
 10
-43.399999999999977
 20
-34.708212216410963
 30
0.0
 11
-31.399999999999981
 21
-22.70821221641096
 31
0.0
1001
ACAD
1010
0.0
1020
0.0
1030
0.0
  0
LINE
  5
914
  8
0
 10
-43.399999999999977
 20
-43.127202329913288
 30
0.0
 11
-31.399999999999991
 21
-31.127202329913288
 31
0.0
1001
ACAD
1010
0.0
1020
0.0
1030
0.0
  0
LINE
  5
915
  8
0
 10
-43.39999999999997
 20
-51.546192443415599
 30
0.0
 11
-31.399999999999991
 21
-39.54619244341562
 31
0.0
1001
ACAD
1010
0.0
1020
0.0
1030
0.0
  0
LINE
  5
916
  8
0
 10
-43.39999999999997
 20
-59.965182556917931
 30
0.0
 11
-31.399999999999991
 21
-47.965182556917952
 31
0.0
1001
ACAD
1010
0.0
1020
0.0
1030
0.0
  0
LINE
  5
917
  8
0
 10
-43.39999999999997
 20
-68.38417267042027
 30
0.0
 11
-31.399999999999991
 21
-56.384172670420277
 31
0.0
1001
ACAD
1010
0.0
1020
0.0
1030
0.0
  0
LINE
  5
918
  8
0
 10
-43.39999999999997
 20
-76.803162783922602
 30
0.0
 11
-31.399999999999991
 21
-64.803162783922616
 31
0.0
1001
ACAD
1010
0.0
1020
0.0
1030
0.0
  0
LINE
  5
919
  8
0
 10
-43.399999999999949
 20
-85.22215289742492
 30
0.0
 11
-31.399999999999999
 21
-73.222152897424962
 31
0.0
1001
ACAD
1010
0.0
1020
0.0
1030
0.0
  0
LINE
  5
91A
  8
0
 10
-43.399999999999963
 20
-93.641143010927237
 30
0.0
 11
-31.400000000000009
 21
-81.641143010927294
 31
0.0
1001
ACAD
1010
0.0
1020
0.0
1030
0.0
  0
LINE
  5
91B
  8
0
 10
-43.399999999999963
 20
-102.0601331244296
 30
0.0
 11
-31.400000000000009
 21
-90.060133124429626
 31
0.0
1001
ACAD
1010
0.0
1020
0.0
1030
0.0
  0
LINE
  5
91C
  8
0
 10
-43.399999999999949
 20
-110.4791232379319
 30
0.0
 11
-31.400000000000009
 21
-98.479123237931944
 31
0.0
1001
ACAD
1010
0.0
1020
0.0
1030
0.0
  0
LINE
  5
91D
  8
0
 10
-40.062717798783098
 20
-115.5608311502174
 30
0.0
 11
-31.400000000000009
 21
-106.8981133514343
 31
0.0
1001
ACAD
1010
0.0
1020
0.0
1030
0.0
  0
LINE
  5
91E
  8
0
 10
-31.643727685280769
 20
-115.5608311502174
 30
0.0
 11
-31.400000000000009
 21
-115.31710346493659
 31
0.0
1001
ACAD
1010
0.0
1020
0.0
1030
0.0
  0
LINE
  5
91F
  8
0
 10
-52.55980021930803
 20
-7.757588766778027
 30
0.0
 11
-54.468709041389161
 21
-5.8486799446968973
 31
0.0
1001
ACAD
1010
0.0
1020
0.0
1030
0.0
  0
LINE
  5
920
  8
0
 10
-49.39999999999997
 20
-5.3795643780934483
 30
0.0
 11
-54.468709041389161
 21
-0.3108553367042646
 31
0.0
1001
ACAD
1010
0.0
1020
0.0
1030
0.0
  0
LINE
  5
921
  8
0
 10
-49.39999999999997
 20
0.1582602298992128
 30
0.0
 11
-54.468709041389161
 21
5.2269692712883957
 31
0.0
1001
ACAD
1010
0.0
1020
0.0
1030
0.0
  0
LINE
  5
922
  8
0
 10
-49.39999999999997
 20
5.6960848378918589
 30
0.0
 11
-54.446326395330082
 21
10.74241123322196
 31
0.0
1001
ACAD
1010
0.0
1020
0.0
1030
0.0
  0
LINE
  5
923
  8
0
 10
-49.39999999999997
 20
-7.6223697650173143
 30
0.0
 11
-49.535219001760687
 21
-7.7575887667780199
 31
0.0
1001
ACAD
1010
0.0
1020
0.0
1030
0.0
  0
LINE
  5
924
  8
0
 10
-49.39999999999997
 20
-2.084545157024678
 30
0.0
 11
-54.468709041389161
 21
-7.1532541984138582
 31
0.0
1001
ACAD
1010
0.0
1020
0.0
1030
0.0
  0
LINE
  5
925
  8
0
 10
-49.399999999999991
 20
3.453279450967965
 30
0.0
 11
-54.468709041389182
 21
-1.615429590421211
 31
0.0
1001
ACAD
1010
0.0
1020
0.0
1030
0.0
  0
LINE
  5
926
  8
0
 10
-49.39999999999997
 20
8.9911040589606017
 30
0.0
 11
-54.468709041389168
 21
3.9223950175714211
 31
0.0
1001
ACAD
1010
0.0
1020
0.0
1030
0.0
  0
LINE
  5
927
  8
0
 10
-53.186517433731268
 20
10.74241123322196
 30
0.0
 11
-54.468709041389161
 21
9.460219625564072
 31
0.0
1001
ACAD
1010
0.0
1020
0.0
1030
0.0
  0
ENDSEC
  0
EOF
