  0
SECTION
  2
HEADER
  9
$ACADVER
  1
AC1009
  9
$INSBASE
 10
0.0
 20
0.0
 30
0.0
  9
$EXTMIN
 10
-149.3735083895516
 20
-97.191661982584719
 30
-0.0015258207003583
  9
$EXTMAX
 10
169.70536018118941
 20
230.18157595254451
 30
0.0000000349246037
  9
$LIMMIN
 10
0.0
 20
0.0
  9
$LIMMAX
 10
12.0
 20
9.0
  9
$ORTHOMODE
 70
     0
  9
$REGENMODE
 70
     1
  9
$FILLMODE
 70
     1
  9
$QTEXTMODE
 70
     0
  9
$MIRRTEXT
 70
     0
  9
$DRAGMODE
 70
     2
  9
$LTSCALE
 40
0.5
  9
$OSMODE
 70
     0
  9
$ATTMODE
 70
     1
  9
$TEXTSIZE
 40
1.5
  9
$TRACEWID
 40
0.05
  9
$TEXTSTYLE
  7
ARIAL
  9
$CLAYER
  8
0
  9
$CELTYPE
  6
CONTINUOUS
  9
$CECOLOR
 62
   256
  9
$DIMSCALE
 40
2.0
  9
$DIMASZ
 40
2.5
  9
$DIMEXO
 40
2.0
  9
$DIMDLI
 40
6.0
  9
$DIMRND
 40
0.0
  9
$DIMDLE
 40
2.0
  9
$DIMEXE
 40
2.0
  9
$DIMTP
 40
0.0
  9
$DIMTM
 40
0.0
  9
$DIMTXT
 40
2.5
  9
$DIMCEN
 40
2.0
  9
$DIMTSZ
 40
0.0
  9
$DIMTOL
 70
     0
  9
$DIMLIM
 70
     0
  9
$DIMTIH
 70
     0
  9
$DIMTOH
 70
     0
  9
$DIMSE1
 70
     0
  9
$DIMSE2
 70
     0
  9
$DIMTAD
 70
     1
  9
$DIMZIN
 70
     0
  9
$DIMBLK
  1
ARCHTICK
  9
$DIMASO
 70
     1
  9
$DIMSHO
 70
     1
  9
$DIMPOST
  1
mm
  9
$DIMAPOST
  1

  9
$DIMALT
 70
     0
  9
$DIMALTD
 70
     2
  9
$DIMALTF
 40
0.0394
  9
$DIMLFAC
 40
1.0
  9
$DIMTOFL
 70
     0
  9
$DIMTVP
 40
0.0
  9
$DIMTIX
 70
     0
  9
$DIMSOXD
 70
     0
  9
$DIMSAH
 70
     0
  9
$DIMBLK1
  1

  9
$DIMBLK2
  1

  9
$DIMSTYLE
  2
1_TO_2
  9
$DIMCLRD
 70
   256
  9
$DIMCLRE
 70
   256
  9
$DIMCLRT
 70
   256
  9
$DIMTFAC
 40
1.0
  9
$DIMGAP
 40
1.0
  9
$LUNITS
 70
     2
  9
$LUPREC
 70
     1
  9
$SKETCHINC
 40
0.1
  9
$FILLETRAD
 40
0.0
  9
$AUNITS
 70
     1
  9
$AUPREC
 70
     4
  9
$MENU
  1
.
  9
$ELEVATION
 40
0.0
  9
$PELEVATION
 40
0.0
  9
$THICKNESS
 40
0.0
  9
$LIMCHECK
 70
     0
  9
$BLIPMODE
 70
     0
  9
$CHAMFERA
 40
0.0
  9
$CHAMFERB
 40
0.0
  9
$SKPOLY
 70
     0
  9
$TDCREATE
 40
2452152.65359294
  9
$TDUPDATE
 40
2455936.5399430441
  9
$TDINDWG
 40
13.779018599500001
  9
$TDUSRTIMER
 40
13.779018599500001
  9
$USRTIMER
 70
     1
  9
$ANGBASE
 50
0.0
  9
$ANGDIR
 70
     0
  9
$PDMODE
 70
     3
  9
$PDSIZE
 40
0.0
  9
$PLINEWID
 40
0.0
  9
$COORDS
 70
     1
  9
$SPLFRAME
 70
     0
  9
$SPLINETYPE
 70
     6
  9
$SPLINESEGS
 70
     8
  9
$ATTDIA
 70
     0
  9
$ATTREQ
 70
     1
  9
$HANDLING
 70
     1
  9
$HANDSEED
  5
A89
  9
$SURFTAB1
 70
     6
  9
$SURFTAB2
 70
     6
  9
$SURFTYPE
 70
     6
  9
$SURFU
 70
     6
  9
$SURFV
 70
     6
  9
$UCSNAME
  2

  9
$UCSORG
 10
0.0
 20
0.0
 30
0.0
  9
$UCSXDIR
 10
1.0
 20
0.0
 30
0.0
  9
$UCSYDIR
 10
0.0
 20
1.0
 30
0.0
  9
$PUCSNAME
  2

  9
$PUCSORG
 10
0.0
 20
0.0
 30
0.0
  9
$PUCSXDIR
 10
1.0
 20
0.0
 30
0.0
  9
$PUCSYDIR
 10
0.0
 20
1.0
 30
0.0
  9
$USERI1
 70
     0
  9
$USERI2
 70
     0
  9
$USERI3
 70
     0
  9
$USERI4
 70
     0
  9
$USERI5
 70
     0
  9
$USERR1
 40
0.0
  9
$USERR2
 40
0.0
  9
$USERR3
 40
0.0
  9
$USERR4
 40
0.0
  9
$USERR5
 40
0.0
  9
$WORLDVIEW
 70
     1
  9
$SHADEDGE
 70
     3
  9
$SHADEDIF
 70
    70
  9
$TILEMODE
 70
     1
  9
$MAXACTVP
 70
    48
  9
$PLIMCHECK
 70
     0
  9
$PEXTMIN
 10
0.0
 20
0.0
 30
0.0
  9
$PEXTMAX
 10
0.0
 20
0.0
 30
0.0
  9
$PLIMMIN
 10
0.0
 20
0.0
  9
$PLIMMAX
 10
12.0
 20
9.0
  9
$UNITMODE
 70
     0
  9
$VISRETAIN
 70
     1
  9
$PLINEGEN
 70
     1
  9
$PSLTSCALE
 70
     1
  0
ENDSEC
  0
SECTION
  2
TABLES
  0
TABLE
  2
VPORT
 70
     1
  0
VPORT
  2
*ACTIVE
 70
     0
 10
0.0
 20
0.0
 11
1.0
 21
1.0
 12
10.16592589581896
 22
66.494956984979851
 13
0.0
 23
0.0
 14
1.0
 24
1.0
 15
0.5
 25
0.5
 16
0.0
 26
0.0
 36
1.0
 17
0.0
 27
0.0
 37
0.0
 40
329.34141371429831
 41
1.9087261785356071
 42
50.0
 43
0.0
 44
0.0
 50
0.0
 51
0.0
 71
     0
 72
 20000
 73
     1
 74
     3
 75
     0
 76
     0
 77
     0
 78
     0
  0
ENDTAB
  0
TABLE
  2
LTYPE
 70
     2
  0
LTYPE
  2
CONTINUOUS
 70
     0
  3
Solid line
 72
    65
 73
     0
 40
0.0
  0
LTYPE
  2
HCAV-18_METR_FLSH_HZ$0$DAS
 70
     0
  3
Dashed __ __ __ __ __ __ __ __ __ __ __ __ __ _
 72
    65
 73
     2
 40
19.050000000000001
 49
12.699999999999999
 49
-6.3499999999999988
  0
ENDTAB
  0
TABLE
  2
LAYER
 70
     4
  0
LAYER
  2
0
 70
     0
 62
     7
  6
CONTINUOUS
  0
LAYER
  2
DEFPOINTS
 70
     0
 62
   231
  6
CONTINUOUS
  0
ENDTAB
  0
TABLE
  2
STYLE
 70
     5
  0
STYLE
  2
STANDARD
 70
     0
 40
0.0
 41
1.0
 50
0.0
 71
     0
 42
1.5
  3
romans.shx
  4

  0
STYLE
  2
ARIAL
 70
     0
 40
0.0
 41
1.0
 50
0.0
 71
     0
 42
1.5
  3
txt
  4

  0
STYLE
  2
HCAV-18_METR_FLSH_HZ$0$TEX
 70
     0
 40
0.0
 41
1.0
 50
0.0
 71
     0
 42
2.5
  3
txt
  4

  0
STYLE
  2
HCAV-18_METR_FLSH_HZ$0$ARI
 70
     0
 40
0.0
 41
1.0
 50
0.0
 71
     0
 42
1.5
  3
txt
  4

  0
ENDTAB
  0
TABLE
  2
VIEW
 70
     2
  0
VIEW
  2
COMM-04
 70
     1
 40
477.26027331217421
 10
194.21746115522001
 20
180.60494410563541
 41
755.81685306636155
 11
0.0
 21
0.0
 31
1.0
 12
0.0
 22
0.0
 32
0.0
 42
50.0
 43
0.0
 44
0.0
 50
0.0
 71
     0
  0
ENDTAB
  0
TABLE
  2
UCS
 70
     0
  0
ENDTAB
  0
TABLE
  2
APPID
 70
    24
  0
APPID
  2
ACAD
 70
     0
  0
APPID
  2
RAK
 70
     0
  0
APPID
  2
GENIUS_GENOREF_13
 70
     0
  0
APPID
  2
ACAD_EXEMPT_FROM_CAD_STANDARDS
 70
     0
  0
APPID
  2
ACAD_MLEADERVER
 70
     0
  0
APPID
  2
ACAD_DSTYLE_DIMEXT_ENABLED
 70
     0
  0
APPID
  2
ACAD_DSTYLE_DIMEXT_LENGTH
 70
     0
  0
APPID
  2
GENIUS_GENODEF_13
 70
     0
  0
APPID
  2
GENIUS_GENSCREG_15
 70
     0
  0
APPID
  2
GENIUS_GENOBJ-N-SDF_13
 70
     0
  0
APPID
  2
GENIUS_GENCFG_13
 70
     0
  0
APPID
  2
GENIUS_GENCFG0_13
 70
     0
  0
APPID
  2
ACAD_PSEXT
 70
     0
  0
APPID
  2
ACAECLAYERSTANDARD
 70
     0
  0
APPID
  2
ACCMTRANSPARENCY
 70
     0
  0
APPID
  2
ACADANNOPO
 70
     0
  0
APPID
  2
ADESKUNDERLAYLAYEROVERRIDEDATA
 70
     0
  0
APPID
  2
URBANX
 70
     0
  0
APPID
  2
GRADIENTCOLOR1ACI
 70
     0
  0
APPID
  2
GRADIENTCOLOR2ACI
 70
     0
  0
APPID
  2
ACAD_NAV_VCDISPLAY
 70
     0
  0
APPID
  2
ACADANNOTATIVE
 70
     0
  0
APPID
  2
ACAD_DSTYLE_DIMJOGGED_JOGA
 70
     0
  0
APPID
  2
PE_URL
 70
     0
  0
ENDTAB
  0
TABLE
  2
DIMSTYLE
 70
     3
  0
DIMSTYLE
  2
1_TO_2
 70
     0
  3
mm
  4

  5
ARCHTICK
  6

  7

 40
2.0
 41
2.5
 42
2.0
 43
6.0
 44
2.0
 45
0.0
 46
2.0
 47
0.0
 48
0.0
140
2.5
141
2.0
142
0.0
143
0.0394
144
1.0
145
0.0
146
1.0
147
1.0
 71
     0
 72
     0
 73
     0
 74
     0
 75
     0
 76
     0
 77
     1
 78
     0
170
     0
171
     2
172
     0
173
     0
174
     0
175
     0
176
   256
177
   256
178
   256
  0
DIMSTYLE
  2
HCAV-18_METR_FLSH_HZ$0$1_T
 70
     0
  3

  4

  5
HCAV-18_METR_FLSH_HZ$0$_AR
  6

  7

 40
2.0
 41
2.0
 42
2.0
 43
6.0
 44
2.0
 45
0.0
 46
2.0
 47
0.0
 48
0.0
140
2.0
141
2.0
142
0.0
143
0.0394
144
1.0
145
0.0
146
1.0
147
1.0
 71
     0
 72
     0
 73
     0
 74
     0
 75
     0
 76
     0
 77
     1
 78
     0
170
     0
171
     2
172
     0
173
     0
174
     0
175
     0
176
   256
177
   256
178
   256
  0
DIMSTYLE
  2
HCAV-18_METR_FLSH_HZ$0$1_0
 70
     0
  3

  4

  5
HCAV-18_METR_FLSH_HZ$0$_AR
  6

  7

 40
2.0
 41
2.0
 42
2.0
 43
6.0
 44
1.5
 45
0.0
 46
1.5
 47
0.0
 48
0.0
140
2.0
141
2.0
142
0.0
143
0.0394
144
1.0
145
0.0
146
1.0
147
1.0
 71
     0
 72
     0
 73
     0
 74
     0
 75
     0
 76
     0
 77
     0
 78
     0
170
     0
171
     2
172
     1
173
     0
174
     1
175
     0
176
     0
177
     0
178
     0
  0
ENDTAB
  0
ENDSEC
  0
SECTION
  2
BLOCKS
  0
BLOCK
  8
0
  2
$MODEL_SPACE
 70
     2
 10
0.0
 20
0.0
 30
0.0
  3
$MODEL_SPACE
  1

  0
ENDBLK
  5
C
  8
0
  0
BLOCK
 67
     1
  8
0
  2
$PAPER_SPACE
 70
     0
 10
0.0
 20
0.0
 30
0.0
  3
$PAPER_SPACE
  1

  0
ENDBLK
  5
728
 67
     1
  8
0
  0
BLOCK
  8
0
  2
_ARCHTICK
 70
     0
 10
0.0
 20
0.0
 30
0.0
  3
_ARCHTICK
  1

  0
POLYLINE
  5
1AF
  8
0
  6
BYBLOCK
 62
     0
 66
     1
 10
0.0
 20
0.0
 30
0.0
 40
0.15
 41
0.15
  0
VERTEX
  5
981
  8
0
  6
BYBLOCK
 62
     0
 10
-0.5
 20
-0.5
 30
0.0
  0
VERTEX
  5
982
  8
0
  6
BYBLOCK
 62
     0
 10
0.5
 20
0.5
 30
0.0
  0
SEQEND
  5
983
  8
0
  6
BYBLOCK
 62
     0
  0
ENDBLK
  5
1B1
  8
0
  0
BLOCK
  8
0
  2
HCAV-18_METR_FLSH_HZ$0$_AR
 70
     0
 10
0.0
 20
0.0
 30
0.0
  3
HCAV-18_METR_FLSH_HZ$0$_AR
  1

  0
POLYLINE
  5
65A
  8
0
  6
BYBLOCK
 62
     0
 66
     1
 10
0.0
 20
0.0
 30
0.0
 40
0.15
 41
0.15
  0
VERTEX
  5
9A5
  8
0
  6
BYBLOCK
 62
     0
 10
-0.5
 20
-0.5
 30
0.0
  0
VERTEX
  5
9A6
  8
0
  6
BYBLOCK
 62
     0
 10
0.5
 20
0.5
 30
0.0
  0
SEQEND
  5
9A7
  8
0
  6
BYBLOCK
 62
     0
  0
ENDBLK
  5
65B
  8
0
  0
BLOCK
  8
0
  2
*D6
 70
     1
 10
0.0
 20
0.0
 30
0.0
  3
*D6
  1

  0
LINE
  5
72A
  8
0
 10
74.626684214566069
 20
30.116640741742099
 30
0.0
 11
88.233547529211421
 21
26.822210481961399
 31
0.0
  0
LINE
  5
72B
  8
0
 10
73.471634689834204
 20
25.345982459323761
 30
0.0
 11
87.078498004479584
 21
22.05155219954306
 31
0.0
  0
LINE
  5
72C
  8
0
 10
85.287138084964397
 20
31.651151503225979
 30
0.0
 11
82.249556983214987
 21
19.105142755296018
 31
0.0
  0
LINE
  5
72D
  8
0
 10
96.990680235672329
 20
79.989858285404011
 30
0.0
 11
84.34587229645561
 21
27.763476270470171
 31
0.0
  0
INSERT
  5
72E
  8
0
  6
CONTINUOUS
  2
*U24
 10
0.0
 20
0.0
 30
0.0
  0
INSERT
  5
72F
  8
0
  2
HCAV-18_METR_FLSH_HZ$0$_AR
 10
84.34587229645561
 20
27.763476270470171
 30
0.0
 41
4.0
 42
4.0
 43
4.0
 50
76.389723023240975
  0
INSERT
  5
730
  8
0
  2
HCAV-18_METR_FLSH_HZ$0$_AR
 10
83.190822771723745
 20
22.992817988051829
 30
0.0
 41
4.0
 42
4.0
 43
4.0
 50
256.389723023241
  0
POINT
  5
731
  8
DEFPOINTS
 62
     0
 10
34.453369639415961
 20
39.843216228806348
 30
0.0
  0
POINT
  5
732
  8
DEFPOINTS
 62
     0
 10
33.298320114684103
 20
35.072557946388017
 30
0.0
  0
POINT
  5
733
  8
DEFPOINTS
 62
     0
 10
83.190822771723745
 20
22.992817988051829
 30
0.0
  0
ENDBLK
  5
710
  8
0
  0
BLOCK
  8
0
  2
*U8
 70
     1
 10
0.0
 20
0.0
 30
0.0
  3
*U8
  1

  0
TEXT
  5
9B3
  8
0
  6
CONTINUOUS
 10
-147.1673192792517
 20
125.169110538464
 30
0.0
 40
4.0
  1
Internal
  7
HCAV-18_METR_FLSH_HZ$0$TEX
  0
TEXT
  5
9B4
  8
0
  6
CONTINUOUS
 10
-149.36377221240309
 20
118.5024438717973
 30
0.0
 40
4.0
  1
cladding
  7
HCAV-18_METR_FLSH_HZ$0$TEX
  0
ENDBLK
  5
9B6
  8
0
  0
BLOCK
  8
0
  2
*U9
 70
     1
 10
0.0
 20
0.0
 30
0.0
  3
*U9
  1

  0
SOLID
  5
9B8
  8
0
 10
-107.6195906376666
 20
111.8856444167286
 30
0.0
 11
-104.97138033535521
 21
108.8145816301389
 31
0.0
 12
-108.47246449805721
 22
110.86076200589299
 32
0.0
 13
-108.47246449805721
 23
110.86076200589299
 33
0.0
  0
POLYLINE
  5
9B9
  8
0
 66
     1
 10
0.0
 20
0.0
 30
0.0
  0
VERTEX
  5
9BA
  8
0
 10
-108.0460275678619
 20
111.37320321131079
 30
0.0
  0
VERTEX
  5
9BB
  8
0
 10
-122.31548543314049
 20
123.2477826621566
 30
0.0
  0
VERTEX
  5
9BC
  8
0
 10
-126.9217531128124
 20
123.2477826621566
 30
0.0
  0
SEQEND
  5
9BD
  8
0
  0
ENDBLK
  5
9BF
  8
0
  0
BLOCK
  8
0
  2
*U10
 70
     1
 10
0.0
 20
0.0
 30
0.0
  3
*U10
  1

  0
TEXT
  5
9C1
  8
0
  6
CONTINUOUS
 10
79.568894952251028
 20
220.1396100306643
 30
0.0
 40
4.0
  1
Pan fix to stud
  7
HCAV-18_METR_FLSH_HZ$0$TEX
  0
TEXT
  5
9C2
  8
0
  6
CONTINUOUS
 10
79.90177353342429
 20
213.4729433639977
 30
0.0
 40
4.0
  1
through batten
  7
HCAV-18_METR_FLSH_HZ$0$TEX
  0
ENDBLK
  5
9C4
  8
0
  0
BLOCK
  8
0
  2
*U11
 70
     1
 10
0.0
 20
0.0
 30
0.0
  3
*U11
  1

  0
SOLID
  5
9C6
  8
0
 10
-41.987055746418029
 20
211.0959494377951
 30
0.0
 11
-38.288130386037523
 21
209.4339038238667
 31
0.0
 12
-42.326155655779623
 22
209.806457666108
 32
0.0
 13
-42.326155655779623
 23
209.806457666108
 33
0.0
210
0.0
220
0.0
230
-1.0
  0
POLYLINE
  5
9C7
  8
0
 66
     1
 10
0.0
 20
0.0
 30
0.0
210
0.0
220
0.0
230
-1.0
  0
VERTEX
  5
9C8
  8
0
 10
-42.156605701098833
 20
210.45120355195149
 30
0.0
  0
VERTEX
  5
9C9
  8
0
 10
-71.822092502408836
 20
218.2523885663623
 30
0.0
  0
VERTEX
  5
9CA
  8
0
 10
-76.428360182077085
 20
218.2523885663623
 30
0.0
  0
SEQEND
  5
9CB
  8
0
  0
ENDBLK
  5
9CD
  8
0
  0
BLOCK
  8
0
  2
*U12
 70
     1
 10
0.0
 20
0.0
 30
0.0
  3
*U12
  1

  0
TEXT
  5
9CF
  8
0
  6
CONTINUOUS
 10
79.590723055934504
 20
150.66638130165151
 30
0.0
 40
4.0
  1
Building wrap
  7
HCAV-18_METR_FLSH_HZ$0$TEX
  0
ENDBLK
  5
9D1
  8
0
  0
BLOCK
  8
0
  2
*U13
 70
     1
 10
0.0
 20
0.0
 30
0.0
  3
*U13
  1

  0
SOLID
  5
9D3
  8
0
 10
-5.6458375236028502
 20
132.60064114826471
 30
0.0
 11
-2.0
 21
130.82516566380031
 31
0.0
 12
-6.0245951118830217
 22
131.32223570901701
 32
0.0
 13
-6.0245951118830217
 23
131.32223570901701
 33
0.0
210
0.0
220
0.0
230
-1.0
  0
POLYLINE
  5
9D4
  8
0
 66
     1
 10
0.0
 20
0.0
 30
0.0
210
0.0
220
0.0
230
-1.0
  0
VERTEX
  5
9D5
  8
0
 10
-5.8352163177429359
 20
131.96143842864089
 30
0.0
  0
VERTEX
  5
9D6
  8
0
 10
-73.735152746630774
 20
152.0783867586774
 30
0.0
  0
VERTEX
  5
9D7
  8
0
 10
-78.34142042629901
 20
152.0783867586774
 30
0.0
  0
SEQEND
  5
9D8
  8
0
  0
ENDBLK
  5
9DA
  8
0
  0
BLOCK
  8
0
  2
*U14
 70
     1
 10
0.0
 20
0.0
 30
0.0
  3
*U14
  1

  0
TEXT
  5
9DC
  8
0
  6
CONTINUOUS
 10
81.721691678035469
 20
93.229844518141462
 30
0.0
 40
4.0
  1
Cavity battens
  7
HCAV-18_METR_FLSH_HZ$0$TEX
  0
ENDBLK
  5
9DE
  8
0
  0
BLOCK
  8
0
  2
*U15
 70
     1
 10
0.0
 20
0.0
 30
0.0
  3
*U15
  1

  0
SOLID
  5
9E0
  8
0
 10
-24.147014194564161
 20
80.124143262787555
 30
0.0
 11
-20.500000000003642
 21
78.35108604173729
 31
0.0
 12
-24.52492387736098
 22
78.845486917467923
 32
0.0
 13
-24.52492387736098
 23
78.845486917467923
 33
0.0
210
0.0
220
0.0
230
-1.0
  0
POLYLINE
  5
9E1
  8
0
 66
     1
 10
0.0
 20
0.0
 30
0.0
210
0.0
220
0.0
230
-1.0
  0
VERTEX
  5
9E2
  8
0
 10
-24.33596903596257
 20
79.484815090127739
 30
0.0
  0
VERTEX
  5
9E3
  8
0
 10
-75.735152746630774
 20
94.675956387172846
 30
0.0
  0
VERTEX
  5
9E4
  8
0
 10
-80.341420426298995
 20
94.675956387172846
 30
0.0
  0
SEQEND
  5
9E5
  8
0
  0
ENDBLK
  5
9E7
  8
0
  0
BLOCK
  8
0
  2
*U16
 70
     1
 10
0.0
 20
0.0
 30
0.0
  3
*U16
  1

  0
TEXT
  5
9E9
  8
0
  6
CONTINUOUS
 10
79.552523874488401
 20
197.44220756670541
 30
0.0
 40
4.0
  1
Horizontal Steel & Tube
  7
HCAV-18_METR_FLSH_HZ$0$TEX
  0
TEXT
  5
9EA
  8
0
  6
CONTINUOUS
 10
79.721691678035469
 20
190.7045995630674
 30
0.0
 40
4.0
  1
Custom Orb wall cladding
  7
HCAV-18_METR_FLSH_HZ$0$TEX
  0
ENDBLK
  5
9EC
  8
0
  0
BLOCK
  8
0
  2
*U17
 70
     1
 10
0.0
 20
0.0
 30
0.0
  3
*U17
  1

  0
SOLID
  5
9EE
  8
0
 10
-45.365850907439523
 20
183.90218421927551
 30
0.0
 11
-42.023529722937923
 21
181.6058102201028
 31
0.0
 12
-45.929954843144088
 22
182.6940598351575
 32
0.0
 13
-45.929954843144088
 23
182.6940598351575
 33
0.0
210
0.0
220
0.0
230
-1.0
  0
POLYLINE
  5
9EF
  8
0
 66
     1
 10
0.0
 20
0.0
 30
0.0
210
0.0
220
0.0
230
-1.0
  0
VERTEX
  5
9F0
  8
0
 10
-45.647902875291798
 20
183.29812202721649
 30
0.0
  0
VERTEX
  5
9F1
  8
0
 10
-71.82209250240885
 20
195.5195154339178
 30
0.0
  0
VERTEX
  5
9F2
  8
0
 10
-76.428360182077085
 20
195.5195154339178
 30
0.0
  0
SEQEND
  5
9F3
  8
0
  0
ENDBLK
  5
9F5
  8
0
  0
BLOCK
  8
0
  2
*U18
 70
     1
 10
0.0
 20
0.0
 30
0.0
  3
*U18
  1

  0
SOLID
  5
A22
  8
0
 10
31.991412077816069
 20
110.2335253135529
 30
0.0
 11
27.999999999991271
 21
109.5172334251172
 31
0.0
 12
31.543349190873421
 22
111.4893188583374
 32
0.0
 13
31.543349190873421
 23
111.4893188583374
 33
0.0
  0
POLYLINE
  5
A23
  8
0
 66
     1
 10
0.0
 20
0.0
 30
0.0
  0
VERTEX
  5
A24
  8
0
 10
31.76738063434474
 20
110.86142208594519
 30
0.0
  0
VERTEX
  5
A25
  8
0
 10
76.0
 20
126.64347098428701
 30
0.0
  0
VERTEX
  5
A26
  8
0
 10
80.0
 20
126.64347098428701
 30
0.0
  0
SEQEND
  5
A27
  8
0
  0
ENDBLK
  5
A29
  8
0
  0
BLOCK
  8
0
  2
*U19
 70
     1
 10
0.0
 20
0.0
 30
0.0
  3
*U19
  1

  0
TEXT
  5
A2B
  8
0
  6
CONTINUOUS
 10
81.552523874488401
 20
124.57525816027599
 30
0.0
 40
4.0
  1
Head flashing
  7
HCAV-18_METR_FLSH_HZ$0$TEX
  0
ENDBLK
  5
A2D
  8
0
  0
BLOCK
  8
0
  2
*U20
 70
     1
 10
0.0
 20
0.0
 30
0.0
  3
*U20
  1

  0
TEXT
  5
A65
  8
0
  6
CONTINUOUS
 10
-14.164186686933769
 20
-35.009002256720123
 30
0.0
 40
4.0
  1
Meter box
  7
HCAV-18_METR_FLSH_HZ$0$ARI
  0
ENDBLK
  5
A67
  8
0
  0
BLOCK
  8
0
  2
*U21
 70
     1
 10
0.0
 20
0.0
 30
0.0
  3
*U21
  1

  0
SOLID
  5
A69
  8
0
 10
70.555076720920539
 20
0.1098379618200562
 30
0.0
 11
66.60344931135478
 21
-0.8007032291279757
 31
0.0
 12
70.046164582798696
 22
1.3422284086550029
 32
0.0
 13
70.046164582798696
 23
1.3422284086550029
 33
0.0
  0
POLYLINE
  5
A6A
  8
0
 66
     1
 10
0.0
 20
0.0
 30
0.0
  0
VERTEX
  5
A6B
  8
0
 10
70.300620651859617
 20
0.7260331852375297
 30
0.0
  0
VERTEX
  5
A6C
  8
0
 10
110.4568776342667
 20
17.308445563044302
 30
0.0
  0
VERTEX
  5
A6D
  8
0
 10
114.4568776342667
 20
17.308445563044302
 30
0.0
  0
SEQEND
  5
A6E
  8
0
  0
ENDBLK
  5
A70
  8
0
  0
BLOCK
  8
0
  2
*U22
 70
     1
 10
0.0
 20
0.0
 30
0.0
  3
*U22
  1

  0
TEXT
  5
A72
  8
0
  6
CONTINUOUS
 10
116.2222255196691
 20
15.80026002416299
 30
0.0
 40
4.0
  1
30x30 angle to head
  7
HCAV-18_METR_FLSH_HZ$0$ARI
  0
TEXT
  5
A73
  8
0
  6
CONTINUOUS
 10
116.27133875295701
 20
9.0913014066095599
 30
0.0
 40
4.0
  1
of meter box, position
  7
HCAV-18_METR_FLSH_HZ$0$ARI
  0
TEXT
  5
A74
  8
0
  6
CONTINUOUS
 10
116.35865116769089
 20
2.3905283279374361
 30
0.0
 40
4.0
  1
to suit cladding, seal
  7
HCAV-18_METR_FLSH_HZ$0$ARI
  0
TEXT
  5
A75
  8
0
  6
CONTINUOUS
 10
116.4568776342667
 20
-4.2761383387292291
 30
0.0
 40
4.0
  1
jamb angle to head
  7
HCAV-18_METR_FLSH_HZ$0$ARI
  0
ENDBLK
  5
A77
  8
0
  0
BLOCK
  8
0
  2
*U23
 70
     1
 10
0.0
 20
0.0
 30
0.0
  3
*U23
  1

  0
TEXT
  5
A79
  8
0
  6
CONTINUOUS
 10
-114.0184251220788
 20
-82.561781838458316
 30
0.0
 40
4.0
  1
%%UNOTES:
  7
HCAV-18_METR_FLSH_HZ$0$TEX
  0
TEXT
  5
A7A
  8
0
  6
CONTINUOUS
 10
-114.2121495422698
 20
-89.262554917130416
 30
0.0
 40
4.0
  1
1.     Cavity battens containing copper must be separated from steel cladding by building paper, building
  7
HCAV-18_METR_FLSH_HZ$0$TEX
  0
TEXT
  5
A7B
  8
0
  6
CONTINUOUS
 10
-101.62006222985499
 20
-95.997434407808015
 30
0.0
 40
4.0
  1
wrap, DPC/PVC strips or by painting, otherwise use uPVC Cavibat 
  7
HCAV-18_METR_FLSH_HZ$0$TEX
  0
TEXT
  5
A7C
  8
0
  6
CONTINUOUS
 10
64.135463008889843
 20
-93.530767741141347
 30
0.0
 40
2.7999999999999989
  1
TM
  7
HCAV-18_METR_FLSH_HZ$0$TEX
  0
TEXT
  5
A7D
  8
0
  6
CONTINUOUS
 10
64.227141044360494
 20
-94.464101074474684
 30
0.0
 40
2.7999999999999989
  1

  7
HCAV-18_METR_FLSH_HZ$0$TEX
  0
TEXT
  5
A7E
  8
0
  6
CONTINUOUS
 10
69.674344318576061
 20
-95.997474407807999
 30
0.0
 40
4.0000799999999987
  1
.
  7
HCAV-18_METR_FLSH_HZ$0$TEX
  0
ENDBLK
  5
A80
  8
0
  0
BLOCK
  8
0
  2
*U24
 70
     1
 10
0.0
 20
0.0
 30
0.0
  3
*U24
  1

  0
TEXT
  5
A86
  8
0
  6
CONTINUOUS
 10
85.575592175300315
 20
41.631613168270619
 30
0.0
 40
4.0
  1
5mm clearance
 50
76.389723023241032
  7
HCAV-18_METR_FLSH_HZ$0$ARI
  0
ENDBLK
  5
A88
  8
0
  0
ENDSEC
  0
SECTION
  2
ENTITIES
  0
LINE
  5
6BC
  8
0
  6
CONTINUOUS
 10
-100.0
 20
0.0000000000013642
 30
0.0
 11
0.0
 21
50.0
 31
0.0
  0
LINE
  5
6BD
  8
0
  6
CONTINUOUS
 10
0.0
 20
0.0
 30
0.0
 11
-100.0
 21
50.000000000001357
 31
0.0
  0
POLYLINE
  5
6BE
  8
0
  6
CONTINUOUS
 66
     1
 10
0.0
 20
0.0
 30
0.0
 70
     1
  0
VERTEX
  5
9A8
  8
0
  6
CONTINUOUS
 10
0.0
 20
50.0
 30
0.0
  0
VERTEX
  5
9A9
  8
0
  6
CONTINUOUS
 10
0.0
 20
0.0
 30
0.0
  0
VERTEX
  5
9AA
  8
0
  6
CONTINUOUS
 10
-100.0
 20
0.0000000000013642
 30
0.0
  0
VERTEX
  5
9AB
  8
0
  6
CONTINUOUS
 10
-100.0
 20
50.000000000001357
 30
0.0
  0
SEQEND
  5
9AC
  8
0
  6
CONTINUOUS
  0
POLYLINE
  5
6BF
  8
0
  6
CONTINUOUS
 66
     1
 10
0.0
 20
0.0
 30
0.0
 70
     1
 40
0.5
 41
0.5
  0
VERTEX
  5
9AD
  8
0
  6
CONTINUOUS
 10
-0.25
 20
49.75
 30
0.0
  0
VERTEX
  5
9AE
  8
0
  6
CONTINUOUS
 10
-0.25
 20
0.25
 30
0.0
  0
VERTEX
  5
9AF
  8
0
  6
CONTINUOUS
 10
-99.750000000000014
 20
0.2500000000013609
 30
0.0
  0
VERTEX
  5
9B0
  8
0
  6
CONTINUOUS
 10
-99.750000000000014
 20
49.750000000001357
 30
0.0
  0
SEQEND
  5
9B1
  8
0
  6
CONTINUOUS
  0
LINE
  5
6C0
  8
0
  6
CONTINUOUS
 10
-101.0
 20
-1.999999999998181
 30
0.0
 11
-101.0000000000055
 21
227.42410774227761
 31
0.0
  0
LINE
  5
6C1
  8
0
  6
CONTINUOUS
 10
-109.0
 20
-1.9999999999986351
 30
0.0
 11
-101.0
 21
-1.999999999998181
 31
0.0
  0
LINE
  5
6C2
  8
0
  6
CONTINUOUS
 10
-109.0
 20
-1.9999999999986351
 30
0.0
 11
-109.0
 21
227.42410774227761
 31
0.0
  0
INSERT
  5
6C3
  8
0
  6
CONTINUOUS
  2
*U8
 10
0.0
 20
0.0
 30
0.0
  0
INSERT
  5
6C4
  8
0
  6
CONTINUOUS
  2
*U9
 10
0.0
 20
0.0
 30
0.0
  0
INSERT
  5
6C5
  8
0
  6
CONTINUOUS
  2
*U10
 10
0.0
 20
0.0
 30
0.0
  0
INSERT
  5
6C6
  8
0
  6
CONTINUOUS
  2
*U11
 10
0.0
 20
0.0
 30
0.0
1001
ACAD
1000
DSTYLE
1002
{
1070
   176
1070
   256
1002
}
  0
INSERT
  5
6C7
  8
0
  6
CONTINUOUS
  2
*U12
 10
0.0
 20
0.0
 30
0.0
  0
INSERT
  5
6C8
  8
0
  6
CONTINUOUS
  2
*U13
 10
0.0
 20
0.0
 30
0.0
1001
ACAD
1000
DSTYLE
1002
{
1070
   176
1070
   256
1002
}
  0
LINE
  5
6C9
  8
0
  6
HCAV-18_METR_FLSH_HZ$0$DAS
 10
-100.0000000000036
 20
-1.9999999999986351
 30
0.0
 11
2.0000000000000022
 21
-1.9999999999986351
 31
0.0
  0
LINE
  5
6CA
  8
0
  6
HCAV-18_METR_FLSH_HZ$0$DAS
 10
1.999999999999998
 20
227.42410774227761
 30
0.0
 11
2.0000000000000022
 21
-1.9999999999986351
 31
0.0
  0
LINE
  5
6CB
  8
0
  6
CONTINUOUS
 10
-0.000000000003638
 20
50.0
 30
0.0
 11
0.0000000000029292
 21
227.42410774227761
 31
0.0
  0
LINE
  5
6CD
  8
0
  6
CONTINUOUS
 10
5.999999999993368
 20
227.42410774227761
 30
0.0
 11
6.0000000000000027
 21
52.000000000000007
 31
0.0
  0
LINE
  5
6CE
  8
0
  6
CONTINUOUS
 10
23.999999999986741
 20
227.42410774227761
 30
0.0
 11
24.0
 21
52.000000000000007
 31
0.0
  0
LINE
  5
6CF
  8
0
  6
CONTINUOUS
 10
6.0000000000000027
 20
52.000000000000007
 30
0.0
 11
24.0
 21
52.000000000000007
 31
0.0
  0
INSERT
  5
6D0
  8
0
  6
CONTINUOUS
  2
*U14
 10
0.0
 20
0.0
 30
0.0
  0
INSERT
  5
6D1
  8
0
  6
CONTINUOUS
  2
*U15
 10
0.0
 20
0.0
 30
0.0
1001
ACAD
1000
DSTYLE
1002
{
1070
    77
1070
     0
1002
}
  0
INSERT
  5
6D2
  8
0
  6
CONTINUOUS
  2
*U16
 10
0.0
 20
0.0
 30
0.0
  0
INSERT
  5
6D3
  8
0
  6
CONTINUOUS
  2
*U17
 10
0.0
 20
0.0
 30
0.0
1001
ACAD
1000
DSTYLE
1002
{
1070
   176
1070
   256
1002
}
  0
LINE
  5
6D4
  8
0
 10
34.523130386034467
 20
211.71179444886411
 30
0.0
 11
34.17313038603956
 21
212.93679444886629
 31
0.0
  0
LINE
  5
6D5
  8
0
 10
34.523130386038112
 20
203.2225444488663
 30
0.0
 11
34.523130386038112
 21
211.7117944488632
 31
0.0
  0
LINE
  5
6D6
  8
0
 10
36.73813038603825
 20
206.7171694488656
 30
0.0
 11
36.73813038603825
 21
208.21716944886651
 31
0.0
  0
LINE
  5
6D7
  8
0
 10
34.523130386038112
 20
209.5894819488644
 30
0.0
 11
37.984942886039647
 21
209.5894819488644
 31
0.0
  0
LINE
  5
6D8
  8
0
 10
34.523130386038112
 20
205.34485694886871
 30
0.0
 11
37.984942886036009
 21
205.3448569488678
 31
0.0
  0
LINE
  5
6D9
  8
0
 10
34.523130386038112
 20
203.2225444488663
 30
0.0
 11
37.984942886036009
 21
203.22254444886721
 31
0.0
  0
LINE
  5
6DA
  8
0
 10
34.523130386038112
 20
211.7117944488632
 30
0.0
 11
37.984942886039647
 21
211.7117944488659
 31
0.0
  0
LINE
  5
6DB
  8
0
 10
33.148130386038112
 20
201.99754444886679
 30
0.0
 11
33.148130386038112
 21
212.93679444886629
 31
0.0
  0
LINE
  5
6DC
  8
0
 10
38.288130386037523
 20
204.28370069886699
 30
0.0
 11
38.288130386037523
 21
206.71716944886651
 31
0.0
  0
ARC
  5
6DD
  8
0
 10
30.708442886039709
 20
207.46716944886839
 30
0.0
 40
7.5796874999999986
 50
343.73979529163802
 51
354.32136653167521
  0
ARC
  5
6DE
  8
0
 10
36.279513198540229
 20
210.650638198867
 30
0.0
 40
2.0086171874996772
 50
328.10920819813828
 51
31.890791801861699
  0
ARC
  5
6DF
  8
0
 10
36.279513198540229
 20
204.28370069886611
 30
0.0
 40
2.0086171874996772
 50
328.10920819813828
 51
31.890791801861699
  0
ARC
  5
6E0
  8
0
 10
30.708442886039709
 20
207.46716944886839
 30
0.0
 40
7.5796874999999986
 50
5.6786334682733113
 51
16.26020470836206
  0
LINE
  5
6E1
  8
0
 10
38.288130386037523
 20
208.21716944886651
 30
0.0
 11
38.288130386037523
 21
210.650638198867
 31
0.0
  0
LINE
  5
6E2
  8
0
 10
34.173130386035922
 20
201.99754444886679
 30
0.0
 11
34.523130386038112
 21
203.2225444488663
 31
0.0
  0
LINE
  5
6E3
  8
0
 10
33.148130386038112
 20
212.93679444886629
 30
0.0
 11
34.17313038603956
 21
212.93679444886629
 31
0.0
  0
LINE
  5
6E4
  8
0
 10
33.148130386038112
 20
201.99754444886679
 30
0.0
 11
34.173130386035922
 21
201.99754444886679
 31
0.0
  0
LINE
  5
6E5
  8
0
 10
38.288130386037523
 20
206.71716944886651
 30
0.0
 11
36.73813038603825
 21
206.7171694488656
 31
0.0
  0
LINE
  5
6E6
  8
0
 10
38.288130386037523
 20
208.21716944886651
 30
0.0
 11
36.73813038603825
 21
208.21716944886651
 31
0.0
  0
LINE
  5
6E7
  8
0
 10
-17.313028787946809
 20
208.9671694488656
 30
0.0
 11
-16.509181210654919
 21
205.9671694488656
 31
0.0
  0
LINE
  5
6E8
  8
0
 10
-20.528419097121649
 20
208.9671694488656
 30
0.0
 11
-19.724571519826121
 21
205.96716944886469
 31
0.0
  0
LINE
  5
6E9
  8
0
 10
-23.743809406292851
 20
208.96716944886469
 30
0.0
 11
-22.939961829000961
 21
205.96716944886469
 31
0.0
  0
LINE
  5
6EA
  8
0
 10
-26.95919971546769
 20
208.9671694488656
 30
0.0
 11
-26.155352138172159
 21
205.96716944886651
 31
0.0
  0
LINE
  5
6EB
  8
0
 10
-30.174590024638889
 20
208.96716944886651
 30
0.0
 11
-29.370742447346998
 21
205.9671694488656
 31
0.0
  0
LINE
  5
6EC
  8
0
 10
-33.389980333813718
 20
208.9671694488656
 30
0.0
 11
-32.586132756521842
 21
205.9671694488656
 31
0.0
  0
LINE
  5
6ED
  8
0
 10
-36.605370642984923
 20
208.9671694488656
 30
0.0
 11
-35.801523065693033
 21
205.9671694488656
 31
0.0
  0
LINE
  5
6EE
  8
0
 10
-39.820760952159759
 20
208.96716944886751
 30
0.0
 11
-39.016913374864231
 21
205.9671694488656
 31
0.0
  0
LINE
  5
6EF
  8
0
 10
-43.036151261334588
 20
208.9671694488656
 30
0.0
 11
-42.23230368403906
 21
205.9671694488656
 31
0.0
  0
LINE
  5
6F0
  8
0
 10
-46.251541570505793
 20
208.9671694488656
 30
0.0
 11
-45.447693993210258
 21
205.9671694488656
 31
0.0
  0
LINE
  5
6F1
  8
0
 10
-49.466931879680629
 20
208.96716944886469
 30
0.0
 11
-48.663084302385101
 21
205.96716944886469
 31
0.0
  0
LINE
  5
6F2
  8
0
 10
-52.682322188848183
 20
208.96716944886651
 30
0.0
 11
-51.87847461155993
 21
205.96716944886469
 31
0.0
  0
LINE
  5
6F3
  8
0
 10
33.148130386038112
 20
205.96716944886651
 30
0.0
 11
-57.672703245614827
 21
205.96716944886381
 31
0.0
  0
LINE
  5
6F4
  8
0
 10
33.148130386038112
 20
208.96716944886651
 30
0.0
 11
-57.672703245618457
 21
208.96716944886469
 31
0.0
  0
LINE
  5
6F5
  8
0
 10
-60.672703245618457
 20
207.46716944886381
 30
0.0
 11
-57.672703245618457
 21
208.96716944886469
 31
0.0
  0
LINE
  5
6F6
  8
0
 10
-60.672703245618457
 20
207.46716944886381
 30
0.0
 11
-57.672703245614827
 21
205.96716944886381
 31
0.0
  0
LINE
  5
6F7
  8
0
 10
-55.897712498023033
 20
208.96716944886469
 30
0.0
 11
-55.093864920731129
 21
205.96716944886469
 31
0.0
  0
LINE
  5
6F8
  8
0
 10
-58.942925317951591
 20
208.3320584126991
 30
0.0
 11
-58.407730164581288
 21
206.3346829083462
 31
0.0
  0
SOLID
  5
6F9
  8
0
  6
CONTINUOUS
 10
30.648130386038108
 20
202.46716944886651
 30
0.0
 11
32.648130386038112
 21
202.46716944886651
 31
0.0
 12
30.648130386038108
 22
212.46716944886651
 32
0.0
 13
32.648130386038112
 23
212.46716944886651
 33
0.0
  0
POLYLINE
  5
6FA
  8
0
 66
     1
 10
0.0
 20
0.0
 30
0.0
  0
VERTEX
  5
9F6
  8
0
 10
38.088436638584042
 20
227.42410774227761
 30
0.0
  0
VERTEX
  5
9F7
  8
0
 10
32.401818608166479
 20
218.8916065204765
 30
0.0
 42
0.3026996289851599
  0
VERTEX
  5
9F8
  8
0
 10
32.401818608166479
 20
196.04273237725661
 30
0.0
  0
VERTEX
  5
9F9
  8
0
 10
42.418323894655202
 20
181.01344025002231
 30
0.0
 42
-0.3026996289851592
  0
VERTEX
  5
9FA
  8
0
 10
42.418323894655252
 20
157.7208986477107
 30
0.0
  0
VERTEX
  5
9FB
  8
0
 10
32.401818608166472
 20
142.6916065204764
 30
0.0
 42
0.302699628985159
  0
VERTEX
  5
9FC
  8
0
 10
32.401818608166472
 20
119.8427323772566
 30
0.0
  0
VERTEX
  5
9FD
  8
0
 10
42.418323894655181
 20
104.8134402500222
 30
0.0
 42
-0.3026996289851651
  0
VERTEX
  5
9FE
  8
0
 10
42.418323894655238
 20
81.520898647710695
 30
0.0
  0
VERTEX
  5
9FF
  8
0
 10
32.401818608166451
 20
66.491606520476523
 30
0.0
 42
0.3026996289851599
  0
VERTEX
  5
A00
  8
0
 10
32.401818608166451
 20
43.64273237725655
 30
0.0
  0
VERTEX
  5
A01
  8
0
 10
34.797021248785228
 20
40.04884417371909
 30
0.0
  0
SEQEND
  5
A02
  8
0
  0
POLYLINE
  5
6FB
  8
0
 66
     1
 10
0.0
 20
0.0
 30
0.0
  0
VERTEX
  5
A03
  8
0
 10
34.797021248785228
 20
40.04884417371909
 30
0.0
  0
VERTEX
  5
A04
  8
0
 10
34.453369639415961
 20
39.843216228806348
 30
0.0
  0
VERTEX
  5
A05
  8
0
 10
32.068967595796352
 20
43.420898647710708
 30
0.0
 42
-0.3026996289851626
  0
VERTEX
  5
A06
  8
0
 10
32.068967595796352
 20
66.713440250022302
 30
0.0
  0
VERTEX
  5
A07
  8
0
 10
42.085472882285138
 20
81.742732377256516
 30
0.0
 42
0.3026996289851622
  0
VERTEX
  5
A08
  8
0
 10
42.085472882285082
 20
104.5916065204764
 30
0.0
  0
VERTEX
  5
A09
  8
0
 10
32.068967595796373
 20
119.6208986477107
 30
0.0
 42
-0.3026996289851623
  0
VERTEX
  5
A0A
  8
0
 10
32.068967595796373
 20
142.91344025002229
 30
0.0
  0
VERTEX
  5
A0B
  8
0
 10
42.085472882285153
 20
157.9427323772565
 30
0.0
 42
0.3026996289851622
  0
VERTEX
  5
A0C
  8
0
 10
42.085472882285103
 20
180.79160652047639
 30
0.0
  0
VERTEX
  5
A0D
  8
0
 10
32.06896759579638
 20
195.82089864771069
 30
0.0
 42
-0.302699628985162
  0
VERTEX
  5
A0E
  8
0
 10
32.06896759579638
 20
219.11344025002231
 30
0.0
  0
VERTEX
  5
A0F
  8
0
 10
37.607741089963874
 20
227.42410774227761
 30
0.0
  0
SEQEND
  5
A10
  8
0
  0
POLYLINE
  5
6FC
  8
0
  6
CONTINUOUS
 66
     1
 10
0.0
 20
0.0
 30
0.0
 70
   128
  0
VERTEX
  5
A11
  8
0
  6
CONTINUOUS
 10
-128.68714769222419
 20
227.42410774227761
 30
0.0
  0
VERTEX
  5
A12
  8
0
  6
CONTINUOUS
 10
-39.080959573551581
 20
227.42410774227761
 30
0.0
  0
VERTEX
  5
A13
  8
0
  6
CONTINUOUS
 10
-38.080959573551652
 20
224.6766303228234
 30
0.0
  0
VERTEX
  5
A14
  8
0
  6
CONTINUOUS
 10
-36.080959573551652
 20
230.17158516173239
 30
0.0
  0
VERTEX
  5
A15
  8
0
  6
CONTINUOUS
 10
-35.080959573551581
 20
227.42410774227761
 30
0.0
  0
VERTEX
  5
A16
  8
0
  6
CONTINUOUS
 10
54.525228545120619
 20
227.42410774227761
 30
0.0
  0
SEQEND
  5
A17
  8
0
  6
CONTINUOUS
  0
POLYLINE
  5
6FD
  8
0
 66
     1
 10
0.0
 20
0.0
 30
0.0
 70
   128
 40
0.5
 41
0.5
  0
VERTEX
  5
A18
  8
0
 10
25.999999999991282
 20
143.320198857924
 30
0.0
  0
VERTEX
  5
A19
  8
0
 10
25.99999999999126
 20
38.391002814792593
 30
0.0
 42
0.3357858280005757
  0
VERTEX
  5
A1A
  8
0
 10
27.456960726901539
 20
36.466137014825698
 30
0.0
  0
VERTEX
  5
A1B
  8
0
 10
66.643054915698642
 20
27.117470546956611
 30
0.0
 42
-0.3357858280005756
  0
VERTEX
  5
A1C
  8
0
 10
68.100015642608923
 20
25.192604746989719
 30
0.0
  0
VERTEX
  5
A1D
  8
0
 10
68.100015642608923
 20
12.38043034752817
 30
0.0
 42
0.2120038606349186
  0
VERTEX
  5
A1E
  8
0
 10
68.758613218602591
 20
10.896975077939651
 30
0.0
  0
VERTEX
  5
A1F
  8
0
 10
74.494950226464425
 20
5.7099387546958553
 30
0.0
  0
SEQEND
  5
A20
  8
0
  0
INSERT
  5
6FE
  8
0
  6
CONTINUOUS
  2
*U18
 10
0.0
 20
0.0
 30
0.0
1001
ACAD
1000
DSTYLE
1002
{
1070
   147
1040
1.0
1070
    77
1070
     0
1002
}
  0
INSERT
  5
6FF
  8
0
  6
CONTINUOUS
  2
*U19
 10
0.0
 20
0.0
 30
0.0
  0
POLYLINE
  5
700
  8
0
 66
     1
 10
0.0
 20
0.0
 30
0.0
 70
   129
  0
VERTEX
  5
A2E
  8
0
 10
64.60344931135478
 20
-1.999999999998632
 30
0.0
  0
VERTEX
  5
A2F
  8
0
 10
36.603449311354773
 20
-1.999999999998628
 30
0.0
  0
VERTEX
  5
A30
  8
0
 10
36.60344931135478
 20
-3.9999999999986282
 30
0.0
  0
VERTEX
  5
A31
  8
0
 10
66.60344931135478
 20
-3.9999999999986282
 30
0.0
  0
VERTEX
  5
A32
  8
0
 10
66.60344931135478
 20
26.000000000001371
 30
0.0
  0
VERTEX
  5
A33
  8
0
 10
64.60344931135478
 20
26.000000000001371
 30
0.0
  0
SEQEND
  5
A34
  8
0
  0
LINE
  5
701
  8
0
 10
-109.0
 20
227.42410774227761
 30
0.0
 11
-101.0000000000055
 21
227.42410774227761
 31
0.0
  0
DIMENSION
  5
702
  8
0
  2
*D6
 10
83.190822771723745
 20
22.992817988051829
 30
0.0
 11
92.080174948827036
 21
59.708180127070818
 31
0.0
 70
   129
  1
5mm clearance
 13
34.453369639415961
 23
39.843216228806348
 33
0.0
 14
33.298320114684103
 24
35.072557946388017
 34
0.0
  0
POLYLINE
  5
703
  8
0
 66
     1
 10
0.0
 20
0.0
 30
0.0
 70
   128
  0
VERTEX
  5
A35
  8
0
 10
-75.000000000000014
 20
-66.195776711274974
 30
0.0
  0
VERTEX
  5
A36
  8
0
 10
-75.0
 20
-6.9999999999986242
 30
0.0
 42
-0.4142135623730951
  0
VERTEX
  5
A37
  8
0
 10
-72.0
 20
-3.9999999999986242
 30
0.0
  0
VERTEX
  5
A38
  8
0
 10
83.603449311354794
 20
-3.9999999999986282
 30
0.0
 42
-0.4142135623730951
  0
VERTEX
  5
A39
  8
0
 10
86.603449311354794
 20
-6.9999999999986278
 30
0.0
  0
VERTEX
  5
A3A
  8
0
 10
86.60344931135478
 20
-20.999999999998629
 30
0.0
 42
-0.4142135623730948
  0
VERTEX
  5
A3B
  8
0
 10
83.603449311354765
 20
-23.999999999998629
 30
0.0
  0
VERTEX
  5
A3C
  8
0
 10
59.60344931135478
 20
-23.999999999998629
 30
0.0
 42
0.4142135623730951
  0
VERTEX
  5
A3D
  8
0
 10
56.60344931135478
 20
-26.999999999998622
 30
0.0
  0
VERTEX
  5
A3E
  8
0
 10
56.60344931135478
 20
-40.999999999998607
 30
0.0
 42
0.4142135623730951
  0
VERTEX
  5
A3F
  8
0
 10
59.60344931135478
 20
-43.999999999998622
 30
0.0
  0
VERTEX
  5
A40
  8
0
 10
73.60344931135478
 20
-43.999999999998622
 30
0.0
 42
0.4142135623730951
  0
VERTEX
  5
A41
  8
0
 10
76.60344931135478
 20
-40.999999999998607
 30
0.0
  0
VERTEX
  5
A42
  8
0
 10
76.60344931135478
 20
-38.999999999998622
 30
0.0
  0
SEQEND
  5
A43
  8
0
  0
POLYLINE
  5
704
  8
0
 66
     1
 10
0.0
 20
0.0
 30
0.0
 70
   128
  0
VERTEX
  5
A44
  8
0
 10
-74.000000000000014
 20
-66.122284247582058
 30
0.0
  0
VERTEX
  5
A45
  8
0
 10
-74.0
 20
-6.9999999999986207
 30
0.0
 42
-0.4142135623730951
  0
VERTEX
  5
A46
  8
0
 10
-72.0
 20
-4.9999999999986242
 30
0.0
  0
VERTEX
  5
A47
  8
0
 10
83.603449311354765
 20
-4.9999999999986278
 30
0.0
 42
-0.4142135623730951
  0
VERTEX
  5
A48
  8
0
 10
85.603449311354794
 20
-6.9999999999986278
 30
0.0
  0
VERTEX
  5
A49
  8
0
 10
85.60344931135478
 20
-20.999999999998629
 30
0.0
 42
-0.4142135623730951
  0
VERTEX
  5
A4A
  8
0
 10
83.603449311354765
 20
-22.999999999998629
 30
0.0
  0
VERTEX
  5
A4B
  8
0
 10
59.60344931135478
 20
-22.999999999998629
 30
0.0
 42
0.4142135623730951
  0
VERTEX
  5
A4C
  8
0
 10
55.60344931135478
 20
-26.999999999998622
 30
0.0
  0
VERTEX
  5
A4D
  8
0
 10
55.60344931135478
 20
-40.999999999998607
 30
0.0
 42
0.4142135623730951
  0
VERTEX
  5
A4E
  8
0
 10
59.60344931135478
 20
-44.999999999998622
 30
0.0
  0
VERTEX
  5
A4F
  8
0
 10
73.60344931135478
 20
-44.999999999998622
 30
0.0
 42
0.4142135623730951
  0
VERTEX
  5
A50
  8
0
 10
77.603449311354765
 20
-40.999999999998607
 30
0.0
  0
VERTEX
  5
A51
  8
0
 10
77.603449311354765
 20
-38.999999999998622
 30
0.0
  0
SEQEND
  5
A52
  8
0
  0
LINE
  5
705
  8
0
 10
76.60344931135478
 20
-38.999999999998622
 30
0.0
 11
77.603449311354765
 21
-38.999999999998622
 31
0.0
  0
POLYLINE
  5
706
  8
0
 66
     1
 10
0.0
 20
0.0
 30
0.0
 70
   128
  0
VERTEX
  5
A53
  8
0
 10
86.60344931135478
 20
-54.319141080111599
 30
0.0
  0
VERTEX
  5
A54
  8
0
 10
86.60344931135478
 20
-33.999999999998629
 30
0.0
 42
0.4142135623730951
  0
VERTEX
  5
A55
  8
0
 10
83.603449311354765
 20
-30.999999999998629
 30
0.0
  0
VERTEX
  5
A56
  8
0
 10
65.60344931135478
 20
-30.999999999998629
 30
0.0
  0
SEQEND
  5
A57
  8
0
  0
POLYLINE
  5
707
  8
0
 66
     1
 10
0.0
 20
0.0
 30
0.0
 70
   128
  0
VERTEX
  5
A58
  8
0
 10
85.60344931135478
 20
-54.392633543804507
 30
0.0
  0
VERTEX
  5
A59
  8
0
 10
85.60344931135478
 20
-33.999999999998629
 30
0.0
 42
0.4142135623730951
  0
VERTEX
  5
A5A
  8
0
 10
83.603449311354765
 20
-31.999999999998629
 30
0.0
  0
VERTEX
  5
A5B
  8
0
 10
65.60344931135478
 20
-31.999999999998622
 30
0.0
  0
SEQEND
  5
A5C
  8
0
  0
LINE
  5
708
  8
0
 10
65.60344931135478
 20
-30.999999999998629
 30
0.0
 11
65.60344931135478
 21
-31.999999999998622
 31
0.0
  0
POLYLINE
  5
709
  8
0
  6
CONTINUOUS
 66
     1
 10
0.0
 20
0.0
 30
0.0
 70
   128
  0
VERTEX
  5
A5D
  8
0
  6
CONTINUOUS
 10
-92.995304696905237
 20
-67.518295988355078
 30
0.0
  0
VERTEX
  5
A5E
  8
0
  6
CONTINUOUS
 10
0.2834011993335219
 20
-60.663014081954373
 30
0.0
  0
VERTEX
  5
A5F
  8
0
  6
CONTINUOUS
 10
1.4820873060551449
 20
-63.329806872548687
 30
0.0
  0
VERTEX
  5
A60
  8
0
  6
CONTINUOUS
 10
3.073956370650019
 20
-57.703042121571571
 30
0.0
  0
VERTEX
  5
A61
  8
0
  6
CONTINUOUS
 10
4.2726424773715079
 20
-60.369834912165921
 30
0.0
  0
VERTEX
  5
A62
  8
0
  6
CONTINUOUS
 10
97.551348373609827
 20
-53.514553005765208
 30
0.0
  0
SEQEND
  5
A63
  8
0
  6
CONTINUOUS
  0
INSERT
  5
70A
  8
0
  6
CONTINUOUS
  2
*U20
 10
0.0
 20
0.0
 30
0.0
  0
INSERT
  5
70B
  8
0
  6
CONTINUOUS
  2
*U21
 10
0.0
 20
0.0
 30
0.0
1001
ACAD
1000
DSTYLE
1002
{
1070
   147
1040
1.0
1070
    77
1070
     0
1002
}
  0
INSERT
  5
70C
  8
0
  6
CONTINUOUS
  2
*U22
 10
0.0
 20
0.0
 30
0.0
  0
INSERT
  5
70D
  8
0
  6
CONTINUOUS
  2
*U23
 10
0.0
 20
0.0
 30
0.0
  0
ENDSEC
  0
EOF
