  0
SECTION
  2
HEADER
  9
$ACADVER
  1
AC1009
  9
$INSBASE
 10
0.0
 20
0.0
 30
0.0
  9
$EXTMIN
 10
-171.8052330096418
 20
-130.84751748397099
 30
-0.0015258207003583
  9
$EXTMAX
 10
122.86847444764631
 20
150.09441589325661
 30
0.0000000349246037
  9
$LIMMIN
 10
0.0
 20
0.0
  9
$LIMMAX
 10
12.0
 20
9.0
  9
$ORTHOMODE
 70
     0
  9
$REGENMODE
 70
     1
  9
$FILLMODE
 70
     1
  9
$QTEXTMODE
 70
     0
  9
$MIRRTEXT
 70
     0
  9
$DRAGMODE
 70
     2
  9
$LTSCALE
 40
0.5
  9
$OSMODE
 70
     0
  9
$ATTMODE
 70
     1
  9
$TEXTSIZE
 40
1.5
  9
$TRACEWID
 40
0.05
  9
$TEXTSTYLE
  7
ARIAL
  9
$CLAYER
  8
0
  9
$CELTYPE
  6
CONTINUOUS
  9
$CECOLOR
 62
   256
  9
$DIMSCALE
 40
2.0
  9
$DIMASZ
 40
3.0
  9
$DIMEXO
 40
2.0
  9
$DIMDLI
 40
6.0
  9
$DIMRND
 40
0.0
  9
$DIMDLE
 40
2.0
  9
$DIMEXE
 40
2.0
  9
$DIMTP
 40
0.0
  9
$DIMTM
 40
0.0
  9
$DIMTXT
 40
2.5
  9
$DIMCEN
 40
2.0
  9
$DIMTSZ
 40
0.0
  9
$DIMTOL
 70
     0
  9
$DIMLIM
 70
     0
  9
$DIMTIH
 70
     0
  9
$DIMTOH
 70
     0
  9
$DIMSE1
 70
     0
  9
$DIMSE2
 70
     0
  9
$DIMTAD
 70
     0
  9
$DIMZIN
 70
     0
  9
$DIMBLK
  1

  9
$DIMASO
 70
     1
  9
$DIMSHO
 70
     1
  9
$DIMPOST
  1
mm
  9
$DIMAPOST
  1

  9
$DIMALT
 70
     0
  9
$DIMALTD
 70
     2
  9
$DIMALTF
 40
0.0394
  9
$DIMLFAC
 40
1.0
  9
$DIMTOFL
 70
     0
  9
$DIMTVP
 40
0.0
  9
$DIMTIX
 70
     0
  9
$DIMSOXD
 70
     0
  9
$DIMSAH
 70
     0
  9
$DIMBLK1
  1

  9
$DIMBLK2
  1

  9
$DIMSTYLE
  2
1_TO_2
  9
$DIMCLRD
 70
   256
  9
$DIMCLRE
 70
   256
  9
$DIMCLRT
 70
   256
  9
$DIMTFAC
 40
1.0
  9
$DIMGAP
 40
1.0
  9
$LUNITS
 70
     2
  9
$LUPREC
 70
     1
  9
$SKETCHINC
 40
0.1
  9
$FILLETRAD
 40
0.0
  9
$AUNITS
 70
     1
  9
$AUPREC
 70
     4
  9
$MENU
  1
.
  9
$ELEVATION
 40
0.0
  9
$PELEVATION
 40
0.0
  9
$THICKNESS
 40
0.0
  9
$LIMCHECK
 70
     0
  9
$BLIPMODE
 70
     0
  9
$CHAMFERA
 40
0.0
  9
$CHAMFERB
 40
0.0
  9
$SKPOLY
 70
     0
  9
$TDCREATE
 40
2452152.65359294
  9
$TDUPDATE
 40
2455936.5393253011
  9
$TDINDWG
 40
15.1215290394
  9
$TDUSRTIMER
 40
15.1215290394
  9
$USRTIMER
 70
     1
  9
$ANGBASE
 50
0.0
  9
$ANGDIR
 70
     0
  9
$PDMODE
 70
     3
  9
$PDSIZE
 40
0.0
  9
$PLINEWID
 40
0.0
  9
$COORDS
 70
     1
  9
$SPLFRAME
 70
     0
  9
$SPLINETYPE
 70
     6
  9
$SPLINESEGS
 70
     8
  9
$ATTDIA
 70
     0
  9
$ATTREQ
 70
     1
  9
$HANDLING
 70
     1
  9
$HANDSEED
  5
C7C
  9
$SURFTAB1
 70
     6
  9
$SURFTAB2
 70
     6
  9
$SURFTYPE
 70
     6
  9
$SURFU
 70
     6
  9
$SURFV
 70
     6
  9
$UCSNAME
  2

  9
$UCSORG
 10
0.0
 20
0.0
 30
0.0
  9
$UCSXDIR
 10
1.0
 20
0.0
 30
0.0
  9
$UCSYDIR
 10
0.0
 20
1.0
 30
0.0
  9
$PUCSNAME
  2

  9
$PUCSORG
 10
0.0
 20
0.0
 30
0.0
  9
$PUCSXDIR
 10
1.0
 20
0.0
 30
0.0
  9
$PUCSYDIR
 10
0.0
 20
1.0
 30
0.0
  9
$USERI1
 70
     0
  9
$USERI2
 70
     0
  9
$USERI3
 70
     0
  9
$USERI4
 70
     0
  9
$USERI5
 70
     0
  9
$USERR1
 40
0.0
  9
$USERR2
 40
0.0
  9
$USERR3
 40
0.0
  9
$USERR4
 40
0.0
  9
$USERR5
 40
0.0
  9
$WORLDVIEW
 70
     1
  9
$SHADEDGE
 70
     3
  9
$SHADEDIF
 70
    70
  9
$TILEMODE
 70
     1
  9
$MAXACTVP
 70
    48
  9
$PLIMCHECK
 70
     0
  9
$PEXTMIN
 10
0.0
 20
0.0
 30
0.0
  9
$PEXTMAX
 10
0.0
 20
0.0
 30
0.0
  9
$PLIMMIN
 10
0.0
 20
0.0
  9
$PLIMMAX
 10
12.0
 20
9.0
  9
$UNITMODE
 70
     0
  9
$VISRETAIN
 70
     1
  9
$PLINEGEN
 70
     1
  9
$PSLTSCALE
 70
     1
  0
ENDSEC
  0
SECTION
  2
TABLES
  0
TABLE
  2
VPORT
 70
     1
  0
VPORT
  2
*ACTIVE
 70
     0
 10
0.0
 20
0.0
 11
1.0
 21
1.0
 12
-24.46837928099772
 22
9.6234492046427818
 13
0.0
 23
0.0
 14
1.0
 24
1.0
 15
0.5
 25
0.5
 16
0.0
 26
0.0
 36
1.0
 17
0.0
 27
0.0
 37
0.0
 40
282.63096303681021
 41
1.9087261785356071
 42
50.0
 43
0.0
 44
0.0
 50
0.0
 51
0.0
 71
     0
 72
 20000
 73
     1
 74
     3
 75
     0
 76
     0
 77
     0
 78
     0
  0
ENDTAB
  0
TABLE
  2
LTYPE
 70
     2
  0
LTYPE
  2
CONTINUOUS
 70
     0
  3
Solid line
 72
    65
 73
     0
 40
0.0
  0
LTYPE
  2
HCAV-01_WINDOW_HEAD$0$DASH
 70
     0
  3
Dashed __ __ __ __ __ __ __ __ __ __ __ __ __ _
 72
    65
 73
     2
 40
19.050000000000001
 49
12.699999999999999
 49
-6.3499999999999988
  0
ENDTAB
  0
TABLE
  2
LAYER
 70
    16
  0
LAYER
  2
0
 70
     0
 62
     7
  6
CONTINUOUS
  0
LAYER
  2
DEFPOINTS
 70
     0
 62
   211
  6
CONTINUOUS
  0
ENDTAB
  0
TABLE
  2
STYLE
 70
     5
  0
STYLE
  2
STANDARD
 70
     0
 40
0.0
 41
1.0
 50
0.0
 71
     0
 42
1.5
  3
romans.shx
  4

  0
STYLE
  2
ARIAL
 70
     0
 40
0.0
 41
1.0
 50
0.0
 71
     0
 42
1.5
  3
txt
  4

  0
STYLE
  2
HCAV-01_WINDOW_HEAD$0$TEXT
 70
     0
 40
0.0
 41
1.0
 50
0.0
 71
     0
 42
2.5
  3
txt
  4

  0
STYLE
  2
HCAV-01_WINDOW_HEAD$0$ARIA
 70
     0
 40
0.0
 41
1.0
 50
0.0
 71
     0
 42
1.5
  3
txt
  4

  0
ENDTAB
  0
TABLE
  2
VIEW
 70
     2
  0
VIEW
  2
COMM-04
 70
     1
 40
477.26027331217421
 10
194.21746115522001
 20
180.60494410563541
 41
755.81685306636155
 11
0.0
 21
0.0
 31
1.0
 12
0.0
 22
0.0
 32
0.0
 42
50.0
 43
0.0
 44
0.0
 50
0.0
 71
     0
  0
ENDTAB
  0
TABLE
  2
UCS
 70
     0
  0
ENDTAB
  0
TABLE
  2
APPID
 70
    28
  0
APPID
  2
ACAD
 70
     0
  0
APPID
  2
RAK
 70
     0
  0
APPID
  2
GENIUS_GENOREF_13
 70
     0
  0
APPID
  2
ACAD_PSEXT
 70
     0
  0
APPID
  2
ACAD_MLEADERVER
 70
     0
  0
APPID
  2
ACADANNOTATIVE
 70
     0
  0
APPID
  2
ACDBBLOCKREPETAG
 70
     0
  0
APPID
  2
ACDBDYNAMICBLOCKGUID
 70
     0
  0
APPID
  2
ACAD_DSTYLE_DIMEXT_ENABLED
 70
     0
  0
APPID
  2
ACAD_DSTYLE_DIMEXT_LENGTH
 70
     0
  0
APPID
  2
ACAD_EXEMPT_FROM_CAD_STANDARDS
 70
     0
  0
APPID
  2
ACAUTHENVIRON
 70
     0
  0
APPID
  2
ACDBDYNAMICBLOCKTRUENAME
 70
     0
  0
APPID
  2
GENIUS_GENODEF_13
 70
     0
  0
APPID
  2
GENIUS_GENSCREG_15
 70
     0
  0
APPID
  2
GENIUS_GENOBJ-N-SDF_13
 70
     0
  0
APPID
  2
GENIUS_GENCFG_13
 70
     0
  0
APPID
  2
GENIUS_GENCFG0_13
 70
     0
  0
APPID
  2
ACAECLAYERSTANDARD
 70
     0
  0
APPID
  2
ACCMTRANSPARENCY
 70
     0
  0
APPID
  2
ACADANNOPO
 70
     0
  0
APPID
  2
ADESKUNDERLAYLAYEROVERRIDEDATA
 70
     0
  0
APPID
  2
URBANX
 70
     0
  0
APPID
  2
GRADIENTCOLOR1ACI
 70
     0
  0
APPID
  2
GRADIENTCOLOR2ACI
 70
     0
  0
APPID
  2
ACAD_NAV_VCDISPLAY
 70
     0
  0
APPID
  2
ACAD_DSTYLE_DIMJOGGED_JOGA
 70
     0
  0
APPID
  2
PE_URL
 70
     0
  0
ENDTAB
  0
TABLE
  2
DIMSTYLE
 70
     3
  0
DIMSTYLE
  2
1_TO_2
 70
     0
  3
mm
  4

  5

  6

  7

 40
2.0
 41
3.0
 42
2.0
 43
6.0
 44
2.0
 45
0.0
 46
2.0
 47
0.0
 48
0.0
140
2.5
141
2.0
142
0.0
143
0.0394
144
1.0
145
0.0
146
1.0
147
1.0
 71
     0
 72
     0
 73
     0
 74
     0
 75
     0
 76
     0
 77
     0
 78
     0
170
     0
171
     2
172
     0
173
     0
174
     0
175
     0
176
   256
177
   256
178
   256
  0
DIMSTYLE
  2
HCAV-01_WINDOW_HEAD$0$1_TO
 70
     0
  3

  4

  5
HCAV-01_WINDOW_HEAD$0$_ARC
  6

  7

 40
2.0
 41
2.0
 42
2.0
 43
6.0
 44
2.0
 45
0.0
 46
2.0
 47
0.0
 48
0.0
140
2.0
141
2.0
142
0.0
143
0.0394
144
1.0
145
0.0
146
1.0
147
1.0
 71
     0
 72
     0
 73
     0
 74
     0
 75
     0
 76
     0
 77
     1
 78
     0
170
     0
171
     2
172
     0
173
     0
174
     0
175
     0
176
   256
177
   256
178
   256
  0
DIMSTYLE
  2
HCAV-01_WINDOW_HEAD$0$1_T0
 70
     0
  3

  4

  5
HCAV-01_WINDOW_HEAD$0$_ARC
  6

  7

 40
2.0
 41
2.0
 42
2.0
 43
6.0
 44
1.5
 45
0.0
 46
1.5
 47
0.0
 48
0.0
140
2.0
141
2.0
142
0.0
143
0.0394
144
1.0
145
0.0
146
1.0
147
1.0
 71
     0
 72
     0
 73
     0
 74
     0
 75
     0
 76
     0
 77
     0
 78
     0
170
     0
171
     2
172
     1
173
     0
174
     1
175
     0
176
     0
177
     0
178
     0
  0
ENDTAB
  0
ENDSEC
  0
SECTION
  2
BLOCKS
  0
BLOCK
  8
0
  2
$MODEL_SPACE
 70
     0
 10
0.0
 20
0.0
 30
0.0
  3
$MODEL_SPACE
  1

  0
ENDBLK
  5
17
  8
0
  0
BLOCK
 67
     1
  8
0
  2
$PAPER_SPACE
 70
     0
 10
0.0
 20
0.0
 30
0.0
  3
$PAPER_SPACE
  1

  0
ENDBLK
  5
91D
 67
     1
  8
0
  0
BLOCK
  8
0
  2
HCAV-01_WINDOW_HEAD$0$_ARC
 70
     0
 10
0.0
 20
0.0
 30
0.0
  3
HCAV-01_WINDOW_HEAD$0$_ARC
  1

  0
POLYLINE
  5
813
  8
0
  6
BYBLOCK
 62
     0
 66
     1
 10
0.0
 20
0.0
 30
0.0
 40
0.15
 41
0.15
  0
VERTEX
  5
B39
  8
0
  6
BYBLOCK
 62
     0
 10
-0.5
 20
-0.5
 30
0.0
  0
VERTEX
  5
B3A
  8
0
  6
BYBLOCK
 62
     0
 10
0.5
 20
0.5
 30
0.0
  0
SEQEND
  5
B3B
  8
0
  6
BYBLOCK
 62
     0
  0
ENDBLK
  5
814
  8
0
  0
BLOCK
  8
0
  2
*D9
 70
     1
 10
0.0
 20
0.0
 30
0.0
  3
*D9
  1

  0
LINE
  5
933
  8
0
  6
CONTINUOUS
 10
91.550895575439313
 20
18.000965385902848
 30
0.0
 11
105.5508955754393
 21
18.000965385902848
 31
0.0
  0
LINE
  5
934
  8
0
  6
CONTINUOUS
 10
91.550895575439284
 20
93.014126687806765
 30
0.0
 11
105.5508955754393
 21
93.014126687806737
 31
0.0
  0
LINE
  5
935
  8
0
  6
CONTINUOUS
 10
101.5508955754393
 20
14.00096538590285
 30
0.0
 11
101.5508955754393
 21
97.014126687806737
 31
0.0
  0
INSERT
  5
936
  8
0
  6
CONTINUOUS
  2
HCAV-01_WINDOW_HEAD$0$_ARC
 10
101.5508955754393
 20
18.000965385902848
 30
0.0
 41
4.0
 42
4.0
 43
4.0
 50
270.0
  0
INSERT
  5
937
  8
0
  6
CONTINUOUS
  2
HCAV-01_WINDOW_HEAD$0$_ARC
 10
101.5508955754393
 20
93.014126687806737
 30
0.0
 41
4.0
 42
4.0
 43
4.0
 50
90.0
  0
INSERT
  5
938
  8
0
  6
CONTINUOUS
  2
*U32
 10
0.0
 20
0.0
 30
0.0
  0
INSERT
  5
939
  8
0
  6
CONTINUOUS
  2
*U33
 10
0.0
 20
0.0
 30
0.0
  0
POINT
  5
93A
  8
DEFPOINTS
  6
CONTINUOUS
 62
     0
 10
33.17148275047839
 20
18.00096538590287
 30
0.0
  0
POINT
  5
93B
  8
DEFPOINTS
  6
CONTINUOUS
 62
     0
 10
26.500000000005461
 20
93.014126687806765
 30
0.0
  0
POINT
  5
93C
  8
DEFPOINTS
  6
CONTINUOUS
 62
     0
 10
101.5508955754393
 20
93.014126687806737
 30
0.0
  0
ENDBLK
  5
8C1
  8
0
  0
BLOCK
  8
0
  2
*D10
 70
     1
 10
0.0
 20
0.0
 30
0.0
  3
*D10
  1

  0
LINE
  5
929
  8
0
  6
CONTINUOUS
 10
91.550895575439284
 20
6.1048160394729978
 30
0.0
 11
105.5508955754393
 21
6.1048160394729951
 31
0.0
  0
LINE
  5
92A
  8
0
  6
CONTINUOUS
 10
91.550895575439284
 20
-4.047118717761359
 30
0.0
 11
105.5508955754393
 21
-4.0471187177613617
 31
0.0
  0
LINE
  5
92B
  8
0
  6
CONTINUOUS
 10
101.5508955754393
 20
10.10481603947299
 30
0.0
 11
101.5508955754393
 21
-8.0471187177613626
 31
0.0
  0
LINE
  5
92C
  8
0
  6
CONTINUOUS
 10
101.5508955754393
 20
-45.528701255278413
 30
0.0
 11
101.5508955754393
 21
-4.0471187177613608
 31
0.0
  0
INSERT
  5
92D
  8
0
  6
CONTINUOUS
  2
*U31
 10
0.0
 20
0.0
 30
0.0
  0
INSERT
  5
92E
  8
0
  6
CONTINUOUS
  2
HCAV-01_WINDOW_HEAD$0$_ARC
 10
101.5508955754393
 20
6.104816039472996
 30
0.0
 41
4.0
 42
4.0
 43
4.0
 50
90.0
  0
INSERT
  5
92F
  8
0
  6
CONTINUOUS
  2
HCAV-01_WINDOW_HEAD$0$_ARC
 10
101.5508955754393
 20
-4.0471187177613608
 30
0.0
 41
4.0
 42
4.0
 43
4.0
 50
270.0
  0
POINT
  5
930
  8
DEFPOINTS
  6
CONTINUOUS
 62
     0
 10
58.249999999998181
 20
6.1048160394730067
 30
0.0
  0
POINT
  5
931
  8
DEFPOINTS
  6
CONTINUOUS
 62
     0
 10
58.249999999998181
 20
-4.0471187177613501
 30
0.0
  0
POINT
  5
932
  8
DEFPOINTS
  6
CONTINUOUS
 62
     0
 10
101.5508955754393
 20
-4.0471187177613608
 30
0.0
  0
ENDBLK
  5
8CE
  8
0
  0
BLOCK
  8
0
  2
*D11
 70
     1
 10
0.0
 20
0.0
 30
0.0
  3
*D11
  1

  0
LINE
  5
91F
  8
0
  6
CONTINUOUS
 10
60.972351012185293
 20
5.3753642842423712
 30
0.0
 11
74.495312580232607
 21
1.7518976528083909
 31
0.0
  0
LINE
  5
920
  8
0
  6
CONTINUOUS
 10
62.266446237698489
 20
10.204993415691771
 30
0.0
 11
75.789407805745796
 21
6.5815267842577931
 31
0.0
  0
LINE
  5
921
  8
0
  6
CONTINUOUS
 10
69.596333094666534
 20
-1.0765294719382721
 30
0.0
 11
72.960980680999143
 21
11.480506269823881
 31
0.0
  0
LINE
  5
922
  8
0
  6
CONTINUOUS
 10
79.051657579083923
 20
34.211221905971122
 30
0.0
 11
71.925704500589433
 21
7.6168029646675031
 31
0.0
  0
INSERT
  5
923
  8
0
  6
CONTINUOUS
  2
*U30
 10
0.0
 20
0.0
 30
0.0
  0
INSERT
  5
924
  8
0
  6
CONTINUOUS
  2
HCAV-01_WINDOW_HEAD$0$_ARC
 10
70.631609275076244
 20
2.7871738332181009
 30
0.0
 41
4.0
 42
4.0
 43
4.0
 50
255.0000000000056
  0
INSERT
  5
925
  8
0
  6
CONTINUOUS
  2
HCAV-01_WINDOW_HEAD$0$_ARC
 10
71.925704500589433
 20
7.6168029646675031
 30
0.0
 41
4.0
 42
4.0
 43
4.0
 50
75.000000000005556
  0
POINT
  5
926
  8
DEFPOINTS
  6
CONTINUOUS
 62
     0
 10
56.76763809020121
 20
6.5020137160922777
 30
0.0
  0
POINT
  5
927
  8
DEFPOINTS
  6
CONTINUOUS
 62
     0
 10
33.171482750476571
 20
18.00096538590287
 30
0.0
  0
POINT
  5
928
  8
DEFPOINTS
  6
CONTINUOUS
 62
     0
 10
71.925704500589433
 20
7.6168029646675031
 30
0.0
  0
ENDBLK
  5
8DB
  8
0
  0
BLOCK
  8
0
  2
*U13
 70
     1
 10
0.0
 20
0.0
 30
0.0
  3
*U13
  1

  0
TEXT
  5
B92
  8
0
  6
CONTINUOUS
 10
-171.79624151663049
 20
120.8016707931243
 30
0.0
 40
4.0
  1
Internal Cladding
  7
HCAV-01_WINDOW_HEAD$0$TEXT
  0
ENDBLK
  5
B94
  8
0
  0
BLOCK
  8
0
  2
*U14
 70
     1
 10
0.0
 20
0.0
 30
0.0
  3
*U14
  1

  0
SOLID
  5
B96
  8
0
 10
-108.6195906376683
 20
110.8856444167278
 30
0.0
 11
-105.971380335357
 21
107.81458163013799
 31
0.0
 12
-109.472464498059
 22
109.8607620058923
 32
0.0
 13
-109.472464498059
 23
109.8607620058923
 33
0.0
  0
POLYLINE
  5
B97
  8
0
 66
     1
 10
0.0
 20
0.0
 30
0.0
  0
VERTEX
  5
B98
  8
0
 10
-109.0460275678636
 20
110.3732032113101
 30
0.0
  0
VERTEX
  5
B99
  8
0
 10
-123.31548543314049
 20
122.2477826621557
 30
0.0
  0
VERTEX
  5
B9A
  8
0
 10
-127.92175311281061
 20
122.2477826621557
 30
0.0
  0
SEQEND
  5
B9B
  8
0
  0
ENDBLK
  5
B9D
  8
0
  0
BLOCK
  8
0
  2
*U15
 70
     1
 10
0.0
 20
0.0
 30
0.0
  3
*U15
  1

  0
TEXT
  5
BA6
  8
0
  6
CONTINUOUS
 10
-148.16186225332899
 20
-46.677209426903609
 30
0.0
 40
4.0
  1
Air seal
  7
HCAV-01_WINDOW_HEAD$0$TEXT
  0
ENDBLK
  5
BA8
  8
0
  0
BLOCK
  8
0
  2
*U16
 70
     1
 10
0.0
 20
0.0
 30
0.0
  3
*U16
  1

  0
SOLID
  5
BAA
  8
0
 10
-96.740405782035339
 20
-17.9658229578929
 30
0.0
 11
-93.406716099698315
 21
-15.6569363114063
 31
0.0
 12
-95.811378238183622
 22
-18.922214928029948
 32
0.0
 13
-95.811378238183622
 23
-18.922214928029948
 33
0.0
  0
POLYLINE
  5
BAB
  8
0
 66
     1
 10
0.0
 20
0.0
 30
0.0
  0
VERTEX
  5
BAC
  8
0
 10
-96.275892010109473
 20
-18.444018942961431
 30
0.0
  0
VERTEX
  5
BAD
  8
0
 10
-123.31548543314049
 20
-44.70995158242885
 30
0.0
  0
VERTEX
  5
BAE
  8
0
 10
-127.92175311281061
 20
-44.70995158242885
 30
0.0
  0
SEQEND
  5
BAF
  8
0
  0
ENDBLK
  5
BB1
  8
0
  0
BLOCK
  8
0
  2
*U17
 70
     1
 10
0.0
 20
0.0
 30
0.0
  3
*U17
  1

  0
TEXT
  5
BB3
  8
0
  6
CONTINUOUS
 10
-149.8917394702458
 20
-60.616268586272817
 30
0.0
 40
4.0
  1
Packers
  7
HCAV-01_WINDOW_HEAD$0$TEXT
  0
ENDBLK
  5
BB5
  8
0
  0
BLOCK
  8
0
  2
*U18
 70
     1
 10
0.0
 20
0.0
 30
0.0
  3
*U18
  1

  0
SOLID
  5
BB7
  8
0
 10
-83.559364534019181
 20
-18.27925053159348
 30
0.0
 11
-80.249877562879178
 21
-15.935804259049741
 31
0.0
 12
-82.620436717456883
 22
-19.22592488587976
 32
0.0
 13
-82.620436717456883
 23
-19.22592488587976
 33
0.0
  0
POLYLINE
  5
BB8
  8
0
 66
     1
 10
0.0
 20
0.0
 30
0.0
  0
VERTEX
  5
BB9
  8
0
 10
-83.089900625738025
 20
-18.75258770873662
 30
0.0
  0
VERTEX
  5
BBA
  8
0
 10
-123.31548543314049
 20
-58.649010741798058
 30
0.0
  0
VERTEX
  5
BBB
  8
0
 10
-127.92175311281061
 20
-58.649010741798058
 30
0.0
  0
SEQEND
  5
BBC
  8
0
  0
ENDBLK
  5
BBE
  8
0
  0
BLOCK
  8
0
  2
*U19
 70
     1
 10
0.0
 20
0.0
 30
0.0
  3
*U19
  1

  0
TEXT
  5
BC0
  8
0
  6
CONTINUOUS
 10
-122.6885277304884
 20
-102.71525240636311
 30
0.0
 40
4.0
  1
%%UNOTES:
  7
HCAV-01_WINDOW_HEAD$0$TEXT
  0
TEXT
  5
BC1
  8
0
  6
CONTINUOUS
 10
-122.88225215067941
 20
-109.45013189704061
 30
0.0
 40
4.0
  1
1.     Cavity battens containing copper must be separated from steel cladding by building paper,
  7
HCAV-01_WINDOW_HEAD$0$TEXT
  0
TEXT
  5
BC2
  8
0
  6
CONTINUOUS
 10
-110.63941449720051
 20
-116.18501138771821
 30
0.0
 40
4.0
  1
building wrap, DPC/PVC strips or by painting, otherwise use uPVC Cavibat 
  7
HCAV-01_WINDOW_HEAD$0$TEXT
  0
TEXT
  5
BC3
  8
0
  6
CONTINUOUS
 10
75.931936116714894
 20
-113.71834472105159
 30
0.0
 40
2.7999999999999989
  1
TM
  7
HCAV-01_WINDOW_HEAD$0$TEXT
  0
TEXT
  5
BC4
  8
0
  6
CONTINUOUS
 10
76.023614152185559
 20
-114.6516780543849
 30
0.0
 40
2.7999999999999989
  1

  7
HCAV-01_WINDOW_HEAD$0$TEXT
  0
TEXT
  5
BC5
  8
0
  6
CONTINUOUS
 10
81.470817426401112
 20
-116.18501138771821
 30
0.0
 40
4.0
  1
.
  7
HCAV-01_WINDOW_HEAD$0$TEXT
  0
TEXT
  5
BC6
  8
0
  6
CONTINUOUS
 10
-122.4375045381282
 20
-122.9198908783958
 30
0.0
 40
4.0
  1
2.     Architraves are shown for consistency only, detail may be used with rebated liner.
  7
HCAV-01_WINDOW_HEAD$0$TEXT
  0
TEXT
  5
BC7
  8
0
  6
CONTINUOUS
 10
-122.5084458750995
 20
-129.65477036907339
 30
0.0
 40
4.0
  1
3.     Complies with E2/VM1
  7
HCAV-01_WINDOW_HEAD$0$TEXT
  0
ENDBLK
  5
BC9
  8
0
  0
BLOCK
  8
0
  2
*U20
 70
     1
 10
0.0
 20
0.0
 30
0.0
  3
*U20
  1

  0
TEXT
  5
BE2
  8
0
  6
CONTINUOUS
 10
-163.24508189862229
 20
40.423747782930803
 30
0.0
 40
4.0
  1
Building wrap
  7
HCAV-01_WINDOW_HEAD$0$TEXT
  0
TEXT
  5
BE3
  8
0
  6
CONTINUOUS
 10
-165.5506753501912
 20
33.757081116264139
 30
0.0
 40
4.0
  1
carried around
  7
HCAV-01_WINDOW_HEAD$0$TEXT
  0
TEXT
  5
BE4
  8
0
  6
CONTINUOUS
 10
-147.23416784678059
 20
27.022201625586561
 30
0.0
 40
4.0
  1
into full
  7
HCAV-01_WINDOW_HEAD$0$TEXT
  0
TEXT
  5
BE5
  8
0
  6
CONTINUOUS
 10
-164.90947480448861
 20
20.28732213490898
 30
0.0
 40
4.0
  1
width/depth of
  7
HCAV-01_WINDOW_HEAD$0$TEXT
  0
TEXT
  5
BE6
  8
0
  6
CONTINUOUS
 10
-148.51384042522531
 20
13.620655468242321
 30
0.0
 40
4.0
  1
window
  7
HCAV-01_WINDOW_HEAD$0$TEXT
  0
ENDBLK
  5
BE8
  8
0
  0
BLOCK
  8
0
  2
*U21
 70
     1
 10
0.0
 20
0.0
 30
0.0
  3
*U21
  1

  0
SOLID
  5
BEA
  8
0
 10
-84.894120871139066
 20
-0.0193504395706423
 30
0.0
 11
-82.144544059636246
 21
-3.0000000000004539
 31
0.0
 12
-85.712192252278314
 22
-1.07222127359479
 32
0.0
 13
-85.712192252278314
 23
-1.07222127359479
 33
0.0
  0
POLYLINE
  5
BEB
  8
0
 66
     1
 10
0.0
 20
0.0
 30
0.0
  0
VERTEX
  5
BEC
  8
0
 10
-85.303156561708676
 20
-0.5457858565827163
 30
0.0
  0
VERTEX
  5
BED
  8
0
 10
-123.31548543314049
 20
28.98945947006132
 30
0.0
  0
VERTEX
  5
BEE
  8
0
 10
-127.92175311281061
 20
28.98945947006132
 30
0.0
  0
SEQEND
  5
BEF
  8
0
  0
ENDBLK
  5
BF1
  8
0
  0
BLOCK
  8
0
  2
*U22
 70
     1
 10
0.0
 20
0.0
 30
0.0
  3
*U22
  1

  0
SOLID
  5
BFA
  8
0
 10
22.866792541139372
 20
103.3942221362591
 30
0.0
 11
19.000000000004551
 21
102.1726003092321
 31
0.0
 12
22.261575054474712
 22
104.5822834021932
 32
0.0
 13
22.261575054474712
 23
104.5822834021932
 33
0.0
  0
POLYLINE
  5
BFB
  8
0
 66
     1
 10
0.0
 20
0.0
 30
0.0
  0
VERTEX
  5
BFC
  8
0
 10
22.56418379780704
 20
103.98825276922609
 30
0.0
  0
VERTEX
  5
BFD
  8
0
 10
64.0
 20
125.09632291582071
 30
0.0
  0
VERTEX
  5
BFE
  8
0
 10
68.0
 20
125.09632291582071
 30
0.0
  0
SEQEND
  5
BFF
  8
0
  0
ENDBLK
  5
C01
  8
0
  0
BLOCK
  8
0
  2
*U23
 70
     1
 10
0.0
 20
0.0
 30
0.0
  3
*U23
  1

  0
TEXT
  5
C03
  8
0
  6
CONTINUOUS
 10
69.721691678035469
 20
123.02811009180969
 30
0.0
 40
4.0
  1
Cavity batten
  7
HCAV-01_WINDOW_HEAD$0$TEXT
  0
ENDBLK
  5
C05
  8
0
  0
BLOCK
  8
0
  2
*U24
 70
     1
 10
0.0
 20
0.0
 30
0.0
  3
*U24
  1

  0
SOLID
  5
C3E
  8
0
 10
40.802554769408388
 20
7.0219977235749917
 30
0.0
 11
39.995590477450321
 21
10.996070329347191
 31
0.0
 12
42.047823490634073
 22
7.4985306077652956
 32
0.0
 13
42.047823490634073
 23
7.4985306077652956
 33
0.0
  0
POLYLINE
  5
C3F
  8
0
 66
     1
 10
0.0
 20
0.0
 30
0.0
  0
VERTEX
  5
C40
  8
0
 10
41.425189130021231
 20
7.2602641656701454
 30
0.0
  0
VERTEX
  5
C41
  8
0
 10
64.0
 20
-51.731899432306591
 30
0.0
  0
VERTEX
  5
C42
  8
0
 10
68.0
 20
-51.731899432306591
 30
0.0
  0
SEQEND
  5
C43
  8
0
  0
ENDBLK
  5
C45
  8
0
  0
BLOCK
  8
0
  2
*U25
 70
     1
 10
0.0
 20
0.0
 30
0.0
  3
*U25
  1

  0
TEXT
  5
C47
  8
0
  6
CONTINUOUS
 10
69.552523874488401
 20
-53.800112256317512
 30
0.0
 40
4.0
  1
Head flashing
  7
HCAV-01_WINDOW_HEAD$0$TEXT
  0
TEXT
  5
C48
  8
0
  6
CONTINUOUS
 10
69.983628922237386
 20
-60.534991746995082
 30
0.0
 40
4.0
  1
with 5° fall.
  7
HCAV-01_WINDOW_HEAD$0$TEXT
  0
ENDBLK
  5
C4A
  8
0
  0
BLOCK
  8
0
  2
*U26
 70
     1
 10
0.0
 20
0.0
 30
0.0
  3
*U26
  1

  0
SOLID
  5
C4C
  8
0
 10
27.222803891629791
 20
-36.312790163239903
 30
0.0
 11
24.849588129556881
 21
-33.0245852743844
 31
0.0
 12
28.16096678736276
 22
-35.365357759926759
 32
0.0
 13
28.16096678736276
 23
-35.365357759926759
 33
0.0
  0
POLYLINE
  5
C4D
  8
0
 66
     1
 10
0.0
 20
0.0
 30
0.0
  0
VERTEX
  5
C4E
  8
0
 10
27.69188533949627
 20
-35.839073961583331
 30
0.0
  0
VERTEX
  5
C4F
  8
0
 10
64.0
 20
-71.791956583484875
 30
0.0
  0
VERTEX
  5
C50
  8
0
 10
68.0
 20
-71.791956583484875
 30
0.0
  0
SEQEND
  5
C51
  8
0
  0
ENDBLK
  5
C53
  8
0
  0
BLOCK
  8
0
  2
*U27
 70
     1
 10
0.0
 20
0.0
 30
0.0
  3
*U27
  1

  0
TEXT
  5
C55
  8
0
  6
CONTINUOUS
 10
69.931787175989086
 20
-73.791956583484875
 30
0.0
 40
4.0
  1
Window Frame
  7
HCAV-01_WINDOW_HEAD$0$TEXT
  0
ENDBLK
  5
C57
  8
0
  0
BLOCK
  8
0
  2
*U28
 70
     1
 10
0.0
 20
0.0
 30
0.0
  3
*U28
  1

  0
SOLID
  5
C59
  8
0
 10
41.973186759338212
 20
83.899834313843698
 30
0.0
 11
38.929071140709539
 21
81.220691812059727
 31
0.0
 12
40.939728887482389
 22
84.742296541410639
 32
0.0
 13
40.939728887482389
 23
84.742296541410639
 33
0.0
  0
POLYLINE
  5
C5A
  8
0
 66
     1
 10
0.0
 20
0.0
 30
0.0
  0
VERTEX
  5
C5B
  8
0
 10
41.456457823410297
 20
84.321065427627175
 30
0.0
  0
VERTEX
  5
C5C
  8
0
 10
64.0
 20
111.9754816845976
 30
0.0
  0
VERTEX
  5
C5D
  8
0
 10
68.0
 20
111.9754816845976
 30
0.0
  0
SEQEND
  5
C5E
  8
0
  0
ENDBLK
  5
C60
  8
0
  0
BLOCK
  8
0
  2
*U29
 70
     1
 10
0.0
 20
0.0
 30
0.0
  3
*U29
  1

  0
TEXT
  5
C62
  8
0
  6
CONTINUOUS
 10
69.748976807639835
 20
109.9072688605867
 30
0.0
 40
4.0
  1
Steel & Tube Custom
  7
HCAV-01_WINDOW_HEAD$0$TEXT
  0
TEXT
  5
C63
  8
0
  6
CONTINUOUS
 10
69.729877216916776
 20
103.1696608569487
 30
0.0
 40
4.0
  1
Orb wall cladding
  7
HCAV-01_WINDOW_HEAD$0$TEXT
  0
ENDBLK
  5
C65
  8
0
  0
BLOCK
  8
0
  2
*U30
 70
     1
 10
0.0
 20
0.0
 30
0.0
  3
*U30
  1

  0
TEXT
  5
C6B
  8
0
  6
CONTINUOUS
 10
73.557500717657078
 20
21.130190220345511
 30
0.0
 40
4.0
  1
5mm
 50
75.000000000005556
  7
HCAV-01_WINDOW_HEAD$0$ARIA
  0
TEXT
  5
C6C
  8
0
  6
CONTINUOUS
 10
80.386470628362886
 20
20.858230856084049
 30
0.0
 40
4.0
  1
gap
 50
75.000000000005556
  7
HCAV-01_WINDOW_HEAD$0$ARIA
  0
ENDBLK
  5
C6E
  8
0
  0
BLOCK
  8
0
  2
*U31
 70
     1
 10
0.0
 20
0.0
 30
0.0
  3
*U31
  1

  0
TEXT
  5
C70
  8
0
  6
CONTINUOUS
 10
100.1848200865807
 20
-38.674676698661763
 30
0.0
 40
4.0
  1
10mm
 50
90.0
  7
HCAV-01_WINDOW_HEAD$0$ARIA
  0
TEXT
  5
C71
  8
0
  6
CONTINUOUS
 10
106.85967229212871
 20
-43.897050504937333
 30
0.0
 40
4.0
  1
min. cover
 50
90.0
  7
HCAV-01_WINDOW_HEAD$0$ARIA
  0
ENDBLK
  5
C73
  8
0
  0
BLOCK
  8
0
  2
*U32
 70
     1
 10
0.0
 20
0.0
 30
0.0
  3
*U32
  1

  0
TEXT
  5
C75
  8
0
  6
CONTINUOUS
 10
99.482682751428385
 20
47.792675641220427
 30
0.0
 40
4.0
  1
75mm
 50
90.0
  7
HCAV-01_WINDOW_HEAD$0$ARIA
  0
ENDBLK
  5
C77
  8
0
  0
BLOCK
  8
0
  2
*U33
 70
     1
 10
0.0
 20
0.0
 30
0.0
  3
*U33
  1

  0
TEXT
  5
C79
  8
0
  6
CONTINUOUS
 10
107.5508955754393
 20
40.216959406568321
 30
0.0
 40
4.0
  1
min. overlap
 50
90.0
  7
HCAV-01_WINDOW_HEAD$0$ARIA
  0
ENDBLK
  5
C7B
  8
0
  0
ENDSEC
  0
SECTION
  2
ENTITIES
  0
POLYLINE
  5
889
  8
0
  6
CONTINUOUS
 66
     1
 10
0.0
 20
0.0
 30
0.0
 70
     1
  0
VERTEX
  5
B3C
  8
0
  6
CONTINUOUS
 10
49.749999999998181
 20
-2.2745852743869359
 30
0.0
  0
VERTEX
  5
B3D
  8
0
  6
CONTINUOUS
 10
49.749999999998181
 20
2.9754147256130632
 30
0.0
 42
-0.4142135623730951
  0
VERTEX
  5
B3E
  8
0
  6
CONTINUOUS
 10
50.249999999998181
 20
3.4754147256130632
 30
0.0
  0
VERTEX
  5
B3F
  8
0
  6
CONTINUOUS
 10
55.749999999998181
 20
3.475414725612608
 30
0.0
 42
-0.4142135623730784
  0
VERTEX
  5
B40
  8
0
  6
CONTINUOUS
 10
56.249999999998181
 20
2.975414725612608
 30
0.0
  0
VERTEX
  5
B41
  8
0
  6
CONTINUOUS
 10
56.249999999998181
 20
-12.37813866498027
 30
0.0
 42
-0.1989123673796969
  0
VERTEX
  5
B42
  8
0
  6
CONTINUOUS
 10
56.103553390592431
 20
-12.7316920555736
 30
0.0
  0
VERTEX
  5
B43
  8
0
  6
CONTINUOUS
 10
48.89644660940575
 20
-19.938798836758899
 30
0.0
 42
0.1989123673796435
  0
VERTEX
  5
B44
  8
0
  6
CONTINUOUS
 10
48.75
 20
-20.292352227352239
 30
0.0
  0
VERTEX
  5
B45
  8
0
  6
CONTINUOUS
 10
48.749999999996362
 20
-32.274585274387391
 30
0.0
  0
VERTEX
  5
B46
  8
0
  6
CONTINUOUS
 10
47.249999999996362
 20
-32.274585274387391
 30
0.0
  0
VERTEX
  5
B47
  8
0
  6
CONTINUOUS
 10
47.249999999998181
 20
-23.524585274386929
 30
0.0
 42
0.4142135623731409
  0
VERTEX
  5
B48
  8
0
  6
CONTINUOUS
 10
46.749999999998181
 20
-23.02458527438694
 30
0.0
  0
VERTEX
  5
B49
  8
0
  6
CONTINUOUS
 10
41.272542485936363
 20
-23.02458527438694
 30
0.0
 42
0.2840790438403827
  0
VERTEX
  5
B4A
  8
0
  6
CONTINUOUS
 10
40.825328890437959
 20
-23.300978476636828
 30
0.0
  0
VERTEX
  5
B4B
  8
0
  6
CONTINUOUS
 10
36.101722092686032
 20
-32.748192072134771
 30
0.0
 42
-0.2840790438403819
  0
VERTEX
  5
B4C
  8
0
  6
CONTINUOUS
 10
35.654508497185823
 20
-33.024585274384663
 30
0.0
  0
VERTEX
  5
B4D
  8
0
  6
CONTINUOUS
 10
16.749999999996358
 20
-33.024585274384208
 30
0.0
 42
0.414213562373126
  0
VERTEX
  5
B4E
  8
0
  6
CONTINUOUS
 10
16.249999999996358
 20
-33.524585274384208
 30
0.0
  0
VERTEX
  5
B4F
  8
0
  6
CONTINUOUS
 10
16.249999999998181
 20
-43.52458527438511
 30
0.0
 42
0.4142135623730571
  0
VERTEX
  5
B50
  8
0
  6
CONTINUOUS
 10
16.749999999998181
 20
-44.02458527438511
 30
0.0
  0
VERTEX
  5
B51
  8
0
  6
CONTINUOUS
 10
19.749999999996358
 20
-44.02458527438511
 30
0.0
 42
-0.4142135623730062
  0
VERTEX
  5
B52
  8
0
  6
CONTINUOUS
 10
20.249999999996358
 20
-44.52458527438511
 30
0.0
  0
VERTEX
  5
B53
  8
0
  6
CONTINUOUS
 10
20.249999999998181
 20
-47.024585274385572
 30
0.0
  0
VERTEX
  5
B54
  8
0
  6
CONTINUOUS
 10
18.749999999998181
 20
-47.024585274386929
 30
0.0
  0
VERTEX
  5
B55
  8
0
  6
CONTINUOUS
 10
18.749999999996358
 20
-46.024585274383753
 30
0.0
 42
0.4142135623728287
  0
VERTEX
  5
B56
  8
0
  6
CONTINUOUS
 10
18.249999999996358
 20
-45.524585274384201
 30
0.0
  0
VERTEX
  5
B57
  8
0
  6
CONTINUOUS
 10
16.749999999996358
 20
-45.524585274384201
 30
0.0
 42
0.4142135623730951
  0
VERTEX
  5
B58
  8
0
  6
CONTINUOUS
 10
16.249999999996358
 20
-46.024585274384208
 30
0.0
  0
VERTEX
  5
B59
  8
0
  6
CONTINUOUS
 10
16.249999999996358
 20
-51.024585274384208
 30
0.0
 42
0.4142135623730951
  0
VERTEX
  5
B5A
  8
0
  6
CONTINUOUS
 10
16.749999999996358
 20
-51.524585274384208
 30
0.0
  0
VERTEX
  5
B5B
  8
0
  6
CONTINUOUS
 10
18.249999999996358
 20
-51.524585274384208
 30
0.0
 42
0.4142135623730951
  0
VERTEX
  5
B5C
  8
0
  6
CONTINUOUS
 10
18.749999999996358
 20
-51.024585274384208
 30
0.0
  0
VERTEX
  5
B5D
  8
0
  6
CONTINUOUS
 10
18.749999999996358
 20
-50.024585274384663
 30
0.0
  0
VERTEX
  5
B5E
  8
0
  6
CONTINUOUS
 10
20.249999999996358
 20
-50.024585274383298
 30
0.0
  0
VERTEX
  5
B5F
  8
0
  6
CONTINUOUS
 10
20.249999999998181
 20
-52.52458527438602
 30
0.0
 42
-0.4142135623731676
  0
VERTEX
  5
B60
  8
0
  6
CONTINUOUS
 10
19.749999999998181
 20
-53.02458527438602
 30
0.0
  0
VERTEX
  5
B61
  8
0
  6
CONTINUOUS
 10
15.24999999999636
 20
-53.024585274384208
 30
0.0
 42
-0.4142135623729752
  0
VERTEX
  5
B62
  8
0
  6
CONTINUOUS
 10
14.74999999999636
 20
-52.524585274384201
 30
0.0
  0
VERTEX
  5
B63
  8
0
  6
CONTINUOUS
 10
14.74999999999636
 20
-33.524585274384208
 30
0.0
 42
0.4142135623730715
  0
VERTEX
  5
B64
  8
0
  6
CONTINUOUS
 10
14.24999999999636
 20
-33.024585274384208
 30
0.0
  0
VERTEX
  5
B65
  8
0
  6
CONTINUOUS
 10
1.749999999996362
 20
-33.024585274383753
 30
0.0
 42
0.4142135623731053
  0
VERTEX
  5
B66
  8
0
  6
CONTINUOUS
 10
1.249999999996362
 20
-33.52458527438376
 30
0.0
  0
VERTEX
  5
B67
  8
0
  6
CONTINUOUS
 10
1.249999999996362
 20
-38.52458527438376
 30
0.0
 42
-0.414213562373072
  0
VERTEX
  5
B68
  8
0
  6
CONTINUOUS
 10
0.7499999999963621
 20
-39.024585274383753
 30
0.0
  0
VERTEX
  5
B69
  8
0
  6
CONTINUOUS
 10
-4.5000000000036371
 20
-39.024585274384663
 30
0.0
  0
VERTEX
  5
B6A
  8
0
  6
CONTINUOUS
 10
-4.5000000000036371
 20
-37.524585274384208
 30
0.0
  0
VERTEX
  5
B6B
  8
0
  6
CONTINUOUS
 10
-0.750000000003638
 20
-37.524585274384208
 30
0.0
 42
0.4142135623730951
  0
VERTEX
  5
B6C
  8
0
  6
CONTINUOUS
 10
-0.250000000003638
 20
-37.024585274384208
 30
0.0
  0
VERTEX
  5
B6D
  8
0
  6
CONTINUOUS
 10
-0.250000000003638
 20
-19.52458527438375
 30
0.0
 42
0.4142135623731094
  0
VERTEX
  5
B6E
  8
0
  6
CONTINUOUS
 10
-0.750000000003638
 20
-19.02458527438375
 30
0.0
  0
VERTEX
  5
B6F
  8
0
  6
CONTINUOUS
 10
-9.5000000000036362
 20
-19.024585274384211
 30
0.0
  0
VERTEX
  5
B70
  8
0
  6
CONTINUOUS
 10
-9.5000000000036362
 20
-17.524585274384201
 30
0.0
  0
VERTEX
  5
B71
  8
0
  6
CONTINUOUS
 10
0.7499999999963621
 20
-17.524585274384201
 30
0.0
 42
-0.4142135623731081
  0
VERTEX
  5
B72
  8
0
  6
CONTINUOUS
 10
1.249999999996362
 20
-18.024585274384211
 30
0.0
  0
VERTEX
  5
B73
  8
0
  6
CONTINUOUS
 10
1.249999999998181
 20
-31.02458527438376
 30
0.0
 42
0.4142135623730852
  0
VERTEX
  5
B74
  8
0
  6
CONTINUOUS
 10
1.749999999998181
 20
-31.52458527438375
 30
0.0
  0
VERTEX
  5
B75
  8
0
  6
CONTINUOUS
 10
14.24999999999636
 20
-31.524585274384211
 30
0.0
 42
0.4142135623731053
  0
VERTEX
  5
B76
  8
0
  6
CONTINUOUS
 10
14.74999999999636
 20
-31.024585274384211
 30
0.0
  0
VERTEX
  5
B77
  8
0
  6
CONTINUOUS
 10
14.74999999999636
 20
-27.02458527438376
 30
0.0
 42
-0.4142135623730655
  0
VERTEX
  5
B78
  8
0
  6
CONTINUOUS
 10
15.24999999999636
 20
-26.52458527438375
 30
0.0
  0
VERTEX
  5
B79
  8
0
  6
CONTINUOUS
 10
20.38382064488178
 20
-26.52458527438375
 30
0.0
  0
VERTEX
  5
B7A
  8
0
  6
CONTINUOUS
 10
20.38382064488178
 20
-28.02458527438375
 30
0.0
  0
VERTEX
  5
B7B
  8
0
  6
CONTINUOUS
 10
16.749999999996358
 20
-28.024585274384211
 30
0.0
 42
0.4142135623729824
  0
VERTEX
  5
B7C
  8
0
  6
CONTINUOUS
 10
16.249999999996358
 20
-28.524585274384211
 30
0.0
  0
VERTEX
  5
B7D
  8
0
  6
CONTINUOUS
 10
16.249999999994539
 20
-31.024585274385121
 30
0.0
 42
0.4142135623731982
  0
VERTEX
  5
B7E
  8
0
  6
CONTINUOUS
 10
16.749999999994539
 20
-31.524585274385121
 30
0.0
  0
VERTEX
  5
B7F
  8
0
  6
CONTINUOUS
 10
34.727457514061832
 20
-31.52458527438375
 30
0.0
 42
0.2840790438404103
  0
VERTEX
  5
B80
  8
0
  6
CONTINUOUS
 10
35.174671109562041
 20
-31.248192072133861
 30
0.0
  0
VERTEX
  5
B81
  8
0
  6
CONTINUOUS
 10
38.924671109558403
 20
-23.748192072137041
 30
0.0
 42
0.5575365158350297
  0
VERTEX
  5
B82
  8
0
  6
CONTINUOUS
 10
38.477457514060013
 20
-23.02458527438694
 30
0.0
  0
VERTEX
  5
B83
  8
0
  6
CONTINUOUS
 10
35.87760084416368
 20
-23.024585274387849
 30
0.0
  0
VERTEX
  5
B84
  8
0
  6
CONTINUOUS
 10
35.877600844160042
 20
-21.524585274387391
 30
0.0
  0
VERTEX
  5
B85
  8
0
  6
CONTINUOUS
 10
46.749999999998181
 20
-21.524585274387849
 30
0.0
 42
0.4142135623731073
  0
VERTEX
  5
B86
  8
0
  6
CONTINUOUS
 10
47.249999999998181
 20
-21.024585274387849
 30
0.0
  0
VERTEX
  5
B87
  8
0
  6
CONTINUOUS
 10
47.25
 20
-19.67103188379178
 30
0.0
 42
-0.1989123673796139
  0
VERTEX
  5
B88
  8
0
  6
CONTINUOUS
 10
47.396446609405757
 20
-19.31747849319845
 30
0.0
  0
VERTEX
  5
B89
  8
0
  6
CONTINUOUS
 10
54.603553390594243
 20
-12.110371712012689
 30
0.0
 42
0.1989123673797151
  0
VERTEX
  5
B8A
  8
0
  6
CONTINUOUS
 10
54.75
 20
-11.75681832141936
 30
0.0
  0
VERTEX
  5
B8B
  8
0
  6
CONTINUOUS
 10
54.749999999998181
 20
1.4754147256135179
 30
0.0
 42
0.4142135623731039
  0
VERTEX
  5
B8C
  8
0
  6
CONTINUOUS
 10
54.249999999998181
 20
1.9754147256135179
 30
0.0
  0
VERTEX
  5
B8D
  8
0
  6
CONTINUOUS
 10
51.749999999998181
 20
1.975414725613063
 30
0.0
 42
0.4142135623730508
  0
VERTEX
  5
B8E
  8
0
  6
CONTINUOUS
 10
51.249999999998181
 20
1.475414725613063
 30
0.0
  0
VERTEX
  5
B8F
  8
0
  6
CONTINUOUS
 10
51.249999999998181
 20
-2.2745852743864812
 30
0.0
  0
SEQEND
  5
B90
  8
0
  6
CONTINUOUS
  0
LINE
  5
88A
  8
0
  6
CONTINUOUS
 10
-102.0
 20
-17.77458527438511
 30
0.0
 11
-102.0000000000018
 21
147.28584209503009
 31
0.0
  0
LINE
  5
88B
  8
0
  6
CONTINUOUS
 10
-110.0
 20
-17.77458527438603
 30
0.0
 11
-102.0
 21
-17.77458527438511
 31
0.0
  0
LINE
  5
88C
  8
0
  6
CONTINUOUS
 10
-110.0
 20
-17.77458527438603
 30
0.0
 11
-110.0
 21
147.285842095031
 31
0.0
  0
INSERT
  5
88D
  8
0
  6
CONTINUOUS
  2
*U13
 10
0.0
 20
0.0
 30
0.0
  0
INSERT
  5
88E
  8
0
  6
CONTINUOUS
  2
*U14
 10
0.0
 20
0.0
 30
0.0
  0
LINE
  5
88F
  8
0
 10
-1.0
 20
98.999999999999545
 30
0.0
 11
-1.0
 21
147.28584209503009
 31
0.0
  0
LINE
  5
890
  8
0
  6
HCAV-01_WINDOW_HEAD$0$DASH
 10
45.715029571019841
 20
-75.886104719762898
 30
0.0
 11
45.715029571025298
 21
-0.0092277534108689
 31
0.0
  0
POLYLINE
  5
891
  8
0
  6
CONTINUOUS
 66
     1
 10
0.0
 20
0.0
 30
0.0
 70
   128
  0
VERTEX
  5
B9E
  8
0
  6
CONTINUOUS
 10
-91.268493672574536
 20
-6.1736557559775056
 30
0.0
 42
-0.9999999999999998
  0
VERTEX
  5
B9F
  8
0
  6
CONTINUOUS
 10
-91.268493672572731
 20
-15.6569363114063
 30
0.0
 42
0.9999999999999039
  0
VERTEX
  5
BA0
  8
0
  6
CONTINUOUS
 10
-91.268493672574536
 20
-6.1736557559775056
 30
0.0
  0
VERTEX
  5
BA1
  8
0
  6
CONTINUOUS
 10
-95.544938526825717
 20
-6.1736557559784151
 30
0.0
 42
1.000000000000095
  0
VERTEX
  5
BA2
  8
0
  6
CONTINUOUS
 10
-95.544938526823884
 20
-15.6569363114063
 30
0.0
  0
VERTEX
  5
BA3
  8
0
  6
CONTINUOUS
 10
-91.268493672572731
 20
-15.65693631140539
 30
0.0
  0
SEQEND
  5
BA4
  8
0
  6
CONTINUOUS
  0
LINE
  5
893
  8
0
  6
CONTINUOUS
 10
-110.0
 20
-25.27458527438603
 30
0.0
 11
-116.0
 21
-23.666890119799518
 31
0.0
  0
LINE
  5
894
  8
0
  6
CONTINUOUS
 10
-116.0
 20
11.333109880201389
 30
0.0
 11
-116.0
 21
-23.666890119799518
 31
0.0
  0
LINE
  5
895
  8
0
  6
CONTINUOUS
 10
-110.0
 20
12.9408050347879
 30
0.0
 11
-116.0
 21
11.333109880201389
 31
0.0
  0
LINE
  5
896
  8
0
  6
CONTINUOUS
 10
-4.5000000000037419
 20
-39.024585274384663
 30
0.0
 11
-4.5000000000054561
 21
-75.886104719762898
 31
0.0
  0
LINE
  5
897
  8
0
  6
CONTINUOUS
 10
-110.0
 20
12.9408050347879
 30
0.0
 11
-110.0
 21
-75.886104719762898
 31
0.0
  0
LINE
  5
898
  8
0
  6
CONTINUOUS
 10
-116.0
 20
-23.666890119799518
 30
0.0
 11
-116.0
 21
-75.886104719762898
 31
0.0
  0
INSERT
  5
899
  8
0
  6
CONTINUOUS
  2
*U15
 10
0.0
 20
0.0
 30
0.0
  0
INSERT
  5
89A
  8
0
  6
CONTINUOUS
  2
*U16
 10
0.0
 20
0.0
 30
0.0
1001
ACAD
1000
DSTYLE
1002
{
1070
   176
1070
   256
1002
}
  0
INSERT
  5
89B
  8
0
  6
CONTINUOUS
  2
*U17
 10
0.0
 20
0.0
 30
0.0
  0
INSERT
  5
89C
  8
0
  6
CONTINUOUS
  2
*U18
 10
0.0
 20
0.0
 30
0.0
1001
ACAD
1000
DSTYLE
1002
{
1070
   176
1070
   256
1002
}
  0
DIMENSION
  5
89D
  8
0
  6
CONTINUOUS
  2
*D9
 10
101.5508955754393
 20
93.014126687806737
 30
0.0
 11
101.5508955754393
 21
55.507546036854812
 31
0.0
 70
     0
  1
<>mm\Xmin. overlap
 13
33.17148275047839
 23
18.00096538590287
 33
0.0
 14
26.500000000005461
 24
93.014126687806765
 34
0.0
 50
90.0
  0
DIMENSION
  5
89E
  8
0
  6
CONTINUOUS
  2
*D10
 10
101.5508955754393
 20
-4.0471187177613608
 30
0.0
 11
101.5508955754393
 21
-30.787909986519871
 31
0.0
 70
   128
  1
10mm\Xmin. cover
 13
58.249999999998181
 23
6.1048160394730067
 33
0.0
 14
58.249999999998181
 24
-4.0471187177613501
 34
0.0
 50
90.0
  0
INSERT
  5
89F
  8
0
  6
CONTINUOUS
  2
*U19
 10
0.0
 20
0.0
 30
0.0
  0
POLYLINE
  5
8A0
  8
0
  6
CONTINUOUS
 66
     1
 10
0.0
 20
0.0
 30
0.0
 70
   128
1001
GENIUS_GENOREF_13
1005
0
  0
VERTEX
  5
BCA
  8
0
  6
CONTINUOUS
 10
29.17148275047839
 20
18.000965385902418
 30
0.0
  0
VERTEX
  5
BCB
  8
0
  6
CONTINUOUS
 10
26.192591127120981
 20
22.529174293873439
 30
0.0
 42
-0.2994342437408275
  0
VERTEX
  5
BCC
  8
0
  6
CONTINUOUS
 10
26.1925911271228
 20
43.853329388717611
 30
0.0
  0
VERTEX
  5
BCD
  8
0
  6
CONTINUOUS
 10
37.37323549406392
 20
60.849010944335078
 30
0.0
 42
0.0225591747191857
  0
VERTEX
  5
BCE
  8
0
  6
CONTINUOUS
 10
38.249511978974617
 20
62.321644911983178
 30
0.0
 42
0.2749778623214645
  0
VERTEX
  5
BCF
  8
0
  6
CONTINUOUS
 10
37.37323549406392
 20
81.733492738254881
 30
0.0
  0
VERTEX
  5
BD0
  8
0
  6
CONTINUOUS
 10
31.327727606350891
 20
90.923260655868035
 30
0.0
  0
VERTEX
  5
BD1
  8
0
  6
CONTINUOUS
 10
31.661900985174729
 20
91.143097306330674
 30
0.0
  0
VERTEX
  5
BD2
  8
0
  6
CONTINUOUS
 10
37.707408872887761
 20
81.953329388716611
 30
0.0
 42
-0.1246013211635359
  0
VERTEX
  5
BD3
  8
0
  6
CONTINUOUS
 10
40.828260303225761
 20
72.958091260428318
 30
0.0
 42
-0.1416160147202539
  0
VERTEX
  5
BD4
  8
0
  6
CONTINUOUS
 10
38.737201739999371
 20
62.38962973210846
 30
0.0
 42
-0.0263007648430184
  0
VERTEX
  5
BD5
  8
0
  6
CONTINUOUS
 10
37.707408872885942
 20
60.629174293873348
 30
0.0
  0
VERTEX
  5
BD6
  8
0
  6
CONTINUOUS
 10
26.526764505944811
 20
43.633492738254972
 30
0.0
 42
0.2994342437408315
  0
VERTEX
  5
BD7
  8
0
  6
CONTINUOUS
 10
26.526764505944811
 20
22.749010944336082
 30
0.0
  0
VERTEX
  5
BD8
  8
0
  6
CONTINUOUS
 10
29.525095786424568
 20
18.191251841295522
 30
0.0
  0
SEQEND
  5
BD9
  8
0
  6
CONTINUOUS
  0
POLYLINE
  5
8A1
  8
0
  6
CONTINUOUS
 66
     1
 10
0.0
 20
0.0
 30
0.0
 70
   128
1001
GENIUS_GENOREF_13
1005
0
  0
VERTEX
  5
BDA
  8
0
  6
CONTINUOUS
 10
37.050820676407973
 20
82.223595042725734
 30
0.0
  0
VERTEX
  5
BDB
  8
0
  6
CONTINUOUS
 10
26.192591127119162
 20
98.729174293878245
 30
0.0
 42
-0.2994342437408275
  0
VERTEX
  5
BDC
  8
0
  6
CONTINUOUS
 10
26.192591127120981
 20
120.0533293887224
 30
0.0
  0
VERTEX
  5
BDD
  8
0
  6
CONTINUOUS
 10
37.373235494062101
 20
137.0490109443399
 30
0.0
 42
0.0225591747191857
  0
VERTEX
  5
BDE
  8
0
  6
CONTINUOUS
 10
38.249511978972812
 20
138.52164491198801
 30
0.0
 42
0.1207764457204476
  0
VERTEX
  5
BDF
  8
0
  6
CONTINUOUS
 10
40.498510402276217
 20
147.28584209502969
 30
0.0
 42
0.1207764457204476
  0
SEQEND
  5
BE0
  8
0
  6
CONTINUOUS
  0
DIMENSION
  5
8A2
  8
0
  6
CONTINUOUS
  2
*D11
 10
71.925704500589433
 20
7.6168029646675031
 30
0.0
 11
76.517397121065159
 21
26.698457969054829
 31
0.0
 70
   128
  1
<>mm\Xgap
 13
56.767638090201217
 23
6.5020137160922777
 33
0.0
 14
33.171482750476571
 24
18.00096538590287
 34
0.0
 50
75.000000000005556
  0
INSERT
  5
8A3
  8
0
  6
CONTINUOUS
  2
*U20
 10
0.0
 20
0.0
 30
0.0
  0
INSERT
  5
8A4
  8
0
  6
CONTINUOUS
  2
*U21
 10
0.0
 20
0.0
 30
0.0
1001
ACAD
1000
DSTYLE
1002
{
1070
   176
1070
   256
1002
}
  0
POLYLINE
  5
8A5
  8
0
  6
CONTINUOUS
 66
     1
 10
0.0
 20
0.0
 30
0.0
 70
   128
1001
GENIUS_GENOREF_13
1005
0
  0
VERTEX
  5
BF2
  8
0
  6
CONTINUOUS
 10
40.898912516815471
 20
147.28584209502969
 30
0.0
 42
-0.1170573537542063
  0
VERTEX
  5
BF3
  8
0
  6
CONTINUOUS
 10
38.737201739997552
 20
138.58962973211331
 30
0.0
 42
-0.0263007648430184
  0
VERTEX
  5
BF4
  8
0
  6
CONTINUOUS
 10
37.707408872884123
 20
136.82917429387811
 30
0.0
  0
VERTEX
  5
BF5
  8
0
  6
CONTINUOUS
 10
26.526764505942989
 20
119.83349273825981
 30
0.0
 42
0.2994342437408315
  0
VERTEX
  5
BF6
  8
0
  6
CONTINUOUS
 10
26.526764505942989
 20
98.949010944340884
 30
0.0
  0
VERTEX
  5
BF7
  8
0
  6
CONTINUOUS
 10
37.404433712354148
 20
82.413881498118826
 30
0.0
  0
SEQEND
  5
BF8
  8
0
  6
CONTINUOUS
  0
INSERT
  5
8A7
  8
0
  6
CONTINUOUS
  2
*U22
 10
0.0
 20
0.0
 30
0.0
1001
ACAD
1000
DSTYLE
1002
{
1070
   147
1040
1.0
1070
    77
1070
     0
1002
}
  0
INSERT
  5
8A8
  8
0
  6
CONTINUOUS
  2
*U23
 10
0.0
 20
0.0
 30
0.0
  0
POLYLINE
  5
8A9
  8
0
  6
CONTINUOUS
 66
     1
 10
0.0
 20
0.0
 30
0.0
 70
   128
 40
0.5
 41
0.5
  0
VERTEX
  5
C06
  8
0
  6
CONTINUOUS
 10
24.000000000005461
 20
81.451644453105018
 30
0.0
  0
VERTEX
  5
C07
  8
0
  6
CONTINUOUS
 10
24.000000000005461
 20
91.514126687806765
 30
0.0
 42
0.9999999999999998
  0
VERTEX
  5
C08
  8
0
  6
CONTINUOUS
 10
20.999999999998181
 20
91.514126687806765
 30
0.0
  0
VERTEX
  5
C09
  8
0
  6
CONTINUOUS
 10
21.000000000005279
 20
18.38790442146809
 30
0.0
 42
0.3394542588633397
  0
VERTEX
  5
C0A
  8
0
  6
CONTINUOUS
 10
23.22354286469762
 20
15.490126942601201
 30
0.0
  0
VERTEX
  5
C0B
  8
0
  6
CONTINUOUS
 10
56.767638090203043
 20
6.5020137160931881
 30
0.0
 42
-0.3394542588634028
  0
VERTEX
  5
C0C
  8
0
  6
CONTINUOUS
 10
58.249999999998181
 20
4.5701620635136351
 30
0.0
  0
VERTEX
  5
C0D
  8
0
  6
CONTINUOUS
 10
58.250000000005457
 20
-3.2797917297825729
 30
0.0
 42
0.131652497587326
  0
VERTEX
  5
C0E
  8
0
  6
CONTINUOUS
 10
58.383974596221108
 20
-3.7797917297822741
 30
0.0
  0
VERTEX
  5
C0F
  8
0
  6
CONTINUOUS
 10
60.588501553258538
 20
-7.5981444260246462
 30
0.0
  0
SEQEND
  5
C10
  8
0
  6
CONTINUOUS
  0
POLYLINE
  5
8AA
  8
0
  6
HCAV-01_WINDOW_HEAD$0$DASH
 66
     1
 10
0.0
 20
0.0
 30
0.0
 70
   128
  0
VERTEX
  5
C11
  8
0
  6
HCAV-01_WINDOW_HEAD$0$DASH
 10
-101.0000000000018
 20
-3.0000000000004539
 30
0.0
  0
VERTEX
  5
C12
  8
0
  6
HCAV-01_WINDOW_HEAD$0$DASH
 10
-3.0
 20
-3.0
 30
0.0
 42
0.4142135623730951
  0
VERTEX
  5
C13
  8
0
  6
HCAV-01_WINDOW_HEAD$0$DASH
 10
0.0
 20
0.0
 30
0.0
  0
VERTEX
  5
C14
  8
0
  6
HCAV-01_WINDOW_HEAD$0$DASH
 10
0.0
 20
147.28584209503009
 30
0.0
  0
SEQEND
  5
C15
  8
0
  6
HCAV-01_WINDOW_HEAD$0$DASH
  0
POLYLINE
  5
8AB
  8
0
 66
     1
 10
0.0
 20
0.0
 30
0.0
 70
     1
  0
VERTEX
  5
C16
  8
0
 10
-51.0
 20
-1.0000000000004541
 30
0.0
  0
VERTEX
  5
C17
  8
0
 10
-50.999999999999993
 20
98.999999999999545
 30
0.0
  0
VERTEX
  5
C18
  8
0
 10
-101.0
 20
98.999999999999545
 30
0.0
  0
VERTEX
  5
C19
  8
0
 10
-101.0
 20
-1.000000000000451
 30
0.0
  0
SEQEND
  5
C1A
  8
0
  0
POLYLINE
  5
8AC
  8
0
 66
     1
 10
0.0
 20
0.0
 30
0.0
 70
     1
 40
0.25
 41
0.25
  0
VERTEX
  5
C1B
  8
0
 10
-51.125
 20
-0.8750000000004548
 30
0.0
  0
VERTEX
  5
C1C
  8
0
 10
-51.124999999999993
 20
98.874999999999545
 30
0.0
  0
VERTEX
  5
C1D
  8
0
 10
-100.875
 20
98.874999999999545
 30
0.0
  0
VERTEX
  5
C1E
  8
0
 10
-100.875
 20
-0.8750000000004548
 30
0.0
  0
SEQEND
  5
C1F
  8
0
  0
LINE
  5
8AD
  8
0
 10
-51.0
 20
-1.0000000000004541
 30
0.0
 11
-101.0
 21
98.999999999999545
 31
0.0
  0
LINE
  5
8AE
  8
0
 10
-101.0
 20
-1.000000000000451
 30
0.0
 11
-50.999999999999993
 21
98.999999999999545
 31
0.0
  0
POLYLINE
  5
8AF
  8
0
 66
     1
 10
0.0
 20
0.0
 30
0.0
 70
     1
  0
VERTEX
  5
C20
  8
0
 10
-1.0
 20
-1.0000000000004541
 30
0.0
  0
VERTEX
  5
C21
  8
0
 10
-0.9999999999999939
 20
98.999999999999545
 30
0.0
  0
VERTEX
  5
C22
  8
0
 10
-50.999999999999993
 20
98.999999999999545
 30
0.0
  0
VERTEX
  5
C23
  8
0
 10
-51.0
 20
-1.000000000000451
 30
0.0
  0
SEQEND
  5
C24
  8
0
  0
POLYLINE
  5
8B0
  8
0
 66
     1
 10
0.0
 20
0.0
 30
0.0
 70
     1
 40
0.25
 41
0.25
  0
VERTEX
  5
C25
  8
0
 10
-1.125
 20
-0.8750000000004548
 30
0.0
  0
VERTEX
  5
C26
  8
0
 10
-1.124999999999994
 20
98.874999999999545
 30
0.0
  0
VERTEX
  5
C27
  8
0
 10
-50.874999999999993
 20
98.874999999999545
 30
0.0
  0
VERTEX
  5
C28
  8
0
 10
-50.875
 20
-0.8750000000004548
 30
0.0
  0
SEQEND
  5
C29
  8
0
  0
LINE
  5
8B1
  8
0
 10
-1.0
 20
-1.0000000000004541
 30
0.0
 11
-50.999999999999993
 21
98.999999999999545
 31
0.0
  0
LINE
  5
8B2
  8
0
 10
-51.0
 20
-1.000000000000451
 30
0.0
 11
-0.9999999999999939
 21
98.999999999999545
 31
0.0
  0
POLYLINE
  5
8B3
  8
0
  6
CONTINUOUS
 66
     1
 10
0.0
 20
0.0
 30
0.0
 70
   128
  0
VERTEX
  5
C2A
  8
0
  6
CONTINUOUS
 10
1.0000000000036371
 20
147.28584209502921
 30
0.0
  0
VERTEX
  5
C2B
  8
0
  6
CONTINUOUS
 10
1.0000000000018181
 20
31.033448828999099
 30
0.0
  0
VERTEX
  5
C2C
  8
0
  6
CONTINUOUS
 10
19.000000000003642
 20
31.033448828998189
 30
0.0
  0
VERTEX
  5
C2D
  8
0
  6
CONTINUOUS
 10
19.00000000000545
 20
147.28584209502969
 30
0.0
  0
SEQEND
  5
C2E
  8
0
  6
CONTINUOUS
  0
POLYLINE
  5
8B4
  8
0
 66
     1
 10
0.0
 20
0.0
 30
0.0
 70
   128
  0
VERTEX
  5
C2F
  8
0
 10
-120.0
 20
147.2858420950306
 30
0.0
  0
VERTEX
  5
C30
  8
0
 10
-32.961861330360989
 20
147.28584209503009
 30
0.0
  0
VERTEX
  5
C31
  8
0
 10
-31.561861330361349
 20
150.0858420950303
 30
0.0
  0
VERTEX
  5
C32
  8
0
 10
-28.76186133036208
 20
144.48584209502991
 30
0.0
  0
VERTEX
  5
C33
  8
0
 10
-27.361861330360629
 20
147.28584209503009
 30
0.0
  0
VERTEX
  5
C34
  8
0
 10
65.029310617783267
 20
147.28584209503009
 30
0.0
  0
SEQEND
  5
C35
  8
0
  0
POLYLINE
  5
8B5
  8
0
 66
     1
 10
0.0
 20
0.0
 30
0.0
 70
   128
  0
VERTEX
  5
C36
  8
0
 10
59.508491540786054
 20
-75.886104719762898
 30
0.0
  0
VERTEX
  5
C37
  8
0
 10
-27.361861330362451
 20
-75.886104719762898
 30
0.0
  0
VERTEX
  5
C38
  8
0
 10
-28.76186133036208
 20
-78.68610471976308
 30
0.0
  0
VERTEX
  5
C39
  8
0
 10
-31.561861330361349
 20
-73.086104719762716
 30
0.0
  0
VERTEX
  5
C3A
  8
0
 10
-32.961861330360989
 20
-75.886104719762898
 30
0.0
  0
VERTEX
  5
C3B
  8
0
 10
-126.0
 20
-75.886104719762898
 30
0.0
  0
SEQEND
  5
C3C
  8
0
  0
LINE
  5
8B6
  8
0
 10
-101.0
 20
98.999999999999545
 30
0.0
 11
-101.0
 21
147.28584209503049
 31
0.0
  0
INSERT
  5
8B9
  8
0
  6
CONTINUOUS
  2
*U24
 10
0.0
 20
0.0
 30
0.0
1001
ACAD
1000
DSTYLE
1002
{
1070
   147
1040
1.0
1070
    77
1070
     0
1002
}
  0
INSERT
  5
8BA
  8
0
  6
CONTINUOUS
  2
*U25
 10
0.0
 20
0.0
 30
0.0
  0
INSERT
  5
8BB
  8
0
  6
CONTINUOUS
  2
*U26
 10
0.0
 20
0.0
 30
0.0
1001
ACAD
1000
DSTYLE
1002
{
1070
   147
1040
1.0
1070
    77
1070
     0
1002
}
  0
INSERT
  5
8BC
  8
0
  6
CONTINUOUS
  2
*U27
 10
0.0
 20
0.0
 30
0.0
  0
INSERT
  5
8BD
  8
0
  6
CONTINUOUS
  2
*U28
 10
0.0
 20
0.0
 30
0.0
1001
ACAD
1000
DSTYLE
1002
{
1070
   147
1040
1.0
1070
    77
1070
     0
1002
}
  0
INSERT
  5
8BE
  8
0
  6
CONTINUOUS
  2
*U29
 10
0.0
 20
0.0
 30
0.0
  0
LINE
  5
904
  8
0
 10
-109.7500000000116
 20
-19.524585274384211
 30
0.0
 11
-1.750000000011581
 21
-37.524585274384208
 31
0.0
1001
ACDBBLOCKREPETAG
1070
     1
1071
        4
1005
904
  0
LINE
  5
905
  8
0
 10
-1.750000000011581
 20
-19.524585274384211
 30
0.0
 11
-109.7500000000116
 21
-37.524585274384208
 31
0.0
1001
ACDBBLOCKREPETAG
1070
     1
1071
        5
1005
905
  0
LINE
  5
906
  8
0
 10
-109.7500000000116
 20
-37.524585274384208
 30
0.0
 11
-1.750000000011581
 21
-37.524585274384208
 31
0.0
1001
ACDBBLOCKREPETAG
1070
     1
1071
        6
1005
906
  0
LINE
  5
907
  8
0
 10
-1.750000000011581
 20
-37.524585274384208
 30
0.0
 11
-1.750000000011581
 21
-19.524585274384211
 31
0.0
1001
ACDBBLOCKREPETAG
1070
     1
1071
        6
1005
906
  0
LINE
  5
908
  8
0
 10
-1.750000000011581
 20
-19.524585274384211
 30
0.0
 11
-109.7500000000116
 21
-19.524585274384211
 31
0.0
1001
ACDBBLOCKREPETAG
1070
     1
1071
        6
1005
906
  0
LINE
  5
909
  8
0
 10
-109.7500000000116
 20
-19.524585274384211
 30
0.0
 11
-109.7500000000116
 21
-37.524585274384208
 31
0.0
1001
ACDBBLOCKREPETAG
1070
     1
1071
        6
1005
906
  0
LINE
  5
90A
  8
0
 10
-109.61500000001161
 20
-37.399585274384208
 30
0.0
 11
-1.8850000000115721
 21
-37.399585274384208
 31
0.0
1001
ACDBBLOCKREPETAG
1070
     1
1071
        8
1005
90A
  0
LINE
  5
90B
  8
0
 10
-1.8850000000115721
 20
-37.399585274384208
 30
0.0
 11
-1.8850000000115721
 21
-19.649585274384211
 31
0.0
1001
ACDBBLOCKREPETAG
1070
     1
1071
        8
1005
90A
  0
LINE
  5
90C
  8
0
 10
-1.8850000000115721
 20
-19.649585274384211
 30
0.0
 11
-109.61500000001161
 21
-19.649585274384211
 31
0.0
1001
ACDBBLOCKREPETAG
1070
     1
1071
        8
1005
90A
  0
LINE
  5
90D
  8
0
 10
-109.61500000001161
 20
-19.649585274384211
 30
0.0
 11
-109.61500000001161
 21
-37.399585274384208
 31
0.0
1001
ACDBBLOCKREPETAG
1070
     1
1071
        8
1005
90A
  0
LINE
  5
90E
  8
0
 10
-24.272265288405851
 20
-15.93580425905021
 30
0.0
 11
-24.272265288405809
 21
-5.9358042590497604
 31
0.0
1001
ACDBBLOCKREPETAG
1070
     1
1071
        1
1005
90E
  0
LINE
  5
90F
  8
0
 10
-24.272265288405809
 20
-5.9358042590497604
 30
0.0
 11
-81.272265288405436
 21
-5.9358042590497471
 31
0.0
1001
ACDBBLOCKREPETAG
1070
     1
1071
        1
1005
90E
  0
LINE
  5
910
  8
0
 10
-81.272265288405436
 20
-5.9358042590497471
 30
0.0
 11
-24.272265288405851
 21
-15.93580425905021
 31
0.0
1001
ACDBBLOCKREPETAG
1070
     1
1071
        1
1005
90E
  0
LINE
  5
911
  8
0
 10
-24.34726528840585
 20
-15.79695575132296
 30
0.0
 11
-24.347265288405811
 21
-6.0608042590497604
 31
0.0
1001
ACDBBLOCKREPETAG
1070
     1
1071
        4
1005
911
  0
LINE
  5
912
  8
0
 10
-24.347265288405811
 20
-6.0608042590497604
 30
0.0
 11
-79.843328794360147
 21
-6.0608042590497471
 31
0.0
1001
ACDBBLOCKREPETAG
1070
     1
1071
        4
1005
911
  0
LINE
  5
913
  8
0
 10
-79.843328794360147
 20
-6.0608042590497471
 30
0.0
 11
-24.34726528840585
 21
-15.79695575132296
 31
0.0
1001
ACDBBLOCKREPETAG
1070
     1
1071
        4
1005
911
  0
LINE
  5
914
  8
0
 10
-27.272265288407009
 20
-15.93580425904976
 30
0.0
 11
-84.272265288405819
 21
-5.9358042590497462
 31
0.0
1001
ACDBBLOCKREPETAG
1070
     1
1071
        0
1005
914
  0
LINE
  5
915
  8
0
 10
-84.272265288405819
 20
-5.9358042590497462
 30
0.0
 11
-84.272265288405819
 21
-15.935804259049741
 31
0.0
1001
ACDBBLOCKREPETAG
1070
     1
1071
        0
1005
914
  0
LINE
  5
916
  8
0
 10
-84.272265288405819
 20
-15.935804259049741
 30
0.0
 11
-27.272265288407009
 21
-15.93580425904976
 31
0.0
1001
ACDBBLOCKREPETAG
1070
     1
1071
        0
1005
914
  0
LINE
  5
917
  8
0
 10
-28.70120178245234
 20
-15.81080425904976
 30
0.0
 11
-84.197265288405816
 21
-6.0746527667770032
 31
0.0
1001
ACDBBLOCKREPETAG
1070
     1
1071
        5
1005
917
  0
LINE
  5
918
  8
0
 10
-84.197265288405816
 20
-6.0746527667770032
 30
0.0
 11
-84.197265288405816
 21
-15.810804259049741
 31
0.0
1001
ACDBBLOCKREPETAG
1070
     1
1071
        5
1005
917
  0
LINE
  5
919
  8
0
 10
-84.197265288405816
 20
-15.810804259049741
 30
0.0
 11
-28.70120178245234
 21
-15.81080425904976
 31
0.0
1001
ACDBBLOCKREPETAG
1070
     1
1071
        5
1005
917
  0
LINE
  5
93D
  8
0
  6
CONTINUOUS
 10
-100.0614102823529
 20
-9.4714693803989576
 30
0.0
 11
-96.988765180120026
 21
-6.3988242781651934
 31
0.0
  0
LINE
  5
93E
  8
0
  6
CONTINUOUS
 10
-100.2550532926288
 20
-11.46116361488839
 30
0.0
 11
-94.967545433719351
 21
-6.1736557559788698
 31
0.0
  0
LINE
  5
93F
  8
0
  6
CONTINUOUS
 10
-99.865832361857443
 20
-12.8679939083313
 30
0.0
 11
-93.171494209504985
 21
-6.1736557559779612
 31
0.0
  0
LINE
  5
940
  8
0
  6
CONTINUOUS
 10
-99.171630427552373
 20
-13.969843198238779
 30
0.0
 11
-91.375442985290647
 21
-6.1736557559779612
 31
0.0
  0
LINE
  5
941
  8
0
  6
CONTINUOUS
 10
-98.229512165567954
 20
-14.823776160469601
 30
0.0
 11
-89.809452378979586
 21
-6.4037163738812524
 31
0.0
  0
LINE
  5
942
  8
0
  6
CONTINUOUS
 10
-97.028542827335514
 20
-15.41885804644971
 30
0.0
 11
-88.603276104117853
 21
-6.9935913232329758
 31
0.0
  0
LINE
  5
943
  8
0
  6
CONTINUOUS
 10
-95.47056986807911
 20
-15.656936311406749
 30
0.0
 11
-87.656737078616075
 21
-7.8431035219437026
 31
0.0
  0
LINE
  5
944
  8
0
  6
CONTINUOUS
 10
-93.674518643863848
 20
-15.65693631140584
 30
0.0
 11
-86.957789020299046
 21
-8.9402066878410551
 31
0.0
  0
LINE
  5
945
  8
0
  6
CONTINUOUS
 10
-91.878467419649496
 20
-15.65693631140584
 30
0.0
 11
-86.561844400502196
 21
-10.340313292258539
 31
0.0
  0
LINE
  5
946
  8
0
  6
CONTINUOUS
 10
-89.872154114429577
 20
-15.44667423039937
 30
0.0
 11
-86.737115475865721
 21
-12.311635591835509
 31
0.0
  0
LINE
  5
947
  8
0
  6
CONTINUOUS
 10
-97.252032213806842
 20
-15.338980433274511
 30
0.0
 11
-99.968622926406965
 21
-12.62238972067439
 31
0.0
  0
LINE
  5
948
  8
0
  6
CONTINUOUS
 10
-95.138025111460578
 20
-15.656936311407319
 30
0.0
 11
-100.2704481654763
 21
-10.524513257391501
 31
0.0
  0
LINE
  5
949
  8
0
  6
CONTINUOUS
 10
-93.341973887247946
 20
-15.65693631140652
 30
0.0
 11
-99.917558118904495
 21
-9.0813520797498768
 31
0.0
  0
LINE
  5
94A
  8
0
  6
CONTINUOUS
 10
-91.545922663034617
 20
-15.6569363114055
 30
0.0
 11
-99.248472741183846
 21
-7.9543862332562858
 31
0.0
  0
LINE
  5
94B
  8
0
  6
CONTINUOUS
 10
-89.939830091850013
 20
-15.46697765837666
 30
0.0
 11
-98.329440797298162
 21
-7.0773669529285144
 31
0.0
  0
LINE
  5
94C
  8
0
  6
CONTINUOUS
 10
-88.705924933067436
 20
-14.90483159294479
 30
0.0
 11
-97.155276937635449
 21
-6.4554795883768739
 31
0.0
  0
LINE
  5
94D
  8
0
  6
CONTINUOUS
 10
-87.736187972538573
 20
-14.07851732926019
 30
0.0
 11
-95.640094644350484
 21
-6.1746106574483974
 31
0.0
  0
LINE
  5
94E
  8
0
  6
CONTINUOUS
 10
-87.012658899880876
 20
-13.005995177704451
 30
0.0
 11
-93.844998321606553
 21
-6.1736557559788698
 31
0.0
  0
LINE
  5
94F
  8
0
  6
CONTINUOUS
 10
-86.582567375530061
 20
-11.640035477841019
 30
0.0
 11
-92.048947097393238
 21
-6.173655755977733
 31
0.0
  0
LINE
  5
950
  8
0
  6
CONTINUOUS
 10
-86.670825858536546
 20
-9.7557257706209821
 30
0.0
 11
-90.108923409503959
 21
-6.3176282196536704
 31
0.0
  0
ENDSEC
  0
EOF
