  0
SECTION
  2
HEADER
  9
$ACADVER
  1
AC1009
  9
$INSBASE
 10
0.0
 20
0.0
 30
0.0
  9
$EXTMIN
 10
-161.32809941285871
 20
-197.54640000858461
 30
-0.0015258207003583
  9
$EXTMAX
 10
164.26643957368481
 20
196.57042294585759
 30
0.0000000349246037
  9
$LIMMIN
 10
0.0
 20
0.0
  9
$LIMMAX
 10
12.0
 20
9.0
  9
$ORTHOMODE
 70
     0
  9
$REGENMODE
 70
     1
  9
$FILLMODE
 70
     1
  9
$QTEXTMODE
 70
     0
  9
$MIRRTEXT
 70
     0
  9
$DRAGMODE
 70
     2
  9
$LTSCALE
 40
0.5
  9
$OSMODE
 70
     0
  9
$ATTMODE
 70
     1
  9
$TEXTSIZE
 40
1.5
  9
$TRACEWID
 40
0.05
  9
$TEXTSTYLE
  7
TEXT_TITLE
  9
$CLAYER
  8
0
  9
$CELTYPE
  6
CONTINUOUS
  9
$CECOLOR
 62
   256
  9
$DIMSCALE
 40
2.0
  9
$DIMASZ
 40
3.0
  9
$DIMEXO
 40
1.5
  9
$DIMDLI
 40
3.75
  9
$DIMRND
 40
0.0
  9
$DIMDLE
 40
0.0
  9
$DIMEXE
 40
1.0
  9
$DIMTP
 40
0.0
  9
$DIMTM
 40
0.000000001
  9
$DIMTXT
 40
2.0
  9
$DIMCEN
 40
0.0
  9
$DIMTSZ
 40
0.0
  9
$DIMTOL
 70
     0
  9
$DIMLIM
 70
     0
  9
$DIMTIH
 70
     0
  9
$DIMTOH
 70
     0
  9
$DIMSE1
 70
     0
  9
$DIMSE2
 70
     0
  9
$DIMTAD
 70
     1
  9
$DIMZIN
 70
     8
  9
$DIMBLK
  1

  9
$DIMASO
 70
     1
  9
$DIMSHO
 70
     1
  9
$DIMPOST
  1

  9
$DIMAPOST
  1

  9
$DIMALT
 70
     0
  9
$DIMALTD
 70
     3
  9
$DIMALTF
 40
0.03937007874016
  9
$DIMLFAC
 40
1.0
  9
$DIMTOFL
 70
     1
  9
$DIMTVP
 40
0.0
  9
$DIMTIX
 70
     0
  9
$DIMSOXD
 70
     0
  9
$DIMSAH
 70
     0
  9
$DIMBLK1
  1

  9
$DIMBLK2
  1

  9
$DIMSTYLE
  2
DL1DS0_5
  9
$DIMCLRD
 70
   256
  9
$DIMCLRE
 70
   256
  9
$DIMCLRT
 70
     2
  9
$DIMTFAC
 40
0.8
  9
$DIMGAP
 40
1.0
  9
$LUNITS
 70
     2
  9
$LUPREC
 70
     1
  9
$SKETCHINC
 40
0.1
  9
$FILLETRAD
 40
0.0
  9
$AUNITS
 70
     1
  9
$AUPREC
 70
     4
  9
$MENU
  1
.
  9
$ELEVATION
 40
0.0
  9
$PELEVATION
 40
0.0
  9
$THICKNESS
 40
0.0
  9
$LIMCHECK
 70
     0
  9
$BLIPMODE
 70
     0
  9
$CHAMFERA
 40
0.0
  9
$CHAMFERB
 40
0.0
  9
$SKPOLY
 70
     0
  9
$TDCREATE
 40
2452152.65359294
  9
$TDUPDATE
 40
2455936.538831667
  9
$TDINDWG
 40
14.4658011806
  9
$TDUSRTIMER
 40
14.4658011806
  9
$USRTIMER
 70
     1
  9
$ANGBASE
 50
0.0
  9
$ANGDIR
 70
     0
  9
$PDMODE
 70
     3
  9
$PDSIZE
 40
0.0
  9
$PLINEWID
 40
0.0
  9
$COORDS
 70
     1
  9
$SPLFRAME
 70
     0
  9
$SPLINETYPE
 70
     6
  9
$SPLINESEGS
 70
     8
  9
$ATTDIA
 70
     0
  9
$ATTREQ
 70
     1
  9
$HANDLING
 70
     1
  9
$HANDSEED
  5
11D1
  9
$SURFTAB1
 70
     6
  9
$SURFTAB2
 70
     6
  9
$SURFTYPE
 70
     6
  9
$SURFU
 70
     6
  9
$SURFV
 70
     6
  9
$UCSNAME
  2

  9
$UCSORG
 10
0.0
 20
0.0
 30
0.0
  9
$UCSXDIR
 10
1.0
 20
0.0
 30
0.0
  9
$UCSYDIR
 10
0.0
 20
1.0
 30
0.0
  9
$PUCSNAME
  2

  9
$PUCSORG
 10
0.0
 20
0.0
 30
0.0
  9
$PUCSXDIR
 10
1.0
 20
0.0
 30
0.0
  9
$PUCSYDIR
 10
0.0
 20
1.0
 30
0.0
  9
$USERI1
 70
     0
  9
$USERI2
 70
     0
  9
$USERI3
 70
     0
  9
$USERI4
 70
     0
  9
$USERI5
 70
     0
  9
$USERR1
 40
0.0
  9
$USERR2
 40
0.0
  9
$USERR3
 40
0.0
  9
$USERR4
 40
0.0
  9
$USERR5
 40
0.0
  9
$WORLDVIEW
 70
     1
  9
$SHADEDGE
 70
     3
  9
$SHADEDIF
 70
    70
  9
$TILEMODE
 70
     1
  9
$MAXACTVP
 70
    48
  9
$PLIMCHECK
 70
     0
  9
$PEXTMIN
 10
0.0
 20
0.0
 30
0.0
  9
$PEXTMAX
 10
0.0
 20
0.0
 30
0.0
  9
$PLIMMIN
 10
0.0
 20
0.0
  9
$PLIMMAX
 10
12.0
 20
9.0
  9
$UNITMODE
 70
     0
  9
$VISRETAIN
 70
     1
  9
$PLINEGEN
 70
     1
  9
$PSLTSCALE
 70
     1
  0
ENDSEC
  0
SECTION
  2
TABLES
  0
TABLE
  2
VPORT
 70
     1
  0
VPORT
  2
*ACTIVE
 70
     0
 10
0.0
 20
0.0
 11
1.0
 21
1.0
 12
1.4691700804130221
 22
-0.4879885313634987
 13
0.0
 23
0.0
 14
1.0
 24
1.0
 15
0.5
 25
0.5
 16
0.0
 26
0.0
 36
1.0
 17
0.0
 27
0.0
 37
0.0
 40
396.48626277180369
 41
1.908726178535606
 42
50.0
 43
0.0
 44
0.0
 50
0.0
 51
0.0
 71
     0
 72
 20000
 73
     1
 74
     3
 75
     0
 76
     0
 77
     0
 78
     0
  0
ENDTAB
  0
TABLE
  2
LTYPE
 70
     2
  0
LTYPE
  2
CONTINUOUS
 70
     0
  3
Solid line
 72
    65
 73
     0
 40
0.0
  0
LTYPE
  2
HCAV-05A_WIND_FLASH$0$HIDD
 70
     0
  3
Hidden __ __ __ __ __ __ __ __ __ __ __ __ __ _
 72
    65
 73
     2
 40
9.5249999999999986
 49
6.3499999999999988
 49
-3.1749999999999989
  0
ENDTAB
  0
TABLE
  2
LAYER
 70
    11
  0
LAYER
  2
0
 70
     0
 62
     7
  6
CONTINUOUS
  0
LAYER
  2
DEFPOINTS
 70
     0
 62
   231
  6
CONTINUOUS
  0
ENDTAB
  0
TABLE
  2
STYLE
 70
     7
  0
STYLE
  2
STANDARD
 70
     0
 40
0.0
 41
1.0
 50
0.0
 71
     0
 42
1.5
  3
romans.shx
  4

  0
STYLE
  2
TEXT_NOTE
 70
     0
 40
0.0
 41
1.0
 50
0.0
 71
     0
 42
2.5
  3
txt
  4

  0
STYLE
  2
TEXT_TITLE
 70
     0
 40
0.0
 41
1.0
 50
10.0
 71
     0
 42
1.5
  3
txt
  4

  0
STYLE
  2
HCAV-05A_WIND_FLASH$0$TEXT
 70
     0
 40
0.0
 41
1.0
 50
0.0
 71
     0
 42
2.5
  3
txt
  4

  0
STYLE
  2
HCAV-05A_WIND_FLASH$0$ARIA
 70
     0
 40
0.0
 41
1.0
 50
0.0
 71
     0
 42
1.5
  3
txt
  4

  0
ENDTAB
  0
TABLE
  2
VIEW
 70
     2
  0
VIEW
  2
COMM-04
 70
     1
 40
477.26027331217421
 10
194.21746115522001
 20
180.60494410563541
 41
755.81685306636155
 11
0.0
 21
0.0
 31
1.0
 12
0.0
 22
0.0
 32
0.0
 42
50.0
 43
0.0
 44
0.0
 50
0.0
 71
     0
  0
ENDTAB
  0
TABLE
  2
UCS
 70
     0
  0
ENDTAB
  0
TABLE
  2
APPID
 70
    25
  0
APPID
  2
ACAD
 70
     0
  0
APPID
  2
RAK
 70
     0
  0
APPID
  2
GENIUS_GENODEF_13
 70
     0
  0
APPID
  2
GENIUS_GENOREF_13
 70
     0
  0
APPID
  2
GENIUS_GENOBJ-N-FIL_13
 70
     0
  0
APPID
  2
ACAD_EXEMPT_FROM_CAD_STANDARDS
 70
     0
  0
APPID
  2
ACAD_MLEADERVER
 70
     0
  0
APPID
  2
ACAD_DSTYLE_DIMEXT_ENABLED
 70
     0
  0
APPID
  2
ACAD_DSTYLE_DIMEXT_LENGTH
 70
     0
  0
APPID
  2
GENIUS_GENSCREG_15
 70
     0
  0
APPID
  2
GENIUS_GENOBJ-N-SDF_13
 70
     0
  0
APPID
  2
GENIUS_GENCFG_13
 70
     0
  0
APPID
  2
GENIUS_GENCFG0_13
 70
     0
  0
APPID
  2
ACAD_PSEXT
 70
     0
  0
APPID
  2
ACAECLAYERSTANDARD
 70
     0
  0
APPID
  2
ACCMTRANSPARENCY
 70
     0
  0
APPID
  2
ACADANNOPO
 70
     0
  0
APPID
  2
ADESKUNDERLAYLAYEROVERRIDEDATA
 70
     0
  0
APPID
  2
URBANX
 70
     0
  0
APPID
  2
GRADIENTCOLOR1ACI
 70
     0
  0
APPID
  2
GRADIENTCOLOR2ACI
 70
     0
  0
APPID
  2
ACAD_NAV_VCDISPLAY
 70
     0
  0
APPID
  2
ACADANNOTATIVE
 70
     0
  0
APPID
  2
ACAD_DSTYLE_DIMJOGGED_JOGA
 70
     0
  0
APPID
  2
PE_URL
 70
     0
  0
ENDTAB
  0
TABLE
  2
DIMSTYLE
 70
     3
  0
DIMSTYLE
  2
DL1DS0_5
 70
     0
  3

  4

  5

  6

  7

 40
2.0
 41
3.0
 42
1.5
 43
3.75
 44
1.0
 45
0.0
 46
0.0
 47
0.0
 48
0.000000001
140
2.0
141
0.0
142
0.0
143
0.03937007874016
144
1.0
145
0.0
146
0.8
147
1.0
 71
     0
 72
     0
 73
     0
 74
     0
 75
     0
 76
     0
 77
     1
 78
     8
170
     0
171
     3
172
     1
173
     0
174
     0
175
     0
176
   256
177
   256
178
     2
  0
DIMSTYLE
  2
HCAV-05A_WIND_FLASH$0$1_TO
 70
     0
  3

  4

  5
HCAV-05A_WIND_FLASH$0$_ARC
  6

  7

 40
2.0
 41
2.0
 42
2.0
 43
6.0
 44
1.5
 45
0.0
 46
1.5
 47
0.0
 48
0.0
140
2.0
141
2.0
142
0.0
143
0.0394
144
1.0
145
0.0
146
1.0
147
1.0
 71
     0
 72
     0
 73
     0
 74
     0
 75
     0
 76
     0
 77
     0
 78
     0
170
     0
171
     2
172
     1
173
     0
174
     1
175
     0
176
     0
177
     0
178
     0
  0
DIMSTYLE
  2
HCAV-05A_WIND_FLASH$0$1_T0
 70
     0
  3

  4

  5
HCAV-05A_WIND_FLASH$0$_ARC
  6

  7

 40
2.0
 41
2.0
 42
2.0
 43
6.0
 44
2.0
 45
0.0
 46
2.0
 47
0.0
 48
0.0
140
2.0
141
2.0
142
0.0
143
0.0394
144
1.0
145
0.0
146
1.0
147
1.0
 71
     0
 72
     0
 73
     0
 74
     0
 75
     0
 76
     0
 77
     1
 78
     0
170
     0
171
     2
172
     0
173
     0
174
     0
175
     0
176
   256
177
   256
178
   256
  0
ENDTAB
  0
ENDSEC
  0
SECTION
  2
BLOCKS
  0
BLOCK
  8
0
  2
$MODEL_SPACE
 70
     0
 10
0.0
 20
0.0
 30
0.0
  3
$MODEL_SPACE
  1

  0
ENDBLK
  5
C
  8
0
  0
BLOCK
 67
     1
  8
0
  2
$PAPER_SPACE
 70
     0
 10
0.0
 20
0.0
 30
0.0
  3
$PAPER_SPACE
  1

  0
ENDBLK
  5
EE0
 67
     1
  8
0
  0
BLOCK
  8
0
  2
HCAV-05A_WIND_FLASH$0$_ARC
 70
     0
 10
0.0
 20
0.0
 30
0.0
  3
HCAV-05A_WIND_FLASH$0$_ARC
  1

  0
POLYLINE
  5
B32
  8
0
  6
BYBLOCK
 62
     0
 66
     1
 10
0.0
 20
0.0
 30
0.0
 40
0.15
 41
0.15
  0
VERTEX
  5
1040
  8
0
  6
BYBLOCK
 62
     0
 10
-0.5
 20
-0.5
 30
0.0
  0
VERTEX
  5
1041
  8
0
  6
BYBLOCK
 62
     0
 10
0.5
 20
0.5
 30
0.0
  0
SEQEND
  5
1042
  8
0
  6
BYBLOCK
 62
     0
  0
ENDBLK
  5
B33
  8
0
  0
BLOCK
  8
0
  2
*D33
 70
     1
 10
0.0
 20
0.0
 30
0.0
  3
*D33
  1

  0
LINE
  5
F57
  8
0
  6
CONTINUOUS
 10
-119.3181644205342
 20
184.32488333818989
 30
0.0
 11
-119.3181644205342
 21
193.42333387985349
 31
0.0
  0
LINE
  5
F58
  8
0
  6
CONTINUOUS
 10
-49.318164420534231
 20
179.42333387985349
 30
0.0
 11
-49.318164420534231
 21
193.42333387985349
 31
0.0
  0
LINE
  5
F59
  8
0
  6
CONTINUOUS
 10
-123.3181644205342
 20
189.42333387985349
 30
0.0
 11
-45.318164420534231
 21
189.42333387985349
 31
0.0
  0
INSERT
  5
F5A
  8
0
  6
CONTINUOUS
  2
HCAV-05A_WIND_FLASH$0$_ARC
 10
-119.3181644205342
 20
189.42333387985349
 30
0.0
 41
4.0
 42
4.0
 43
4.0
 50
180.0
  0
INSERT
  5
F5B
  8
0
  6
CONTINUOUS
  2
HCAV-05A_WIND_FLASH$0$_ARC
 10
-49.318164420534231
 20
189.42333387985349
 30
0.0
 41
4.0
 42
4.0
 43
4.0
  0
INSERT
  5
F5C
  8
0
  6
CONTINUOUS
  2
*U105
 10
0.0
 20
0.0
 30
0.0
  0
POINT
  5
F5D
  8
DEFPOINTS
  6
CONTINUOUS
 62
     0
 10
-119.3181644205342
 20
180.32488333818989
 30
0.0
  0
POINT
  5
F5E
  8
DEFPOINTS
  6
CONTINUOUS
 62
     0
 10
-49.318164420534231
 20
171.36717528907681
 30
0.0
  0
POINT
  5
F5F
  8
DEFPOINTS
  6
CONTINUOUS
 62
     0
 10
-49.318164420534231
 20
189.42333387985349
 30
0.0
  0
ENDBLK
  5
DA4
  8
0
  0
BLOCK
  8
0
  2
*D34
 70
     1
 10
0.0
 20
0.0
 30
0.0
  3
*D34
  1

  0
LINE
  5
F4E
  8
0
  6
CONTINUOUS
 10
-119.3181644205342
 20
175.36717528907681
 30
0.0
 11
-119.3181644205342
 21
183.96562583074049
 31
0.0
  0
LINE
  5
F4F
  8
0
  6
CONTINUOUS
 10
-109.3181644205342
 20
176.36717528907681
 30
0.0
 11
-109.3181644205342
 21
183.96562583074049
 31
0.0
  0
LINE
  5
F50
  8
0
  6
CONTINUOUS
 10
-123.3181644205342
 20
179.96562583074041
 30
0.0
 11
-105.3181644205342
 21
179.96562583074041
 31
0.0
  0
INSERT
  5
F51
  8
0
  6
CONTINUOUS
  2
*U104
 10
0.0
 20
0.0
 30
0.0
  0
INSERT
  5
F52
  8
0
  6
CONTINUOUS
  2
HCAV-05A_WIND_FLASH$0$_ARC
 10
-119.3181644205342
 20
179.96562583074041
 30
0.0
 41
4.0
 42
4.0
 43
4.0
 50
180.0
  0
INSERT
  5
F53
  8
0
  6
CONTINUOUS
  2
HCAV-05A_WIND_FLASH$0$_ARC
 10
-109.3181644205342
 20
179.96562583074041
 30
0.0
 41
4.0
 42
4.0
 43
4.0
  0
POINT
  5
F54
  8
DEFPOINTS
  6
CONTINUOUS
 62
     0
 10
-119.3181644205342
 20
171.36717528907681
 30
0.0
  0
POINT
  5
F55
  8
DEFPOINTS
  6
CONTINUOUS
 62
     0
 10
-109.3181644205342
 20
172.36717528907681
 30
0.0
  0
POINT
  5
F56
  8
DEFPOINTS
  6
CONTINUOUS
 62
     0
 10
-109.3181644205342
 20
179.96562583074041
 30
0.0
  0
ENDBLK
  5
DB0
  8
0
  0
BLOCK
  8
0
  2
*D35
 70
     1
 10
0.0
 20
0.0
 30
0.0
  3
*D35
  1

  0
LINE
  5
F45
  8
0
  6
CONTINUOUS
 10
-59.318164420534231
 20
176.36717528907681
 30
0.0
 11
-59.318164420534231
 21
183.96562583074049
 31
0.0
  0
LINE
  5
F46
  8
0
  6
CONTINUOUS
 10
-49.318164420534231
 20
176.36717528907681
 30
0.0
 11
-49.318164420534231
 21
183.96562583074049
 31
0.0
  0
LINE
  5
F47
  8
0
  6
CONTINUOUS
 10
-63.318164420534231
 20
179.96562583074041
 30
0.0
 11
-45.318164420534231
 21
179.96562583074041
 31
0.0
  0
INSERT
  5
F48
  8
0
  6
CONTINUOUS
  2
*U103
 10
0.0
 20
0.0
 30
0.0
  0
INSERT
  5
F49
  8
0
  6
CONTINUOUS
  2
HCAV-05A_WIND_FLASH$0$_ARC
 10
-59.318164420534231
 20
179.96562583074041
 30
0.0
 41
4.0
 42
4.0
 43
4.0
 50
180.0
  0
INSERT
  5
F4A
  8
0
  6
CONTINUOUS
  2
HCAV-05A_WIND_FLASH$0$_ARC
 10
-49.318164420534231
 20
179.96562583074041
 30
0.0
 41
4.0
 42
4.0
 43
4.0
  0
POINT
  5
F4B
  8
DEFPOINTS
  6
CONTINUOUS
 62
     0
 10
-59.318164420534231
 20
172.36717528907681
 30
0.0
  0
POINT
  5
F4C
  8
DEFPOINTS
  6
CONTINUOUS
 62
     0
 10
-49.318164420534231
 20
172.36717528907681
 30
0.0
  0
POINT
  5
F4D
  8
DEFPOINTS
  6
CONTINUOUS
 62
     0
 10
-49.318164420534231
 20
179.96562583074041
 30
0.0
  0
ENDBLK
  5
DBC
  8
0
  0
BLOCK
  8
0
  2
*D36
 70
     1
 10
0.0
 20
0.0
 30
0.0
  3
*D36
  1

  0
LINE
  5
F3C
  8
0
 10
-72.318166930319819
 20
-16.39585761546596
 30
0.0
 11
-72.318166930319819
 21
-30.39585761546596
 31
0.0
  0
LINE
  5
F3D
  8
0
 10
-42.318164420534238
 20
-16.39585761546596
 30
0.0
 11
-42.318164420534238
 21
-30.39585761546596
 31
0.0
  0
LINE
  5
F3E
  8
0
 10
-76.318166930319819
 20
-26.39585761546596
 30
0.0
 11
-38.318164420534238
 21
-26.39585761546596
 31
0.0
  0
INSERT
  5
F3F
  8
0
  2
HCAV-05A_WIND_FLASH$0$_ARC
 10
-72.318166930319819
 20
-26.39585761546596
 30
0.0
 41
4.0
 42
4.0
 43
4.0
 50
180.0
  0
INSERT
  5
F40
  8
0
  2
HCAV-05A_WIND_FLASH$0$_ARC
 10
-42.318164420534238
 20
-26.39585761546596
 30
0.0
 41
4.0
 42
4.0
 43
4.0
  0
INSERT
  5
F41
  8
0
  6
CONTINUOUS
  2
*U102
 10
0.0
 20
0.0
 30
0.0
  0
POINT
  5
F42
  8
DEFPOINTS
 62
     0
 10
-72.318166930319819
 20
-5.3843539215499261
 30
0.0
  0
POINT
  5
F43
  8
DEFPOINTS
 62
     0
 10
-42.318164420534238
 20
-4.9651158923629772
 30
0.0
  0
POINT
  5
F44
  8
DEFPOINTS
 62
     0
 10
-42.318164420534238
 20
-26.39585761546596
 30
0.0
  0
ENDBLK
  5
DC8
  8
0
  0
BLOCK
  8
0
  2
*D37
 70
     1
 10
0.0
 20
0.0
 30
0.0
  3
*D37
  1

  0
LINE
  5
F33
  8
0
 10
-82.318166928084722
 20
-16.373083435224991
 30
0.0
 11
-82.318166928084722
 21
-30.373083435224991
 31
0.0
  0
LINE
  5
F34
  8
0
 10
-72.318166930319819
 20
-16.373083435224991
 30
0.0
 11
-72.318166930319819
 21
-30.373083435224991
 31
0.0
  0
LINE
  5
F35
  8
0
 10
-86.318166928084722
 20
-26.373083435224991
 30
0.0
 11
-68.318166930319805
 21
-26.373083435224991
 31
0.0
  0
INSERT
  5
F36
  8
0
  6
CONTINUOUS
  2
*U101
 10
0.0
 20
0.0
 30
0.0
  0
INSERT
  5
F37
  8
0
  2
HCAV-05A_WIND_FLASH$0$_ARC
 10
-82.318166928084722
 20
-26.373083435224991
 30
0.0
 41
4.0
 42
4.0
 43
4.0
 50
180.0
  0
INSERT
  5
F38
  8
0
  2
HCAV-05A_WIND_FLASH$0$_ARC
 10
-72.318166930319819
 20
-26.373083435224991
 30
0.0
 41
4.0
 42
4.0
 43
4.0
  0
POINT
  5
F39
  8
DEFPOINTS
 62
     0
 10
-82.318166928084722
 20
11.534884107637041
 30
0.0
  0
POINT
  5
F3A
  8
DEFPOINTS
 62
     0
 10
-72.318166930319819
 20
-5.3843539215499261
 30
0.0
  0
POINT
  5
F3B
  8
DEFPOINTS
 62
     0
 10
-72.318166930319819
 20
-26.373083435224991
 30
0.0
  0
ENDBLK
  5
DD4
  8
0
  0
BLOCK
  8
0
  2
*D38
 70
     1
 10
0.0
 20
0.0
 30
0.0
  3
*D38
  1

  0
LINE
  5
F2A
  8
0
 10
-39.62221779591529
 20
-6.4651158923629781
 30
0.0
 11
-25.622217795915279
 21
-6.4651158923629817
 31
0.0
  0
LINE
  5
F2B
  8
0
 10
-37.31816442053605
 20
33.534884107637481
 30
0.0
 11
-25.622217795915279
 21
33.534884107637481
 31
0.0
  0
LINE
  5
F2C
  8
0
 10
-29.62221779591529
 20
-10.465115892362981
 30
0.0
 11
-29.622217795915279
 21
37.534884107637481
 31
0.0
  0
INSERT
  5
F2D
  8
0
  2
HCAV-05A_WIND_FLASH$0$_ARC
 10
-29.62221779591529
 20
-6.4651158923629808
 30
0.0
 41
4.0
 42
4.0
 43
4.0
 50
270.0
  0
INSERT
  5
F2E
  8
0
  2
HCAV-05A_WIND_FLASH$0$_ARC
 10
-29.622217795915279
 20
33.534884107637481
 30
0.0
 41
4.0
 42
4.0
 43
4.0
 50
90.0
  0
INSERT
  5
F2F
  8
0
  6
CONTINUOUS
  2
*U100
 10
0.0
 20
0.0
 30
0.0
  0
POINT
  5
F30
  8
DEFPOINTS
 62
     0
 10
-43.818164420534231
 20
-6.4651158923629772
 30
0.0
  0
POINT
  5
F31
  8
DEFPOINTS
 62
     0
 10
-41.318164420536043
 20
33.534884107637481
 30
0.0
  0
POINT
  5
F32
  8
DEFPOINTS
 62
     0
 10
-29.622217795915279
 20
33.534884107637481
 30
0.0
  0
ENDBLK
  5
DE0
  8
0
  0
BLOCK
  8
0
  2
*D39
 70
     1
 10
0.0
 20
0.0
 30
0.0
  3
*D39
  1

  0
LINE
  5
F21
  8
0
 10
-142.31816441834209
 20
37.604142384534072
 30
0.0
 11
-142.31816441834209
 21
51.604142384534072
 31
0.0
  0
LINE
  5
F22
  8
0
 10
-132.31816441834201
 20
37.604142384534072
 30
0.0
 11
-132.31816441834201
 21
51.604142384534057
 31
0.0
  0
LINE
  5
F23
  8
0
 10
-146.31816441834209
 20
47.604142384534057
 30
0.0
 11
-128.31816441834201
 21
47.604142384534057
 31
0.0
  0
INSERT
  5
F24
  8
0
  2
HCAV-05A_WIND_FLASH$0$_ARC
 10
-142.31816441834209
 20
47.604142384534057
 30
0.0
 41
4.0
 42
4.0
 43
4.0
 50
180.0
  0
INSERT
  5
F25
  8
0
  2
HCAV-05A_WIND_FLASH$0$_ARC
 10
-132.31816441834201
 20
47.604142384534057
 30
0.0
 41
4.0
 42
4.0
 43
4.0
  0
INSERT
  5
F26
  8
0
  6
CONTINUOUS
  2
*U99
 10
0.0
 20
0.0
 30
0.0
  0
POINT
  5
F27
  8
DEFPOINTS
 62
     0
 10
-142.31816441834209
 20
11.534884107637049
 30
0.0
  0
POINT
  5
F28
  8
DEFPOINTS
 62
     0
 10
-132.31816441834201
 20
11.534884107637049
 30
0.0
  0
POINT
  5
F29
  8
DEFPOINTS
 62
     0
 10
-132.31816441834201
 20
47.604142384534057
 30
0.0
  0
ENDBLK
  5
DEC
  8
0
  0
BLOCK
  8
0
  2
*D40
 70
     1
 10
0.0
 20
0.0
 30
0.0
  3
*D40
  1

  0
LINE
  5
F18
  8
0
 10
-142.31816441834209
 20
45.104142384534043
 30
0.0
 11
-142.31816441834209
 21
59.104142384534043
 31
0.0
  0
LINE
  5
F19
  8
0
 10
-42.31816442053605
 20
45.104142384534043
 30
0.0
 11
-42.31816442053605
 21
59.104142384534043
 31
0.0
  0
LINE
  5
F1A
  8
0
 10
-146.31816441834209
 20
55.104142384534043
 30
0.0
 11
-38.31816442053605
 21
55.104142384534043
 31
0.0
  0
INSERT
  5
F1B
  8
0
  2
HCAV-05A_WIND_FLASH$0$_ARC
 10
-142.31816441834209
 20
55.104142384534043
 30
0.0
 41
4.0
 42
4.0
 43
4.0
 50
180.0
  0
INSERT
  5
F1C
  8
0
  2
HCAV-05A_WIND_FLASH$0$_ARC
 10
-42.31816442053605
 20
55.104142384534043
 30
0.0
 41
4.0
 42
4.0
 43
4.0
  0
INSERT
  5
F1D
  8
0
  6
CONTINUOUS
  2
*U98
 10
0.0
 20
0.0
 30
0.0
  0
POINT
  5
F1E
  8
DEFPOINTS
 62
     0
 10
-142.31816441834209
 20
11.534884107637049
 30
0.0
  0
POINT
  5
F1F
  8
DEFPOINTS
 62
     0
 10
-42.31816442053605
 20
32.534884107637481
 30
0.0
  0
POINT
  5
F20
  8
DEFPOINTS
 62
     0
 10
-42.31816442053605
 20
55.104142384534043
 30
0.0
  0
ENDBLK
  5
DF8
  8
0
  0
BLOCK
  8
0
  2
*D41
 70
     1
 10
0.0
 20
0.0
 30
0.0
  3
*D41
  1

  0
LINE
  5
F0F
  8
0
  6
CONTINUOUS
 10
-142.31816441834209
 20
-78.001545819928197
 30
0.0
 11
-142.31816441834209
 21
-64.001545819928197
 31
0.0
  0
LINE
  5
F10
  8
0
  6
CONTINUOUS
 10
-49.318164420534231
 20
-78.001545819928197
 30
0.0
 11
-49.318164420534231
 21
-64.001545819928197
 31
0.0
  0
LINE
  5
F11
  8
0
  6
CONTINUOUS
 10
-146.31816441834209
 20
-68.001545819928197
 30
0.0
 11
-45.318164420534231
 21
-68.001545819928197
 31
0.0
  0
INSERT
  5
F12
  8
0
  6
CONTINUOUS
  2
HCAV-05A_WIND_FLASH$0$_ARC
 10
-142.31816441834209
 20
-68.001545819928197
 30
0.0
 41
4.0
 42
4.0
 43
4.0
 50
180.0
  0
INSERT
  5
F13
  8
0
  6
CONTINUOUS
  2
HCAV-05A_WIND_FLASH$0$_ARC
 10
-49.318164420534231
 20
-68.001545819928197
 30
0.0
 41
4.0
 42
4.0
 43
4.0
  0
INSERT
  5
F14
  8
0
  6
CONTINUOUS
  2
*U97
 10
0.0
 20
0.0
 30
0.0
  0
POINT
  5
F15
  8
DEFPOINTS
  6
CONTINUOUS
 62
     0
 10
-142.31816441834209
 20
-86.057704410704901
 30
0.0
  0
POINT
  5
F16
  8
DEFPOINTS
  6
CONTINUOUS
 62
     0
 10
-49.318164420534231
 20
-86.057704410704901
 30
0.0
  0
POINT
  5
F17
  8
DEFPOINTS
  6
CONTINUOUS
 62
     0
 10
-49.318164420534231
 20
-68.001545819928197
 30
0.0
  0
ENDBLK
  5
E04
  8
0
  0
BLOCK
  8
0
  2
*D42
 70
     1
 10
0.0
 20
0.0
 30
0.0
  3
*D42
  1

  0
LINE
  5
F06
  8
0
  6
CONTINUOUS
 10
-142.31816441834201
 20
-82.057704410704886
 30
0.0
 11
-142.31816441834201
 21
-73.459253869041277
 31
0.0
  0
LINE
  5
F07
  8
0
  6
CONTINUOUS
 10
-132.31816441834201
 20
-81.057704410704901
 30
0.0
 11
-132.31816441834201
 21
-73.459253869041277
 31
0.0
  0
LINE
  5
F08
  8
0
  6
CONTINUOUS
 10
-146.31816441834201
 20
-77.459253869041277
 30
0.0
 11
-128.31816441834201
 21
-77.459253869041277
 31
0.0
  0
INSERT
  5
F09
  8
0
  6
CONTINUOUS
  2
*U96
 10
0.0
 20
0.0
 30
0.0
  0
INSERT
  5
F0A
  8
0
  6
CONTINUOUS
  2
HCAV-05A_WIND_FLASH$0$_ARC
 10
-142.31816441834201
 20
-77.459253869041277
 30
0.0
 41
4.0
 42
4.0
 43
4.0
 50
180.0
  0
INSERT
  5
F0B
  8
0
  6
CONTINUOUS
  2
HCAV-05A_WIND_FLASH$0$_ARC
 10
-132.31816441834201
 20
-77.459253869041277
 30
0.0
 41
4.0
 42
4.0
 43
4.0
  0
POINT
  5
F0C
  8
DEFPOINTS
  6
CONTINUOUS
 62
     0
 10
-142.31816441834201
 20
-86.057704410704901
 30
0.0
  0
POINT
  5
F0D
  8
DEFPOINTS
  6
CONTINUOUS
 62
     0
 10
-132.31816441834201
 20
-85.057704410704901
 30
0.0
  0
POINT
  5
F0E
  8
DEFPOINTS
  6
CONTINUOUS
 62
     0
 10
-132.31816441834201
 20
-77.459253869041277
 30
0.0
  0
ENDBLK
  5
E10
  8
0
  0
BLOCK
  8
0
  2
*D43
 70
     1
 10
0.0
 20
0.0
 30
0.0
  3
*D43
  1

  0
LINE
  5
EFD
  8
0
  6
CONTINUOUS
 10
-52.318164420535282
 20
-81.057704410704901
 30
0.0
 11
-52.318164420535282
 21
-73.459253869041277
 31
0.0
  0
LINE
  5
EFE
  8
0
  6
CONTINUOUS
 10
-42.318164420535268
 20
-82.057704410704886
 30
0.0
 11
-42.318164420535268
 21
-73.459253869041277
 31
0.0
  0
LINE
  5
EFF
  8
0
  6
CONTINUOUS
 10
-56.318164420535268
 20
-77.459253869041277
 30
0.0
 11
-38.318164420535282
 21
-77.459253869041277
 31
0.0
  0
INSERT
  5
F00
  8
0
  6
CONTINUOUS
  2
*U95
 10
0.0
 20
0.0
 30
0.0
  0
INSERT
  5
F01
  8
0
  6
CONTINUOUS
  2
HCAV-05A_WIND_FLASH$0$_ARC
 10
-52.318164420535282
 20
-77.459253869041277
 30
0.0
 41
4.0
 42
4.0
 43
4.0
 50
180.0
  0
INSERT
  5
F02
  8
0
  6
CONTINUOUS
  2
HCAV-05A_WIND_FLASH$0$_ARC
 10
-42.318164420535268
 20
-77.459253869041277
 30
0.0
 41
4.0
 42
4.0
 43
4.0
  0
POINT
  5
F03
  8
DEFPOINTS
  6
CONTINUOUS
 62
     0
 10
-52.318164420535282
 20
-85.057704410704901
 30
0.0
  0
POINT
  5
F04
  8
DEFPOINTS
  6
CONTINUOUS
 62
     0
 10
-42.318164420535268
 20
-86.057704410704901
 30
0.0
  0
POINT
  5
F05
  8
DEFPOINTS
  6
CONTINUOUS
 62
     0
 10
-42.318164420535268
 20
-77.459253869041277
 30
0.0
  0
ENDBLK
  5
E1C
  8
0
  0
BLOCK
  8
0
  2
*D44
 70
     1
 10
0.0
 20
0.0
 30
0.0
  3
*D44
  1

  0
LINE
  5
EF4
  8
0
  6
CONTINUOUS
 10
-157.3181644205342
 20
-155.0766661201464
 30
0.0
 11
-157.3181644205342
 21
-141.0766661201464
 31
0.0
  0
LINE
  5
EF5
  8
0
  6
CONTINUOUS
 10
-27.318164420534231
 20
-155.0766661201464
 30
0.0
 11
-27.318164420534231
 21
-141.0766661201464
 31
0.0
  0
LINE
  5
EF6
  8
0
  6
CONTINUOUS
 10
-161.3181644205342
 20
-145.0766661201464
 30
0.0
 11
-23.318164420534231
 21
-145.0766661201464
 31
0.0
  0
INSERT
  5
EF7
  8
0
  6
CONTINUOUS
  2
HCAV-05A_WIND_FLASH$0$_ARC
 10
-157.3181644205342
 20
-145.0766661201464
 30
0.0
 41
4.0
 42
4.0
 43
4.0
 50
180.0
  0
INSERT
  5
EF8
  8
0
  6
CONTINUOUS
  2
HCAV-05A_WIND_FLASH$0$_ARC
 10
-27.318164420534231
 20
-145.0766661201464
 30
0.0
 41
4.0
 42
4.0
 43
4.0
  0
INSERT
  5
EF9
  8
0
  6
CONTINUOUS
  2
*U94
 10
0.0
 20
0.0
 30
0.0
  0
POINT
  5
EFA
  8
DEFPOINTS
  6
CONTINUOUS
 62
     0
 10
-157.3181644205342
 20
-163.1328247109231
 30
0.0
  0
POINT
  5
EFB
  8
DEFPOINTS
  6
CONTINUOUS
 62
     0
 10
-27.318164420534231
 20
-163.1328247109231
 30
0.0
  0
POINT
  5
EFC
  8
DEFPOINTS
  6
CONTINUOUS
 62
     0
 10
-27.318164420534231
 20
-145.0766661201464
 30
0.0
  0
ENDBLK
  5
E28
  8
0
  0
BLOCK
  8
0
  2
*D45
 70
     1
 10
0.0
 20
0.0
 30
0.0
  3
*D45
  1

  0
LINE
  5
EEB
  8
0
  6
CONTINUOUS
 10
-157.3181644205342
 20
-159.1328247109231
 30
0.0
 11
-157.3181644205342
 21
-150.53437416925951
 31
0.0
  0
LINE
  5
EEC
  8
0
  6
CONTINUOUS
 10
-147.3181644205342
 20
-158.1328247109231
 30
0.0
 11
-147.3181644205342
 21
-150.53437416925951
 31
0.0
  0
LINE
  5
EED
  8
0
  6
CONTINUOUS
 10
-161.3181644205342
 20
-154.53437416925951
 30
0.0
 11
-143.3181644205342
 21
-154.53437416925951
 31
0.0
  0
INSERT
  5
EEE
  8
0
  6
CONTINUOUS
  2
*U93
 10
0.0
 20
0.0
 30
0.0
  0
INSERT
  5
EEF
  8
0
  6
CONTINUOUS
  2
HCAV-05A_WIND_FLASH$0$_ARC
 10
-157.3181644205342
 20
-154.53437416925951
 30
0.0
 41
4.0
 42
4.0
 43
4.0
 50
180.0
  0
INSERT
  5
EF0
  8
0
  6
CONTINUOUS
  2
HCAV-05A_WIND_FLASH$0$_ARC
 10
-147.3181644205342
 20
-154.53437416925951
 30
0.0
 41
4.0
 42
4.0
 43
4.0
  0
POINT
  5
EF1
  8
DEFPOINTS
  6
CONTINUOUS
 62
     0
 10
-157.3181644205342
 20
-163.1328247109231
 30
0.0
  0
POINT
  5
EF2
  8
DEFPOINTS
  6
CONTINUOUS
 62
     0
 10
-147.3181644205342
 20
-162.1328247109231
 30
0.0
  0
POINT
  5
EF3
  8
DEFPOINTS
  6
CONTINUOUS
 62
     0
 10
-147.3181644205342
 20
-154.53437416925951
 30
0.0
  0
ENDBLK
  5
E34
  8
0
  0
BLOCK
  8
0
  2
*D46
 70
     1
 10
0.0
 20
0.0
 30
0.0
  3
*D46
  1

  0
LINE
  5
EE2
  8
0
  6
CONTINUOUS
 10
-37.318164420534231
 20
-159.1328247109231
 30
0.0
 11
-37.318164420534231
 21
-150.53437416925951
 31
0.0
  0
LINE
  5
EE3
  8
0
  6
CONTINUOUS
 10
-27.318164420534231
 20
-158.1328247109231
 30
0.0
 11
-27.318164420534231
 21
-150.53437416925951
 31
0.0
  0
LINE
  5
EE4
  8
0
  6
CONTINUOUS
 10
-41.318164420534217
 20
-154.53437416925951
 30
0.0
 11
-23.318164420534231
 21
-154.53437416925951
 31
0.0
  0
INSERT
  5
EE5
  8
0
  6
CONTINUOUS
  2
*U92
 10
0.0
 20
0.0
 30
0.0
  0
INSERT
  5
EE6
  8
0
  6
CONTINUOUS
  2
HCAV-05A_WIND_FLASH$0$_ARC
 10
-37.318164420534231
 20
-154.53437416925951
 30
0.0
 41
4.0
 42
4.0
 43
4.0
 50
180.0
  0
INSERT
  5
EE7
  8
0
  6
CONTINUOUS
  2
HCAV-05A_WIND_FLASH$0$_ARC
 10
-27.318164420534231
 20
-154.53437416925951
 30
0.0
 41
4.0
 42
4.0
 43
4.0
  0
POINT
  5
EE8
  8
DEFPOINTS
  6
CONTINUOUS
 62
     0
 10
-37.318164420534231
 20
-163.1328247109231
 30
0.0
  0
POINT
  5
EE9
  8
DEFPOINTS
  6
CONTINUOUS
 62
     0
 10
-27.318164420534231
 20
-162.1328247109231
 30
0.0
  0
POINT
  5
EEA
  8
DEFPOINTS
  6
CONTINUOUS
 62
     0
 10
-27.318164420534231
 20
-154.53437416925951
 30
0.0
  0
ENDBLK
  5
E40
  8
0
  0
BLOCK
  8
0
  2
*U48
 70
     1
 10
0.0
 20
0.0
 30
0.0
  3
*U48
  1

  0
TEXT
  5
1044
  8
0
  6
CONTINUOUS
 10
127.3299530605626
 20
118.7439988763511
 30
0.0
 40
4.0
  1
Head
  7
HCAV-05A_WIND_FLASH$0$TEXT
  0
TEXT
  5
1045
  8
0
  6
CONTINUOUS
 10
127.7255874398259
 20
112.0091193856736
 30
0.0
 40
4.0
  1
flashing
  7
HCAV-05A_WIND_FLASH$0$TEXT
  0
ENDBLK
  5
1047
  8
0
  0
BLOCK
  8
0
  2
*U49
 70
     1
 10
0.0
 20
0.0
 30
0.0
  3
*U49
  1

  0
SOLID
  5
1049
  8
0
  6
CONTINUOUS
 10
-115.8388612983525
 20
109.9185054441632
 30
0.0
 11
-114.1921540044977
 21
106.2127262369235
 31
0.0
 12
-116.9517244307624
 22
109.18412582414329
 32
0.0
 13
-116.9517244307624
 23
109.18412582414329
 33
0.0
210
0.0
220
0.0
230
-1.0
  0
POLYLINE
  5
104A
  8
0
  6
CONTINUOUS
 66
     1
 10
0.0
 20
0.0
 30
0.0
210
0.0
220
0.0
230
-1.0
  0
VERTEX
  5
104B
  8
0
  6
CONTINUOUS
 10
-116.3952928645575
 20
109.5513156341533
 30
0.0
  0
VERTEX
  5
104C
  8
0
  6
CONTINUOUS
 10
-121.1711615064041
 20
116.7885645880383
 30
0.0
  0
VERTEX
  5
104D
  8
0
  6
CONTINUOUS
 10
-125.7774291860742
 20
116.7885645880383
 30
0.0
  0
SEQEND
  5
104E
  8
0
  6
CONTINUOUS
  0
ENDBLK
  5
1050
  8
0
  0
BLOCK
  8
0
  2
*U50
 70
     1
 10
0.0
 20
0.0
 30
0.0
  3
*U50
  1

  0
TEXT
  5
1052
  8
0
  6
CONTINUOUS
 10
100.53361037062
 20
-161.60258699327051
 30
0.0
 40
4.0
  1
Soaker
  7
HCAV-05A_WIND_FLASH$0$TEXT
  0
ENDBLK
  5
1054
  8
0
  0
BLOCK
  8
0
  2
*U51
 70
     1
 10
0.0
 20
0.0
 30
0.0
  3
*U51
  1

  0
SOLID
  5
1056
  8
0
  6
CONTINUOUS
 10
-78.670790560056133
 20
-164.12854425211981
 30
0.0
 11
-75.485090418387685
 21
-166.63767937239891
 31
0.0
 12
-79.312364104921343
 22
-165.2973732234868
 32
0.0
 13
-79.312364104921343
 23
-165.2973732234868
 33
0.0
210
0.0
220
0.0
230
-1.0
  0
POLYLINE
  5
1057
  8
0
  6
CONTINUOUS
 66
     1
 10
0.0
 20
0.0
 30
0.0
210
0.0
220
0.0
230
-1.0
  0
VERTEX
  5
1058
  8
0
  6
CONTINUOUS
 10
-78.991577332488745
 20
-164.71295873780329
 30
0.0
  0
VERTEX
  5
1059
  8
0
  6
CONTINUOUS
 10
-88.301734519098318
 20
-159.60258699327051
 30
0.0
  0
VERTEX
  5
105A
  8
0
  6
CONTINUOUS
 10
-98.784633562980162
 20
-159.60258699327051
 30
0.0
  0
SEQEND
  5
105B
  8
0
  6
CONTINUOUS
  0
ENDBLK
  5
105D
  8
0
  0
BLOCK
  8
0
  2
*U52
 70
     1
 10
0.0
 20
0.0
 30
0.0
  3
*U52
  1

  0
SOLID
  5
105F
  8
0
  6
CONTINUOUS
 10
-69.060136597878838
 20
-130.48697524721669
 30
0.0
 11
-65.760995616554283
 21
-132.84496448166831
 31
0.0
 12
-69.64655791816989
 22
-131.6844257943734
 32
0.0
 13
-69.64655791816989
 23
-131.6844257943734
 33
0.0
210
0.0
220
0.0
230
-1.0
  0
POLYLINE
  5
1060
  8
0
  6
CONTINUOUS
 66
     1
 10
0.0
 20
0.0
 30
0.0
210
0.0
220
0.0
230
-1.0
  0
VERTEX
  5
1061
  8
0
  6
CONTINUOUS
 10
-69.353347258024357
 20
-131.08570052079509
 30
0.0
  0
VERTEX
  5
1062
  8
0
  6
CONTINUOUS
 10
-89.877782204084724
 20
-121.03437416925949
 30
0.0
  0
VERTEX
  5
1063
  8
0
  6
CONTINUOUS
 10
-92.784633562980176
 20
-140.02391486957771
 30
0.0
  0
SEQEND
  5
1064
  8
0
  6
CONTINUOUS
  0
ENDBLK
  5
1066
  8
0
  0
BLOCK
  8
0
  2
*U53
 70
     1
 10
0.0
 20
0.0
 30
0.0
  3
*U53
  1

  0
TEXT
  5
1068
  8
0
  6
CONTINUOUS
 10
81.968672296510434
 20
-48.340599170808467
 30
0.0
 40
4.0
  1
Fold up sill tray, seal
  7
HCAV-05A_WIND_FLASH$0$TEXT
  0
TEXT
  5
1069
  8
0
  6
CONTINUOUS
 10
82.225152514791461
 20
-55.007265837475138
 30
0.0
 40
4.0
  1
and rivet to jamb
  7
HCAV-05A_WIND_FLASH$0$TEXT
  0
TEXT
  5
106A
  8
0
  6
CONTINUOUS
 10
82.069627276046575
 20
-61.742145328152709
 30
0.0
 40
4.0
  1
under flashing.
  7
HCAV-05A_WIND_FLASH$0$TEXT
  0
ENDBLK
  5
106C
  8
0
  0
BLOCK
  8
0
  2
*U54
 70
     1
 10
0.0
 20
0.0
 30
0.0
  3
*U54
  1

  0
SOLID
  5
106E
  8
0
  6
CONTINUOUS
 10
-69.967113599042705
 20
-60.015047181112962
 30
0.0
 11
-68.023755728951073
 21
-63.574233132028901
 31
0.0
 12
-71.016397806361823
 22
-60.837713839030023
 32
0.0
 13
-71.016397806361823
 23
-60.837713839030023
 33
0.0
210
0.0
220
0.0
230
-1.0
  0
POLYLINE
  5
106F
  8
0
  6
CONTINUOUS
 66
     1
 10
0.0
 20
0.0
 30
0.0
210
0.0
220
0.0
230
-1.0
  0
VERTEX
  5
1070
  8
0
  6
CONTINUOUS
 10
-70.491755702702278
 20
-60.426380510071482
 30
0.0
  0
VERTEX
  5
1071
  8
0
  6
CONTINUOUS
 10
-75.820794794193716
 20
-53.629366792454682
 30
0.0
  0
VERTEX
  5
1072
  8
0
  6
CONTINUOUS
 10
-80.427062473863771
 20
-53.629366792454682
 30
0.0
  0
SEQEND
  5
1073
  8
0
  6
CONTINUOUS
  0
ENDBLK
  5
1075
  8
0
  0
BLOCK
  8
0
  2
*U55
 70
     1
 10
0.0
 20
0.0
 30
0.0
  3
*U55
  1

  0
TEXT
  5
1077
  8
0
  6
CONTINUOUS
 10
144.79674863145149
 20
-59.195615755464878
 30
0.0
 40
4.0
  1
Sill
  7
HCAV-05A_WIND_FLASH$0$TEXT
  0
TEXT
  5
1078
  8
0
  6
CONTINUOUS
 10
144.99593007756329
 20
-65.93049524614247
 30
0.0
 40
4.0
  1
flashing
  7
HCAV-05A_WIND_FLASH$0$TEXT
  0
ENDBLK
  5
107A
  8
0
  0
BLOCK
  8
0
  2
*U56
 70
     1
 10
0.0
 20
0.0
 30
0.0
  3
*U56
  1

  0
SOLID
  5
107C
  8
0
  6
CONTINUOUS
 10
-128.61573019276889
 20
-75.295593019764993
 30
0.0
 11
-127.02833285193719
 21
-79.027162947659235
 31
0.0
 12
-129.74016382663561
 22
-76.01213107235337
 32
0.0
 13
-129.74016382663561
 23
-76.01213107235337
 33
0.0
210
0.0
220
0.0
230
-1.0
  0
POLYLINE
  5
107D
  8
0
  6
CONTINUOUS
 66
     1
 10
0.0
 20
0.0
 30
0.0
210
0.0
220
0.0
230
-1.0
  0
VERTEX
  5
107E
  8
0
  6
CONTINUOUS
 10
-129.17794700970231
 20
-75.653862046059189
 30
0.0
  0
VERTEX
  5
107F
  8
0
  6
CONTINUOUS
 10
-138.44150414414159
 20
-61.116943631772301
 30
0.0
  0
VERTEX
  5
1080
  8
0
  6
CONTINUOUS
 10
-143.04777182381159
 20
-61.116943631772301
 30
0.0
  0
SEQEND
  5
1081
  8
0
  6
CONTINUOUS
  0
ENDBLK
  5
1083
  8
0
  0
BLOCK
  8
0
  2
*U57
 70
     1
 10
0.0
 20
0.0
 30
0.0
  3
*U57
  1

  0
TEXT
  5
1085
  8
0
  6
CONTINUOUS
 10
95.158619893824977
 20
182.215599147978
 30
0.0
 40
4.0
  1
Cut and fold safe
  7
HCAV-05A_WIND_FLASH$0$TEXT
  0
TEXT
  5
1086
  8
0
  6
CONTINUOUS
 10
95.23228974375678
 20
175.5489324813114
 30
0.0
 40
4.0
  1
edge on site
  7
HCAV-05A_WIND_FLASH$0$TEXT
  0
ENDBLK
  5
1088
  8
0
  0
BLOCK
  8
0
  2
*U58
 70
     1
 10
0.0
 20
0.0
 30
0.0
  3
*U58
  1

  0
SOLID
  5
108A
  8
0
  6
CONTINUOUS
 10
-67.80633089591538
 20
140.11555678044371
 30
0.0
 11
-66.549361945493729
 21
136.26010952984871
 31
0.0
 12
-68.988801952842309
 22
139.4994886208153
 32
0.0
 13
-68.988801952842309
 23
139.4994886208153
 33
0.0
210
0.0
220
0.0
230
-1.0
  0
POLYLINE
  5
108B
  8
0
  6
CONTINUOUS
 66
     1
 10
0.0
 20
0.0
 30
0.0
210
0.0
220
0.0
230
-1.0
  0
VERTEX
  5
108C
  8
0
  6
CONTINUOUS
 10
-68.397566424378823
 20
139.80752270062951
 30
0.0
  0
VERTEX
  5
108D
  8
0
  6
CONTINUOUS
 10
-89.508957193511364
 20
180.32837768367611
 30
0.0
  0
VERTEX
  5
108E
  8
0
  6
CONTINUOUS
 10
-94.115224873181418
 20
180.32837768367611
 30
0.0
  0
SEQEND
  5
108F
  8
0
  6
CONTINUOUS
  0
ENDBLK
  5
1091
  8
0
  0
BLOCK
  8
0
  2
*U59
 70
     1
 10
0.0
 20
0.0
 30
0.0
  3
*U59
  1

  0
TEXT
  5
1093
  8
0
  6
CONTINUOUS
 10
84.441822094884358
 20
-9.1970858778225484
 30
0.0
 40
4.0
  1
Face of jamb
  7
HCAV-05A_WIND_FLASH$0$TEXT
  0
TEXT
  5
1094
  8
0
  6
CONTINUOUS
 10
84.714673390928013
 20
-15.93196536850013
 30
0.0
 40
4.0
  1
over flashing
  7
HCAV-05A_WIND_FLASH$0$TEXT
  0
ENDBLK
  5
1096
  8
0
  0
BLOCK
  8
0
  2
*U60
 70
     1
 10
0.0
 20
0.0
 30
0.0
  3
*U60
  1

  0
SOLID
  5
1098
  8
0
  6
CONTINUOUS
 10
-69.692941699614281
 20
-12.723253001978341
 30
0.0
 11
-65.999999999998181
 21
-14.398551795531599
 31
0.0
 12
-70.036663378625278
 22
-14.01152051501888
 32
0.0
 13
-70.036663378625278
 23
-14.01152051501888
 33
0.0
210
0.0
220
0.0
230
-1.0
  0
POLYLINE
  5
1099
  8
0
  6
CONTINUOUS
 66
     1
 10
0.0
 20
0.0
 30
0.0
210
0.0
220
0.0
230
-1.0
  0
VERTEX
  5
109A
  8
0
  6
CONTINUOUS
 10
-69.864802539119765
 20
-13.367386758498609
 30
0.0
  0
VERTEX
  5
109B
  8
0
  6
CONTINUOUS
 10
-78.293944592567641
 20
-11.118413754129961
 30
0.0
  0
VERTEX
  5
109C
  8
0
  6
CONTINUOUS
 10
-82.900212272237695
 20
-11.118413754129961
 30
0.0
  0
SEQEND
  5
109D
  8
0
  6
CONTINUOUS
  0
ENDBLK
  5
109F
  8
0
  0
BLOCK
  8
0
  2
*U61
 70
     1
 10
0.0
 20
0.0
 30
0.0
  3
*U61
  1

  0
SOLID
  5
10A1
  8
0
  6
CONTINUOUS
 10
-69.422679151183274
 20
166.86123718363109
 30
0.0
 11
-66.549361945493729
 21
163.99968294162679
 31
0.0
 12
-70.195436353687953
 22
165.77467191465041
 32
0.0
 13
-70.195436353687953
 23
165.77467191465041
 33
0.0
210
0.0
220
0.0
230
-1.0
  0
POLYLINE
  5
10A2
  8
0
  6
CONTINUOUS
 66
     1
 10
0.0
 20
0.0
 30
0.0
210
0.0
220
0.0
230
-1.0
  0
VERTEX
  5
10A3
  8
0
  6
CONTINUOUS
 10
-69.809057752435621
 20
166.31795454914081
 30
0.0
  0
VERTEX
  5
10A4
  8
0
  6
CONTINUOUS
 10
-89.508957193511364
 20
180.32837768367611
 30
0.0
  0
VERTEX
  5
10A5
  8
0
  6
CONTINUOUS
 10
-94.115224873181418
 20
180.32837768367611
 30
0.0
  0
SEQEND
  5
10A6
  8
0
  6
CONTINUOUS
  0
ENDBLK
  5
10A8
  8
0
  0
BLOCK
  8
0
  2
*U62
 70
     1
 10
0.0
 20
0.0
 30
0.0
  3
*U62
  1

  0
TEXT
  5
10AA
  8
0
  6
CONTINUOUS
 10
-83.570551869374611
 20
156.16215567278741
 30
0.0
 40
4.0
  1
Section
  7
HCAV-05A_WIND_FLASH$0$TEXT
  0
TEXT
  5
10AB
  8
0
  6
CONTINUOUS
 10
-78.979828813440093
 20
149.49548900612069
 30
0.0
 40
4.0
  1
A-A
  7
HCAV-05A_WIND_FLASH$0$TEXT
  0
ENDBLK
  5
10AD
  8
0
  0
BLOCK
  8
0
  2
*U63
 70
     1
 10
0.0
 20
0.0
 30
0.0
  3
*U63
  1

  0
TEXT
  5
10B6
  8
0
  6
CONTINUOUS
 10
-25.13549611218053
 20
152.98129561594641
 30
0.0
 40
4.0
  1
A
  7
HCAV-05A_WIND_FLASH$0$TEXT
  0
ENDBLK
  5
10B8
  8
0
  0
BLOCK
  8
0
  2
*U64
 70
     1
 10
0.0
 20
0.0
 30
0.0
  3
*U64
  1

  0
TEXT
  5
10BA
  8
0
  6
CONTINUOUS
 10
76.858777230830185
 20
152.98129561594641
 30
0.0
 40
4.0
  1
A
  7
HCAV-05A_WIND_FLASH$0$TEXT
  0
ENDBLK
  5
10BC
  8
0
  0
BLOCK
  8
0
  2
*U65
 70
     1
 10
0.0
 20
0.0
 30
0.0
  3
*U65
  1

  0
TEXT
  5
10BE
  8
0
  6
CONTINUOUS
 10
-25.187337858428819
 20
14.09244589508671
 30
0.0
 40
4.0
  1
B
  7
HCAV-05A_WIND_FLASH$0$TEXT
  0
ENDBLK
  5
10C0
  8
0
  0
BLOCK
  8
0
  2
*U66
 70
     1
 10
0.0
 20
0.0
 30
0.0
  3
*U66
  1

  0
TEXT
  5
10C2
  8
0
  6
CONTINUOUS
 10
83.796956270164515
 20
14.09244589508671
 30
0.0
 40
4.0
  1
B
  7
HCAV-05A_WIND_FLASH$0$TEXT
  0
ENDBLK
  5
10C4
  8
0
  0
BLOCK
  8
0
  2
*U67
 70
     1
 10
0.0
 20
0.0
 30
0.0
  3
*U67
  1

  0
TEXT
  5
10C6
  8
0
  6
CONTINUOUS
 10
-25.314213711089121
 20
-138.5714865885929
 30
0.0
 40
4.0
  1
C
  7
HCAV-05A_WIND_FLASH$0$TEXT
  0
ENDBLK
  5
10C8
  8
0
  0
BLOCK
  8
0
  2
*U68
 70
     1
 10
0.0
 20
0.0
 30
0.0
  3
*U68
  1

  0
TEXT
  5
10CA
  8
0
  6
CONTINUOUS
 10
83.670080417504195
 20
-138.5714865885929
 30
0.0
 40
4.0
  1
C
  7
HCAV-05A_WIND_FLASH$0$TEXT
  0
ENDBLK
  5
10CC
  8
0
  0
BLOCK
  8
0
  2
*U69
 70
     1
 10
0.0
 20
0.0
 30
0.0
  3
*U69
  1

  0
TEXT
  5
10CE
  8
0
  6
CONTINUOUS
 10
-83.570551869374611
 20
-36.867707502592921
 30
0.0
 40
4.0
  1
Section
  7
HCAV-05A_WIND_FLASH$0$TEXT
  0
TEXT
  5
10CF
  8
0
  6
CONTINUOUS
 10
-79.031670559688393
 20
-43.534374169259578
 30
0.0
 40
4.0
  1
B-B
  7
HCAV-05A_WIND_FLASH$0$TEXT
  0
ENDBLK
  5
10D1
  8
0
  0
BLOCK
  8
0
  2
*U70
 70
     1
 10
0.0
 20
0.0
 30
0.0
  3
*U70
  1

  0
TEXT
  5
10D3
  8
0
  6
CONTINUOUS
 10
-83.570551869374611
 20
-98.084506500291312
 30
0.0
 40
4.0
  1
Section
  7
HCAV-05A_WIND_FLASH$0$TEXT
  0
TEXT
  5
10D4
  8
0
  6
CONTINUOUS
 10
-79.312707394613355
 20
-104.8193859909689
 30
0.0
 40
4.0
  1
C-C
  7
HCAV-05A_WIND_FLASH$0$TEXT
  0
ENDBLK
  5
10D6
  8
0
  0
BLOCK
  8
0
  2
*U71
 70
     1
 10
0.0
 20
0.0
 30
0.0
  3
*U71
  1

  0
TEXT
  5
10F1
  8
0
  6
CONTINUOUS
 10
-30.352412892535231
 20
-184.5714865885929
 30
0.0
 40
4.0
  1
D
  7
HCAV-05A_WIND_FLASH$0$TEXT
  0
ENDBLK
  5
10F3
  8
0
  0
BLOCK
  8
0
  2
*U72
 70
     1
 10
0.0
 20
0.0
 30
0.0
  3
*U72
  1

  0
TEXT
  5
10F5
  8
0
  6
CONTINUOUS
 10
88.631881236058092
 20
-184.5714865885929
 30
0.0
 40
4.0
  1
D
  7
HCAV-05A_WIND_FLASH$0$TEXT
  0
ENDBLK
  5
10F7
  8
0
  0
BLOCK
  8
0
  2
*U73
 70
     1
 10
0.0
 20
0.0
 30
0.0
  3
*U73
  1

  0
TEXT
  5
1100
  8
0
  6
CONTINUOUS
 10
-83.570551869374611
 20
-175.22783962452041
 30
0.0
 40
4.0
  1
Section
  7
HCAV-05A_WIND_FLASH$0$TEXT
  0
TEXT
  5
1101
  8
0
  6
CONTINUOUS
 10
-79.350906576059458
 20
-181.8945062911871
 30
0.0
 40
4.0
  1
D-D
  7
HCAV-05A_WIND_FLASH$0$TEXT
  0
ENDBLK
  5
1103
  8
0
  0
BLOCK
  8
0
  2
*U74
 70
     1
 10
0.0
 20
0.0
 30
0.0
  3
*U74
  1

  0
TEXT
  5
1113
  8
0
  6
CONTINUOUS
 10
-44.485901926117961
 20
157.9224455379242
 30
0.0
 40
4.0
  1
Soaker
  7
HCAV-05A_WIND_FLASH$0$TEXT
  0
ENDBLK
  5
1115
  8
0
  0
BLOCK
  8
0
  2
*U75
 70
     1
 10
0.0
 20
0.0
 30
0.0
  3
*U75
  1

  0
SOLID
  5
1117
  8
0
  6
CONTINUOUS
 10
55.09143006381597
 20
167.36742353491499
 30
0.0
 11
57.820153915334231
 21
170.3671752890773
 31
0.0
 12
56.21182111119392
 22
166.6445807589719
 32
0.0
 13
56.21182111119392
 23
166.6445807589719
 33
0.0
210
0.0
220
0.0
230
-1.0
  0
POLYLINE
  5
1118
  8
0
  6
CONTINUOUS
 66
     1
 10
0.0
 20
0.0
 30
0.0
210
0.0
220
0.0
230
-1.0
  0
VERTEX
  5
1119
  8
0
  6
CONTINUOUS
 10
55.651625587504938
 20
167.00600214694339
 30
0.0
  0
VERTEX
  5
111A
  8
0
  6
CONTINUOUS
 10
50.84114641342785
 20
159.5498609505371
 30
0.0
  0
VERTEX
  5
111B
  8
0
  6
CONTINUOUS
 10
46.234878733757789
 20
159.5498609505371
 30
0.0
  0
SEQEND
  5
111C
  8
0
  6
CONTINUOUS
  0
ENDBLK
  5
111E
  8
0
  0
BLOCK
  8
0
  2
*U76
 70
     1
 10
0.0
 20
0.0
 30
0.0
  3
*U76
  1

  0
TEXT
  5
1120
  8
0
  6
CONTINUOUS
 10
-29.395016844562239
 20
-16.738796983404679
 30
0.0
 40
4.0
  1
Jamb
  7
HCAV-05A_WIND_FLASH$0$TEXT
  0
TEXT
  5
1121
  8
0
  6
CONTINUOUS
 10
-29.430487513047922
 20
-23.405463650071351
 30
0.0
 40
4.0
  1
over
  7
HCAV-05A_WIND_FLASH$0$TEXT
  0
TEXT
  5
1122
  8
0
  6
CONTINUOUS
 10
-29.296790377986529
 20
-30.140343140748929
 30
0.0
 40
4.0
  1
flashing
  7
HCAV-05A_WIND_FLASH$0$TEXT
  0
ENDBLK
  5
1124
  8
0
  0
BLOCK
  8
0
  2
*U77
 70
     1
 10
0.0
 20
0.0
 30
0.0
  3
*U77
  1

  0
SOLID
  5
1126
  8
0
  6
CONTINUOUS
 10
47.272771535635513
 20
-8.9208296612730926
 30
0.0
 11
50.499831239085331
 21
-6.4651158923629701
 31
0.0
 12
48.24365490411715
 22
-9.8347023343427615
 32
0.0
 13
48.24365490411715
 23
-9.8347023343427615
 33
0.0
210
0.0
220
0.0
230
-1.0
  0
POLYLINE
  5
1127
  8
0
  6
CONTINUOUS
 66
     1
 10
0.0
 20
0.0
 30
0.0
210
0.0
220
0.0
230
-1.0
  0
VERTEX
  5
1128
  8
0
  6
CONTINUOUS
 10
47.758213219876332
 20
-9.3777659978079271
 30
0.0
  0
VERTEX
  5
1129
  8
0
  6
CONTINUOUS
 10
35.851216311408287
 20
-22.027564605050891
 30
0.0
  0
VERTEX
  5
112A
  8
0
  6
CONTINUOUS
 10
31.244948631738239
 20
-22.027564605050891
 30
0.0
  0
SEQEND
  5
112B
  8
0
  6
CONTINUOUS
  0
ENDBLK
  5
112D
  8
0
  0
BLOCK
  8
0
  2
*U78
 70
     1
 10
0.0
 20
0.0
 30
0.0
  3
*U78
  1

  0
TEXT
  5
112F
  8
0
  6
CONTINUOUS
 10
-129.113743332669
 20
40.855511718233842
 30
0.0
 40
4.0
  1
Jamb
  7
HCAV-05A_WIND_FLASH$0$TEXT
  0
TEXT
  5
1130
  8
0
  6
CONTINUOUS
 10
-129.3211103176622
 20
34.188845051567178
 30
0.0
 40
4.0
  1
under
  7
HCAV-05A_WIND_FLASH$0$TEXT
  0
TEXT
  5
1131
  8
0
  6
CONTINUOUS
 10
-129.01551686609329
 20
27.4539655608896
 30
0.0
 40
4.0
  1
flashing
  7
HCAV-05A_WIND_FLASH$0$TEXT
  0
ENDBLK
  5
1133
  8
0
  0
BLOCK
  8
0
  2
*U79
 70
     1
 10
0.0
 20
0.0
 30
0.0
  3
*U79
  1

  0
SOLID
  5
1135
  8
0
  6
CONTINUOUS
 10
100.1190429318641
 20
17.27850633748827
 30
0.0
 11
98.560281550315267
 21
13.534884107637041
 31
0.0
 12
98.820637809666479
 22
17.581692610971619
 32
0.0
 13
98.820637809666479
 23
17.581692610971619
 33
0.0
210
0.0
220
0.0
230
-1.0
  0
POLYLINE
  5
1136
  8
0
  6
CONTINUOUS
 66
     1
 10
0.0
 20
0.0
 30
0.0
210
0.0
220
0.0
230
-1.0
  0
VERTEX
  5
1137
  8
0
  6
CONTINUOUS
 10
99.469840370765297
 20
17.430099474229952
 30
0.0
  0
VERTEX
  5
1138
  8
0
  6
CONTINUOUS
 10
102.8518883184715
 20
31.91383031193574
 30
0.0
  0
VERTEX
  5
1139
  8
0
  6
CONTINUOUS
 10
107.45815599814161
 20
31.91383031193574
 30
0.0
  0
SEQEND
  5
113A
  8
0
  6
CONTINUOUS
  0
ENDBLK
  5
113C
  8
0
  0
BLOCK
  8
0
  2
*U80
 70
     1
 10
0.0
 20
0.0
 30
0.0
  3
*U80
  1

  0
TEXT
  5
113E
  8
0
  6
CONTINUOUS
 10
-44.485901926117961
 20
-104.0202672031846
 30
0.0
 40
4.0
  1
Soaker
  7
HCAV-05A_WIND_FLASH$0$TEXT
  0
ENDBLK
  5
1140
  8
0
  0
BLOCK
  8
0
  2
*U81
 70
     1
 10
0.0
 20
0.0
 30
0.0
  3
*U81
  1

  0
SOLID
  5
1142
  8
0
  6
CONTINUOUS
 10
55.525136165741444
 20
-90.40095701460659
 30
0.0
 11
57.820153915334231
 21
-87.057704410704446
 31
0.0
 12
56.733489321039052
 22
-90.964570738587909
 32
0.0
 13
56.733489321039052
 23
-90.964570738587909
 33
0.0
210
0.0
220
0.0
230
-1.0
  0
POLYLINE
  5
1143
  8
0
  6
CONTINUOUS
 66
     1
 10
0.0
 20
0.0
 30
0.0
210
0.0
220
0.0
230
-1.0
  0
VERTEX
  5
1144
  8
0
  6
CONTINUOUS
 10
56.129312743390237
 20
-90.682763876597264
 30
0.0
  0
VERTEX
  5
1145
  8
0
  6
CONTINUOUS
 10
50.84114641342785
 20
-102.0202672031846
 30
0.0
  0
VERTEX
  5
1146
  8
0
  6
CONTINUOUS
 10
46.234878733757789
 20
-102.0202672031846
 30
0.0
  0
SEQEND
  5
1147
  8
0
  6
CONTINUOUS
  0
ENDBLK
  5
1149
  8
0
  0
BLOCK
  8
0
  2
*U82
 70
     1
 10
0.0
 20
0.0
 30
0.0
  3
*U82
  1

  0
TEXT
  5
114B
  8
0
  6
CONTINUOUS
 10
-130.73841568102301
 20
-181.09538750340329
 30
0.0
 40
4.0
  1
Soaker
  7
HCAV-05A_WIND_FLASH$0$TEXT
  0
ENDBLK
  5
114D
  8
0
  0
BLOCK
  8
0
  2
*U83
 70
     1
 10
0.0
 20
0.0
 30
0.0
  3
*U83
  1

  0
SOLID
  5
114F
  8
0
  6
CONTINUOUS
 10
100.4580861305767
 20
-168.03969103880661
 30
0.0
 11
99.371421536281574
 21
-164.1328247109231
 31
0.0
 12
101.6664392858743
 22
-167.47607731482529
 32
0.0
 13
101.6664392858743
 23
-167.47607731482529
 33
0.0
210
0.0
220
0.0
230
-1.0
  0
POLYLINE
  5
1150
  8
0
  6
CONTINUOUS
 66
     1
 10
0.0
 20
0.0
 30
0.0
210
0.0
220
0.0
230
-1.0
  0
VERTEX
  5
1151
  8
0
  6
CONTINUOUS
 10
101.0622627082255
 20
-167.75788417681591
 30
0.0
  0
VERTEX
  5
1152
  8
0
  6
CONTINUOUS
 10
106.3504290381879
 20
-179.09538750340329
 30
0.0
  0
VERTEX
  5
1153
  8
0
  6
CONTINUOUS
 10
110.95669671785799
 20
-179.09538750340329
 30
0.0
  0
SEQEND
  5
1154
  8
0
  6
CONTINUOUS
  0
ENDBLK
  5
1156
  8
0
  0
BLOCK
  8
0
  2
*U84
 70
     1
 10
0.0
 20
0.0
 30
0.0
  3
*U84
  1

  0
TEXT
  5
1158
  8
0
  6
CONTINUOUS
 10
-64.224561535299884
 20
29.239307746556278
 30
0.0
 40
4.0
  1
Seal
  7
HCAV-05A_WIND_FLASH$0$TEXT
  0
ENDBLK
  5
115A
  8
0
  0
BLOCK
  8
0
  2
*U85
 70
     1
 10
0.0
 20
0.0
 30
0.0
  3
*U85
  1

  0
SOLID
  5
115C
  8
0
  6
CONTINUOUS
 10
45.05145978956849
 20
17.47963994043446
 30
0.0
 11
43.435265078314842
 21
13.760451978021131
 31
0.0
 12
43.757874790339649
 22
17.802774010980869
 32
0.0
 13
43.757874790339649
 23
17.802774010980869
 33
0.0
210
0.0
220
0.0
230
-1.0
  0
POLYLINE
  5
115D
  8
0
  6
CONTINUOUS
 66
     1
 10
0.0
 20
0.0
 30
0.0
210
0.0
220
0.0
230
-1.0
  0
VERTEX
  5
115E
  8
0
  6
CONTINUOUS
 10
44.404667289954062
 20
17.641206975707671
 30
0.0
  0
VERTEX
  5
115F
  8
0
  6
CONTINUOUS
 10
47.801436467398162
 20
31.239307746556278
 30
0.0
  0
VERTEX
  5
1160
  8
0
  6
CONTINUOUS
 10
51.844478234666887
 20
31.239307746556278
 30
0.0
  0
SEQEND
  5
1161
  8
0
  6
CONTINUOUS
  0
ENDBLK
  5
1163
  8
0
  0
BLOCK
  8
0
  2
*U86
 70
     1
 10
0.0
 20
0.0
 30
0.0
  3
*U86
  1

  0
TEXT
  5
1165
  8
0
  6
CONTINUOUS
 10
-68.812399089233267
 20
89.357561597776979
 30
0.0
 40
4.0
  1
Seal head flashing
  7
HCAV-05A_WIND_FLASH$0$TEXT
  0
TEXT
  5
1166
  8
0
  6
CONTINUOUS
 10
-57.45087112197541
 20
82.690894931110293
 30
0.0
 40
4.0
  1
to jamb under
  7
HCAV-05A_WIND_FLASH$0$TEXT
  0
ENDBLK
  5
1168
  8
0
  0
BLOCK
  8
0
  2
*U87
 70
     1
 10
0.0
 20
0.0
 30
0.0
  3
*U87
  1

  0
SOLID
  5
116A
  8
0
  6
CONTINUOUS
 10
-13.527845784539659
 20
115.6347386325326
 30
0.0
 11
-15.926474055941069
 21
118.9044522071563
 31
0.0
 12
-12.59705372095368
 22
116.58941340026399
 32
0.0
 13
-12.59705372095368
 23
116.58941340026399
 33
0.0
210
0.0
220
0.0
230
-1.0
  0
POLYLINE
  5
116B
  8
0
  6
CONTINUOUS
 66
     1
 10
0.0
 20
0.0
 30
0.0
210
0.0
220
0.0
230
-1.0
  0
VERTEX
  5
116C
  8
0
  6
CONTINUOUS
 10
-13.062449752746669
 20
116.11207601639831
 30
0.0
  0
VERTEX
  5
116D
  8
0
  6
CONTINUOUS
 10
16.599037275867879
 20
87.192618151184433
 30
0.0
  0
VERTEX
  5
116E
  8
0
  6
CONTINUOUS
 10
21.205304955536121
 20
87.192618151184433
 30
0.0
  0
SEQEND
  5
116F
  8
0
  6
CONTINUOUS
  0
ENDBLK
  5
1171
  8
0
  0
BLOCK
  8
0
  2
*U88
 70
     1
 10
0.0
 20
0.0
 30
0.0
  3
*U88
  1

  0
TEXT
  5
1178
  8
0
  6
CONTINUOUS
 10
-109.241766057642
 20
141.60196450045581
 30
0.0
 40
4.0
  1
(Formed by cutting & folding
  7
HCAV-05A_WIND_FLASH$0$TEXT
  0
TEXT
  5
1179
  8
0
  6
CONTINUOUS
 10
-99.532352687928523
 20
134.86708500977821
 30
0.0
 40
4.0
  1
jamb under flashing)
  7
HCAV-05A_WIND_FLASH$0$TEXT
  0
ENDBLK
  5
117B
  8
0
  0
BLOCK
  8
0
  2
*U89
 70
     1
 10
0.0
 20
0.0
 30
0.0
  3
*U89
  1

  0
TEXT
  5
117D
  8
0
  6
CONTINUOUS
 10
-109.241766057642
 20
-112.7129104966338
 30
0.0
 40
4.0
  1
(Formed by cutting & folding
  7
HCAV-05A_WIND_FLASH$0$TEXT
  0
TEXT
  5
117E
  8
0
  6
CONTINUOUS
 10
-99.532352687928523
 20
-119.4477899873114
 30
0.0
 40
4.0
  1
jamb under flashing)
  7
HCAV-05A_WIND_FLASH$0$TEXT
  0
ENDBLK
  5
1180
  8
0
  0
BLOCK
  8
0
  2
*U90
 70
     1
 10
0.0
 20
0.0
 30
0.0
  3
*U90
  1

  0
SOLID
  5
1182
  8
0
  6
CONTINUOUS
 10
-69.859789464784072
 20
-109.94285411254459
 30
0.0
 11
-66.0
 21
-108.69928275070561
 31
0.0
 12
-69.247831754739835
 22
-111.127457649132
 32
0.0
 13
-69.247831754739835
 23
-111.127457649132
 33
0.0
210
0.0
220
0.0
230
-1.0
  0
POLYLINE
  5
1183
  8
0
  6
CONTINUOUS
 66
     1
 10
0.0
 20
0.0
 30
0.0
210
0.0
220
0.0
230
-1.0
  0
VERTEX
  5
1184
  8
0
  6
CONTINUOUS
 10
-69.553810609761953
 20
-110.5351558808383
 30
0.0
  0
VERTEX
  5
1185
  8
0
  6
CONTINUOUS
 10
-89.877782204084724
 20
-121.03437416925949
 30
0.0
  0
VERTEX
  5
1186
  8
0
  6
CONTINUOUS
 10
-92.784633562980176
 20
-140.02391486957771
 30
0.0
  0
SEQEND
  5
1187
  8
0
  6
CONTINUOUS
  0
ENDBLK
  5
1189
  8
0
  0
BLOCK
  8
0
  2
*U91
 70
     1
 10
0.0
 20
0.0
 30
0.0
  3
*U91
  1

  0
TEXT
  5
118B
  8
0
  6
CONTINUOUS
 10
100.5063252410156
 20
-134.95167201424661
 30
0.0
 40
4.0
  1
Cut and fold jamb
  7
HCAV-05A_WIND_FLASH$0$TEXT
  0
TEXT
  5
118C
  8
0
  6
CONTINUOUS
 10
100.42719836516289
 20
-141.6865515049241
 30
0.0
 40
4.0
  1
under flashing to
  7
HCAV-05A_WIND_FLASH$0$TEXT
  0
TEXT
  5
118D
  8
0
  6
CONTINUOUS
 10
100.7327918167318
 20
-148.4214309956017
 30
0.0
 40
4.0
  1
form soaker
  7
HCAV-05A_WIND_FLASH$0$TEXT
  0
ENDBLK
  5
118F
  8
0
  0
BLOCK
  8
0
  2
*U92
 70
     1
 10
0.0
 20
0.0
 30
0.0
  3
*U92
  1

  0
TEXT
  5
119A
  8
0
  6
CONTINUOUS
 10
-35.596472742498761
 20
-152.4579758063673
 30
0.0
 40
4.0
  1
10
  7
HCAV-05A_WIND_FLASH$0$ARIA
  0
ENDBLK
  5
119C
  8
0
  0
BLOCK
  8
0
  2
*U93
 70
     1
 10
0.0
 20
0.0
 30
0.0
  3
*U93
  1

  0
TEXT
  5
119E
  8
0
  6
CONTINUOUS
 10
-155.59647274249869
 20
-152.4579758063673
 30
0.0
 40
4.0
  1
10
  7
HCAV-05A_WIND_FLASH$0$ARIA
  0
ENDBLK
  5
11A0
  8
0
  0
BLOCK
  8
0
  2
*U94
 70
     1
 10
0.0
 20
0.0
 30
0.0
  3
*U94
  1

  0
TEXT
  5
11A2
  8
0
  6
CONTINUOUS
 10
-97.150360873467392
 20
-142.99753924429379
 30
0.0
 40
4.0
  1
130
  7
HCAV-05A_WIND_FLASH$0$ARIA
  0
ENDBLK
  5
11A4
  8
0
  0
BLOCK
  8
0
  2
*U95
 70
     1
 10
0.0
 20
0.0
 30
0.0
  3
*U95
  1

  0
TEXT
  5
11A6
  8
0
  6
CONTINUOUS
 10
-50.596472742499799
 20
-75.382855506149056
 30
0.0
 40
4.0
  1
10
  7
HCAV-05A_WIND_FLASH$0$ARIA
  0
ENDBLK
  5
11A8
  8
0
  0
BLOCK
  8
0
  2
*U96
 70
     1
 10
0.0
 20
0.0
 30
0.0
  3
*U96
  1

  0
TEXT
  5
11AA
  8
0
  6
CONTINUOUS
 10
-140.5964727403065
 20
-75.382855506149056
 30
0.0
 40
4.0
  1
10
  7
HCAV-05A_WIND_FLASH$0$ARIA
  0
ENDBLK
  5
11AC
  8
0
  0
BLOCK
  8
0
  2
*U97
 70
     1
 10
0.0
 20
0.0
 30
0.0
  3
*U97
  1

  0
TEXT
  5
11AE
  8
0
  6
CONTINUOUS
 10
-100.65036087237129
 20
-65.925147457035976
 30
0.0
 40
4.0
  1
100
  7
HCAV-05A_WIND_FLASH$0$ARIA
  0
ENDBLK
  5
11B0
  8
0
  0
BLOCK
  8
0
  2
*U98
 70
     1
 10
0.0
 20
0.0
 30
0.0
  3
*U98
  1

  0
TEXT
  5
11B2
  8
0
  6
CONTINUOUS
 10
-97.150360872372232
 20
57.180540747426249
 30
0.0
 40
4.0
  1
100
  7
HCAV-05A_WIND_FLASH$0$ARIA
  0
ENDBLK
  5
11B4
  8
0
  0
BLOCK
  8
0
  2
*U99
 70
     1
 10
0.0
 20
0.0
 30
0.0
  3
*U99
  1

  0
TEXT
  5
11B6
  8
0
  6
CONTINUOUS
 10
-140.5964727403065
 20
49.680540747426278
 30
0.0
 40
4.0
  1
10
  7
HCAV-05A_WIND_FLASH$0$ARIA
  0
ENDBLK
  5
11B8
  8
0
  0
BLOCK
  8
0
  2
*U100
 70
     1
 10
0.0
 20
0.0
 30
0.0
  3
*U100
  1

  0
TEXT
  5
11BA
  8
0
  6
CONTINUOUS
 10
-31.698616158807511
 20
10.525334312275721
 30
0.0
 40
4.0
  1
40
 50
90.0
  7
HCAV-05A_WIND_FLASH$0$ARIA
  0
ENDBLK
  5
11BC
  8
0
  0
BLOCK
  8
0
  2
*U101
 70
     1
 10
0.0
 20
0.0
 30
0.0
  3
*U101
  1

  0
TEXT
  5
11BE
  8
0
  6
CONTINUOUS
 10
-80.596475251166794
 20
-24.296685072332771
 30
0.0
 40
4.0
  1
10
  7
HCAV-05A_WIND_FLASH$0$ARIA
  0
ENDBLK
  5
11C0
  8
0
  0
BLOCK
  8
0
  2
*U102
 70
     1
 10
0.0
 20
0.0
 30
0.0
  3
*U102
  1

  0
TEXT
  5
11C2
  8
0
  6
CONTINUOUS
 10
-60.409570859601651
 20
-24.316730739613298
 30
0.0
 40
4.0
  1
30
  7
HCAV-05A_WIND_FLASH$0$ARIA
  0
ENDBLK
  5
11C4
  8
0
  0
BLOCK
  8
0
  2
*U103
 70
     1
 10
0.0
 20
0.0
 30
0.0
  3
*U103
  1

  0
TEXT
  5
11C6
  8
0
  6
CONTINUOUS
 10
-57.596472742498761
 20
182.0420241936327
 30
0.0
 40
4.0
  1
10
  7
HCAV-05A_WIND_FLASH$0$ARIA
  0
ENDBLK
  5
11C8
  8
0
  0
BLOCK
  8
0
  2
*U104
 70
     1
 10
0.0
 20
0.0
 30
0.0
  3
*U104
  1

  0
TEXT
  5
11CA
  8
0
  6
CONTINUOUS
 10
-117.5964727424987
 20
182.0420241936327
 30
0.0
 40
4.0
  1
10
  7
HCAV-05A_WIND_FLASH$0$ARIA
  0
ENDBLK
  5
11CC
  8
0
  0
BLOCK
  8
0
  2
*U105
 70
     1
 10
0.0
 20
0.0
 30
0.0
  3
*U105
  1

  0
TEXT
  5
11CE
  8
0
  6
CONTINUOUS
 10
-87.424576425991248
 20
191.49973224274581
 30
0.0
 40
4.0
  1
70
  7
HCAV-05A_WIND_FLASH$0$ARIA
  0
ENDBLK
  5
11D0
  8
0
  0
ENDSEC
  0
SECTION
  2
ENTITIES
  0
LINE
  5
55A
  8
0
  6
CONTINUOUS
 10
69.0
 20
-71.515095634224053
 30
0.0
 11
157.90328688415369
 21
-71.515095634224053
 31
0.0
  0
LINE
  5
55B
  8
0
  6
CONTINUOUS
 10
69.0
 20
-75.350575701843482
 30
0.0
 11
157.5861893330474
 21
-75.350575701843454
 31
0.0
  0
INSERT
  5
D22
  8
0
  6
CONTINUOUS
  2
*U48
 10
0.0
 20
0.0
 30
0.0
  0
INSERT
  5
D23
  8
0
  6
CONTINUOUS
  2
*U49
 10
0.0
 20
0.0
 30
0.0
1001
ACAD
1000
DSTYLE
1002
{
1070
    77
1070
     1
1070
   177
1070
     6
1070
   178
1070
     2
1002
}
  0
LINE
  5
D24
  8
0
 10
153.41427864188
 20
106.21272623692469
 30
0.0
 11
11.0
 21
106.2127262369231
 31
0.0
  0
LINE
  5
D25
  8
0
 10
65.999999999998181
 20
-78.690674989602485
 30
0.0
 11
157.3100472893064
 21
-78.690674989602485
 31
0.0
  0
LINE
  5
D26
  8
0
 10
22.32185108387149
 20
-127.1080522183692
 30
0.0
 11
153.30715026479751
 21
-127.1080522183692
 31
0.0
  0
LINE
  5
D27
  8
0
 10
66.0
 20
165.2597641132524
 30
0.0
 11
66.0
 21
156.54802847392011
 31
0.0
  0
LINE
  5
D28
  8
0
 10
-3.999999999998181
 20
165.2597641132524
 30
0.0
 11
-4.0
 21
-165.2597641132524
 31
0.0
  0
LINE
  5
D29
  8
0
 10
150.789618736101
 20
76.212726236925107
 30
0.0
 11
11.0
 21
76.212726236923118
 31
0.0
  0
LINE
  5
D2A
  8
0
 10
-4.0
 20
-165.2597641132524
 30
0.0
 11
65.999999999998181
 21
-165.2597641132524
 31
0.0
  0
LINE
  5
D2B
  8
0
 10
-14.0
 20
-145.25976411325419
 30
0.0
 11
-4.0
 21
-145.25976411325419
 31
0.0
  0
LINE
  5
D2C
  8
0
 10
61.999999999998181
 20
-127.1080522183692
 30
0.0
 11
61.999999999998181
 21
-165.2597641132524
 31
0.0
  0
LINE
  5
D2D
  8
0
 10
0.0
 20
165.2597641132524
 30
0.0
 11
0.0
 21
-165.2597641132524
 31
0.0
  0
LINE
  5
D2E
  8
0
 10
71.999999999998181
 20
-145.25976411325061
 30
0.0
 11
71.999999999998181
 21
-197.53437416925951
 31
0.0
  0
LINE
  5
D2F
  8
0
 10
75.999999999998181
 20
-145.25976411325061
 30
0.0
 11
75.999999999998181
 21
-197.53437416925951
 31
0.0
  0
LINE
  5
D30
  8
0
 10
-10.0
 20
-145.2597641132524
 30
0.0
 11
-10.0
 21
-197.53437416925951
 31
0.0
  0
LINE
  5
D31
  8
0
 10
-14.0
 20
-145.25976411325419
 30
0.0
 11
-14.0
 21
-197.53437416925951
 31
0.0
  0
LINE
  5
D32
  8
0
 10
65.999999999998181
 20
-145.25976411325061
 30
0.0
 11
75.999999999998181
 21
-145.25976411325061
 31
0.0
  0
LINE
  5
D33
  8
0
 10
-4.0
 20
-145.25976411325419
 30
0.0
 11
65.999999999998181
 21
-145.25976411325061
 31
0.0
  0
LINE
  5
D34
  8
0
 10
66.0
 20
-127.1080522183692
 30
0.0
 11
65.999999999998181
 21
-165.2597641132524
 31
0.0
  0
LINE
  5
D35
  8
0
 10
65.499999999994543
 20
-78.690674989601575
 30
0.0
 11
65.5
 21
102.2127262369235
 31
0.0
  0
LINE
  5
D36
  8
0
 10
65.999999999996362
 20
-85.691760022854865
 30
0.0
 11
37.994877496785193
 21
-127.1080522183692
 31
0.0
  0
LINE
  5
D37
  8
0
 10
65.999999999998181
 20
-78.690674989602485
 30
0.0
 11
22.32185108387111
 21
-78.69067498960105
 31
0.0
  0
LINE
  5
D38
  8
0
 10
153.06432398777611
 20
102.21272623692469
 30
0.0
 11
11.0
 21
102.2127262369231
 31
0.0
  0
LINE
  5
D39
  8
0
 10
151.13957339020479
 20
80.212726236925107
 30
0.0
 11
11.0
 21
80.212726236923103
 31
0.0
  0
ARC
  5
D3A
  8
0
 10
67.999999999996362
 20
-74.690674989602485
 30
0.0
 40
4.0
 50
180.0
 51
270.0
  0
LINE
  5
D3B
  8
0
 10
63.999999999996362
 20
-60.1914136606174
 30
0.0
 11
63.999999999996362
 21
-74.690674989602485
 31
0.0
  0
LINE
  5
D3C
  8
0
 10
22.32185108386965
 20
106.2127262369231
 30
0.0
 11
22.32185108387149
 21
-127.1080522183692
 31
0.0
  0
LINE
  5
D3D
  8
0
 10
66.0
 20
76.212726236924937
 30
0.0
 11
65.999999999996362
 21
-85.691760022854865
 31
0.0
  0
LINE
  5
D3E
  8
0
 10
66.0
 20
76.212726236924937
 30
0.0
 11
66.0
 21
156.54802847392011
 31
0.0
  0
CIRCLE
  5
D3F
  8
0
 10
51.999999999998181
 20
-155.25976411325149
 30
0.0
 40
1.0
  0
CIRCLE
  5
D40
  8
0
 10
10.0
 20
-155.2597641132534
 30
0.0
 40
1.0
  0
CIRCLE
  5
D41
  8
0
 10
48.401183828951929
 20
-104.5010619710248
 30
0.0
 40
1.0
  0
INSERT
  5
D42
  8
0
  6
CONTINUOUS
  2
*U50
 10
0.0
 20
0.0
 30
0.0
  0
INSERT
  5
D43
  8
0
  6
CONTINUOUS
  2
*U51
 10
0.0
 20
0.0
 30
0.0
1001
ACAD
1000
DSTYLE
1002
{
1070
    77
1070
     1
1070
   177
1070
     6
1070
   178
1070
     2
1002
}
  0
INSERT
  5
D44
  8
0
  6
CONTINUOUS
  2
*U52
 10
0.0
 20
0.0
 30
0.0
1001
ACAD
1000
DSTYLE
1002
{
1070
    77
1070
     1
1070
   177
1070
     6
1070
   178
1070
     2
1002
}
  0
INSERT
  5
D45
  8
0
  6
CONTINUOUS
  2
*U53
 10
0.0
 20
0.0
 30
0.0
  0
INSERT
  5
D46
  8
0
  6
CONTINUOUS
  2
*U54
 10
0.0
 20
0.0
 30
0.0
1001
ACAD
1000
DSTYLE
1002
{
1070
    77
1070
     1
1070
   177
1070
     6
1070
   178
1070
     2
1002
}
  0
INSERT
  5
D47
  8
0
  6
CONTINUOUS
  2
*U55
 10
0.0
 20
0.0
 30
0.0
  0
INSERT
  5
D48
  8
0
  6
CONTINUOUS
  2
*U56
 10
0.0
 20
0.0
 30
0.0
1001
ACAD
1000
DSTYLE
1002
{
1070
    77
1070
     1
1070
   177
1070
     6
1070
   178
1070
     2
1002
}
  0
INSERT
  5
D49
  8
0
  6
CONTINUOUS
  2
*U57
 10
0.0
 20
0.0
 30
0.0
  0
INSERT
  5
D4A
  8
0
  6
CONTINUOUS
  2
*U58
 10
0.0
 20
0.0
 30
0.0
1001
ACAD
1000
DSTYLE
1002
{
1070
    77
1070
     1
1070
   177
1070
     6
1070
   178
1070
     2
1002
}
  0
INSERT
  5
D4B
  8
0
  6
CONTINUOUS
  2
*U59
 10
0.0
 20
0.0
 30
0.0
  0
INSERT
  5
D4C
  8
0
  6
CONTINUOUS
  2
*U60
 10
0.0
 20
0.0
 30
0.0
1001
ACAD
1000
DSTYLE
1002
{
1070
    77
1070
     1
1070
   177
1070
     6
1070
   178
1070
     2
1002
}
  0
INSERT
  5
D4D
  8
0
  6
CONTINUOUS
  2
*U61
 10
0.0
 20
0.0
 30
0.0
1001
ACAD
1000
DSTYLE
1002
{
1070
    77
1070
     1
1070
   177
1070
     6
1070
   178
1070
     2
1002
}
  0
LINE
  5
D4E
  8
0
 10
-19.641675642464179
 20
161.4799961947999
 30
0.0
 11
74.651654856881564
 21
161.4799961947999
 31
0.0
  0
INSERT
  5
D4F
  8
0
  6
CONTINUOUS
  2
*U62
 10
0.0
 20
0.0
 30
0.0
  0
POLYLINE
  5
D50
  8
0
 66
     1
 10
0.0
 20
0.0
 30
0.0
 70
   128
  0
VERTEX
  5
10AE
  8
0
 10
158.1200228978164
 20
-68.893546973762056
 30
0.0
  0
VERTEX
  5
10AF
  8
0
 10
155.617148436816
 20
-99.167275274180156
 30
0.0
  0
VERTEX
  5
10B0
  8
0
 10
148.38217874830929
 20
-101.83981586907289
 30
0.0
  0
VERTEX
  5
10B1
  8
0
 10
162.2142047110074
 20
-104.2106699708861
 30
0.0
  0
VERTEX
  5
10B2
  8
0
 10
154.9792350225043
 20
-106.8832105657779
 30
0.0
  0
VERTEX
  5
10B3
  8
0
 10
152.63125541483259
 20
-135.28339515558349
 30
0.0
  0
SEQEND
  5
10B4
  8
0
  0
SOLID
  5
D51
  8
0
 10
-19.641675642464179
 20
161.4799961947999
 30
0.0
 11
-19.641675642464179
 21
148.47518067058149
 31
0.0
 12
-15.46339069164423
 22
161.4799961947999
 32
0.0
 13
-15.46339069164423
 23
148.47518067058149
 33
0.0
  0
SOLID
  5
D52
  8
0
 10
70.473369906061635
 20
161.4799961947999
 30
0.0
 11
70.473369906061635
 21
148.47518067058149
 31
0.0
 12
74.651654856881564
 22
161.4799961947999
 32
0.0
 13
74.651654856881564
 23
148.47518067058149
 33
0.0
  0
LINE
  5
D53
  8
0
 10
-19.641675642464179
 20
22.591146473940171
 30
0.0
 11
81.641675642464165
 21
22.591146473940171
 31
0.0
  0
SOLID
  5
D54
  8
0
 10
-19.641675642464179
 20
22.591146473940171
 30
0.0
 11
-19.641675642464179
 21
9.5863309497217415
 31
0.0
 12
-15.46339069164423
 22
22.591146473940171
 32
0.0
 13
-15.46339069164423
 23
9.5863309497217415
 33
0.0
  0
SOLID
  5
D55
  8
0
 10
77.463390691644236
 20
22.591146473940171
 30
0.0
 11
77.463390691644236
 21
9.5863309497217415
 31
0.0
 12
81.641675642464165
 22
22.591146473940171
 32
0.0
 13
81.641675642464165
 23
9.5863309497217415
 33
0.0
  0
LINE
  5
D56
  8
0
 10
-19.641675642464179
 20
-130.0727860097395
 30
0.0
 11
81.641675642464165
 21
-130.0727860097395
 31
0.0
  0
SOLID
  5
D57
  8
0
 10
-19.641675642464179
 20
-130.0727860097395
 30
0.0
 11
-19.641675642464179
 21
-143.0776015339579
 31
0.0
 12
-15.46339069164423
 22
-130.0727860097395
 32
0.0
 13
-15.46339069164423
 23
-143.0776015339579
 33
0.0
  0
SOLID
  5
D58
  8
0
 10
77.463390691644236
 20
-130.0727860097395
 30
0.0
 11
77.463390691644236
 21
-143.0776015339579
 31
0.0
 12
81.641675642464165
 22
-130.0727860097395
 32
0.0
 13
81.641675642464165
 23
-143.0776015339579
 33
0.0
  0
INSERT
  5
D59
  8
0
  6
CONTINUOUS
  2
*U63
 10
0.0
 20
0.0
 30
0.0
  0
INSERT
  5
D5A
  8
0
  6
CONTINUOUS
  2
*U64
 10
0.0
 20
0.0
 30
0.0
  0
INSERT
  5
D5B
  8
0
  6
CONTINUOUS
  2
*U65
 10
0.0
 20
0.0
 30
0.0
  0
INSERT
  5
D5C
  8
0
  6
CONTINUOUS
  2
*U66
 10
0.0
 20
0.0
 30
0.0
  0
INSERT
  5
D5D
  8
0
  6
CONTINUOUS
  2
*U67
 10
0.0
 20
0.0
 30
0.0
  0
INSERT
  5
D5E
  8
0
  6
CONTINUOUS
  2
*U68
 10
0.0
 20
0.0
 30
0.0
  0
INSERT
  5
D5F
  8
0
  6
CONTINUOUS
  2
*U69
 10
0.0
 20
0.0
 30
0.0
  0
INSERT
  5
D60
  8
0
  6
CONTINUOUS
  2
*U70
 10
0.0
 20
0.0
 30
0.0
  0
POLYLINE
  5
D62
  8
0
 66
     1
 10
0.0
 20
0.0
 30
0.0
 70
   128
 40
0.5
 41
0.5
1001
GENIUS_GENODEF_13
1002
{
1000
HIER
1070
     0
1002
}
1002
{
1000
MANEDIT
1070
     0
1002
}
1002
{
1000
NOSEL
1070
     0
1002
}
1002
{
1000
BEHIND
1070
     0
1002
}
1002
{
1000
OTHER
1070
     0
1002
}
1002
{
1000
REACTOR
1002
}
1001
GENIUS_GENOBJ-N-FIL_13
1002
{
1000
OWNER
1000
GEN
1002
}
  0
VERTEX
  5
10D7
  8
0
 10
-109.3181644205342
 20
170.36717528907681
 30
0.0
  0
VERTEX
  5
10D8
  8
0
 10
-118.3181644205342
 20
170.3671752890767
 30
0.0
 42
-0.9999999999999998
  0
VERTEX
  5
10D9
  8
0
 10
-118.3181644205342
 20
172.36717528907681
 30
0.0
  0
VERTEX
  5
10DA
  8
0
 10
-50.318164420534231
 20
172.36717528907681
 30
0.0
 42
-0.9999999999999998
  0
VERTEX
  5
10DB
  8
0
 10
-50.318164420534231
 20
170.3671752890767
 30
0.0
  0
VERTEX
  5
10DC
  8
0
 10
-59.318164420534231
 20
170.36717528907681
 30
0.0
  0
SEQEND
  5
10DD
  8
0
  0
POLYLINE
  5
D63
  8
0
 66
     1
 10
0.0
 20
0.0
 30
0.0
 70
   128
 40
0.5
 41
0.5
  0
VERTEX
  5
10DE
  8
0
 10
-105.8294180785651
 20
11.534884107637041
 30
0.0
  0
VERTEX
  5
10DF
  8
0
 10
-73.318166930319805
 20
11.53488410763703
 30
0.0
 42
-0.4142135623730953
  0
VERTEX
  5
10E0
  8
0
 10
-72.318166930319805
 20
10.53488410763703
 30
0.0
  0
VERTEX
  5
10E1
  8
0
 10
-72.318166930319819
 20
-5.4651158923629701
 30
0.0
 42
0.4142135623730951
  0
VERTEX
  5
10E2
  8
0
 10
-71.318166930319819
 20
-6.4651158923629701
 30
0.0
  0
VERTEX
  5
10E3
  8
0
 10
-43.818164420534231
 20
-6.4651158923629772
 30
0.0
 42
0.4142135623730951
  0
VERTEX
  5
10E4
  8
0
 10
-42.318164420534238
 20
-4.9651158923629772
 30
0.0
  0
VERTEX
  5
10E5
  8
0
 10
-42.31816442053605
 20
32.534884107637481
 30
0.0
 42
-0.9999999999999998
  0
VERTEX
  5
10E6
  8
0
 10
-40.318164420535929
 20
32.534884107637481
 30
0.0
  0
VERTEX
  5
10E7
  8
0
 10
-40.31816442053605
 20
23.534884107638391
 30
0.0
  0
SEQEND
  5
10E8
  8
0
  0
POLYLINE
  5
D64
  8
0
 66
     1
 10
0.0
 20
0.0
 30
0.0
 70
   128
 40
0.5
 41
0.5
  0
VERTEX
  5
10E9
  8
0
 10
-44.318164420534231
 20
-2.9651158923629728
 30
0.0
  0
VERTEX
  5
10EA
  8
0
 10
-44.318164420534231
 20
12.534884107637019
 30
0.0
 42
0.4142135623730951
  0
VERTEX
  5
10EB
  8
0
 10
-45.318164420534231
 20
13.534884107637019
 30
0.0
  0
VERTEX
  5
10EC
  8
0
 10
-141.31816441834201
 20
13.534884107637041
 30
0.0
 42
0.9999999999999998
  0
VERTEX
  5
10ED
  8
0
 10
-141.31816441834201
 20
11.53488410763693
 30
0.0
  0
VERTEX
  5
10EE
  8
0
 10
-132.31816441834201
 20
11.534884107637049
 30
0.0
  0
SEQEND
  5
10EF
  8
0
  0
DIMENSION
  5
D65
  8
0
  6
CONTINUOUS
  2
*D33
 10
-49.318164420534231
 20
189.42333387985349
 30
0.0
 11
-84.318164420534217
 21
193.46562583074029
 31
0.0
 70
     0
 13
-119.3181644205342
 23
180.32488333818989
 33
0.0
 14
-49.318164420534231
 24
171.36717528907681
 34
0.0
  0
DIMENSION
  5
D66
  8
0
  6
CONTINUOUS
  2
*D34
 10
-109.3181644205342
 20
179.96562583074041
 30
0.0
 11
-114.3181644205342
 21
179.96562583074041
 31
0.0
 70
   128
 13
-119.3181644205342
 23
171.36717528907681
 33
0.0
 14
-109.3181644205342
 24
172.36717528907681
 34
0.0
  0
DIMENSION
  5
D67
  8
0
  6
CONTINUOUS
  2
*D35
 10
-49.318164420534231
 20
179.96562583074041
 30
0.0
 11
-54.318164420534231
 21
179.96562583074041
 31
0.0
 70
   128
 13
-59.318164420534231
 23
172.36717528907681
 33
0.0
 14
-49.318164420534231
 24
172.36717528907681
 34
0.0
  0
DIMENSION
  5
D68
  8
0
  2
*D36
 10
-42.318164420534238
 20
-26.39585761546596
 30
0.0
 11
-57.318165675427018
 21
-22.352201408098971
 31
0.0
 70
     0
  1
30
 13
-72.318166930319819
 23
-5.3843539215499261
 33
0.0
 14
-42.318164420534238
 24
-4.9651158923629772
 34
0.0
  0
DIMENSION
  5
D69
  8
0
  2
*D37
 10
-72.318166930319819
 20
-26.373083435224991
 30
0.0
 11
-77.318166929202278
 21
-26.373083435224991
 31
0.0
 70
   128
  1
10
 13
-82.318166928084722
 23
11.534884107637041
 33
0.0
 14
-72.318166930319819
 24
-5.3843539215499261
 34
0.0
  0
DIMENSION
  5
D6A
  8
0
  2
*D38
 10
-29.622217795915279
 20
33.534884107637481
 30
0.0
 11
-33.664509746802047
 21
13.534884107637239
 31
0.0
 70
     0
 13
-43.818164420534231
 23
-6.4651158923629772
 33
0.0
 14
-41.318164420536043
 24
33.534884107637481
 34
0.0
 50
270.0
  0
DIMENSION
  5
D6B
  8
0
  2
*D39
 10
-132.31816441834201
 20
47.604142384534057
 30
0.0
 11
-137.31816441834201
 21
51.646434335420828
 31
0.0
 70
     0
 13
-142.31816441834209
 23
11.534884107637049
 33
0.0
 14
-132.31816441834201
 24
11.534884107637049
 34
0.0
  0
DIMENSION
  5
D6C
  8
0
  2
*D40
 10
-42.31816442053605
 20
55.104142384534043
 30
0.0
 11
-92.318164419439071
 21
59.146434335420807
 31
0.0
 70
     0
  1
100
 13
-142.31816441834209
 23
11.534884107637049
 33
0.0
 14
-42.31816442053605
 24
32.534884107637481
 34
0.0
  0
LINE
  5
D6D
  8
0
 10
-24.641675642464179
 20
-176.0727860097395
 30
0.0
 11
86.641675642464165
 21
-176.0727860097395
 31
0.0
  0
SOLID
  5
D6E
  8
0
 10
-24.641675642464179
 20
-176.0727860097395
 30
0.0
 11
-24.641675642464179
 21
-189.0776015339579
 31
0.0
 12
-20.463390691644239
 22
-176.0727860097395
 32
0.0
 13
-20.463390691644239
 23
-189.0776015339579
 33
0.0
  0
SOLID
  5
D6F
  8
0
 10
82.463390691644236
 20
-176.0727860097395
 30
0.0
 11
82.463390691644236
 21
-189.0776015339579
 31
0.0
 12
86.641675642464165
 22
-176.0727860097395
 32
0.0
 13
86.641675642464165
 23
-189.0776015339579
 33
0.0
  0
INSERT
  5
D70
  8
0
  6
CONTINUOUS
  2
*U71
 10
0.0
 20
0.0
 30
0.0
  0
INSERT
  5
D71
  8
0
  6
CONTINUOUS
  2
*U72
 10
0.0
 20
0.0
 30
0.0
  0
POLYLINE
  5
D72
  8
0
 66
     1
 10
0.0
 20
0.0
 30
0.0
 70
   128
 40
0.5
 41
0.5
1001
GENIUS_GENODEF_13
1002
{
1000
HIER
1070
     0
1002
}
1002
{
1000
MANEDIT
1070
     0
1002
}
1002
{
1000
NOSEL
1070
     0
1002
}
1002
{
1000
BEHIND
1070
     0
1002
}
1002
{
1000
OTHER
1070
     0
1002
}
1002
{
1000
REACTOR
1002
}
1001
GENIUS_GENOBJ-N-FIL_13
1002
{
1000
OWNER
1000
GEN
1002
}
  0
VERTEX
  5
10F8
  8
0
 10
-132.31816441834201
 20
-87.057704410704886
 30
0.0
  0
VERTEX
  5
10F9
  8
0
 10
-141.31816441834201
 20
-87.057704410705014
 30
0.0
 42
-0.9999999999999998
  0
VERTEX
  5
10FA
  8
0
 10
-141.31816441834201
 20
-85.057704410704901
 30
0.0
  0
VERTEX
  5
10FB
  8
0
 10
-43.318164420535268
 20
-85.057704410704901
 30
0.0
 42
-0.9999999999999998
  0
VERTEX
  5
10FC
  8
0
 10
-43.318164420535268
 20
-87.057704410705014
 30
0.0
  0
VERTEX
  5
10FD
  8
0
 10
-52.318164420535282
 20
-87.057704410704886
 30
0.0
  0
SEQEND
  5
10FE
  8
0
  0
DIMENSION
  5
D73
  8
0
  6
CONTINUOUS
  2
*D41
 10
-49.318164420534231
 20
-68.001545819928197
 30
0.0
 11
-95.818164419438176
 21
-63.959253869041433
 31
0.0
 70
     0
  1
100
 13
-142.31816441834209
 23
-86.057704410704901
 33
0.0
 14
-49.318164420534231
 24
-86.057704410704901
 34
0.0
  0
DIMENSION
  5
D74
  8
0
  6
CONTINUOUS
  2
*D42
 10
-132.31816441834201
 20
-77.459253869041277
 30
0.0
 11
-137.31816441834201
 21
-77.459253869041277
 31
0.0
 70
   128
 13
-142.31816441834201
 23
-86.057704410704901
 33
0.0
 14
-132.31816441834201
 24
-85.057704410704901
 34
0.0
  0
DIMENSION
  5
D75
  8
0
  6
CONTINUOUS
  2
*D43
 10
-42.318164420535268
 20
-77.459253869041277
 30
0.0
 11
-47.318164420535268
 21
-77.459253869041277
 31
0.0
 70
   128
 13
-52.318164420535282
 23
-85.057704410704901
 33
0.0
 14
-42.318164420535268
 24
-86.057704410704901
 34
0.0
  0
INSERT
  5
D76
  8
0
  6
CONTINUOUS
  2
*U73
 10
0.0
 20
0.0
 30
0.0
  0
POLYLINE
  5
D77
  8
0
 66
     1
 10
0.0
 20
0.0
 30
0.0
 70
   128
 40
0.5
 41
0.5
1001
GENIUS_GENODEF_13
1002
{
1000
HIER
1070
     0
1002
}
1002
{
1000
MANEDIT
1070
     0
1002
}
1002
{
1000
NOSEL
1070
     0
1002
}
1002
{
1000
BEHIND
1070
     0
1002
}
1002
{
1000
OTHER
1070
     0
1002
}
1002
{
1000
REACTOR
1002
}
1001
GENIUS_GENOBJ-N-FIL_13
1002
{
1000
OWNER
1000
GEN
1002
}
  0
VERTEX
  5
1104
  8
0
 10
-147.3181644205342
 20
-164.1328247109231
 30
0.0
  0
VERTEX
  5
1105
  8
0
 10
-156.3181644205342
 20
-164.1328247109233
 30
0.0
 42
-0.9999999999999998
  0
VERTEX
  5
1106
  8
0
 10
-156.3181644205342
 20
-162.13282471092299
 30
0.0
  0
VERTEX
  5
1107
  8
0
 10
-28.318164420534231
 20
-162.1328247109231
 30
0.0
 42
-0.9999999999999998
  0
VERTEX
  5
1108
  8
0
 10
-28.318164420534231
 20
-164.1328247109233
 30
0.0
  0
VERTEX
  5
1109
  8
0
 10
-37.318164420534231
 20
-164.1328247109231
 30
0.0
  0
SEQEND
  5
110A
  8
0
  0
DIMENSION
  5
D78
  8
0
  6
CONTINUOUS
  2
*D44
 10
-27.318164420534231
 20
-145.0766661201464
 30
0.0
 11
-92.318164420534231
 21
-141.03300991277939
 31
0.0
 70
     0
  1
130
 13
-157.3181644205342
 23
-163.1328247109231
 33
0.0
 14
-27.318164420534231
 24
-163.1328247109231
 34
0.0
  0
DIMENSION
  5
D79
  8
0
  6
CONTINUOUS
  2
*D45
 10
-147.3181644205342
 20
-154.53437416925951
 30
0.0
 11
-152.3181644205342
 21
-154.53437416925951
 31
0.0
 70
   128
 13
-157.3181644205342
 23
-163.1328247109231
 33
0.0
 14
-147.3181644205342
 24
-162.1328247109231
 34
0.0
  0
DIMENSION
  5
D7A
  8
0
  6
CONTINUOUS
  2
*D46
 10
-27.318164420534231
 20
-154.53437416925951
 30
0.0
 11
-32.318164420534231
 21
-154.53437416925951
 31
0.0
 70
   128
 13
-37.318164420534231
 23
-163.1328247109231
 33
0.0
 14
-27.318164420534231
 24
-162.1328247109231
 34
0.0
  0
POLYLINE
  5
D7B
  8
0
 66
     1
 10
0.0
 20
0.0
 30
0.0
 70
   128
  0
VERTEX
  5
110B
  8
0
 10
159.13215167361429
 20
171.5683140501919
 30
0.0
  0
VERTEX
  5
110C
  8
0
 10
155.0195688292124
 20
124.5612770392072
 30
0.0
  0
VERTEX
  5
110D
  8
0
 10
147.77190905874059
 20
121.9233446146677
 30
0.0
  0
VERTEX
  5
110E
  8
0
 10
161.59244617297281
 20
119.4864110335466
 30
0.0
  0
VERTEX
  5
110F
  8
0
 10
154.34478640250649
 20
116.8484786090057
 30
0.0
  0
VERTEX
  5
1110
  8
0
 10
149.73793487781131
 20
64.19192473071007
 30
0.0
  0
SEQEND
  5
1111
  8
0
  0
CIRCLE
  5
D7C
  8
0
 10
60.877949315478382
 20
-86.049388889229249
 30
0.0
 40
1.0
  0
CIRCLE
  5
D7D
  8
0
 10
36.479261547716312
 20
-122.132187015211
 30
0.0
 40
1.0
  0
LINE
  5
D7E
  8
0
 10
157.81804696276939
 20
156.54802847392011
 30
0.0
 11
10.999999999998179
 21
156.54802847392011
 31
0.0
  0
LINE
  5
D7F
  8
0
 10
66.0
 20
-127.1080522183692
 30
0.0
 11
65.999999999998181
 21
-78.690674989602485
 31
0.0
  0
LINE
  5
D80
  8
0
 10
61.999999999998181
 20
-127.1080522183688
 30
0.0
 11
61.999999999998181
 21
156.54802847392011
 31
0.0
  0
LINE
  5
D81
  8
0
 10
157.0306489910366
 20
147.54802847391869
 30
0.0
 11
10.999999999998179
 21
147.54802847391869
 31
0.0
  0
LINE
  5
D82
  8
0
 10
61.999999999998181
 20
156.54802847392011
 30
0.0
 11
61.999999999998181
 21
165.259764113252
 31
0.0
  0
LINE
  5
D83
  8
0
 10
-3.999999999998181
 20
165.2597641132524
 30
0.0
 11
66.0
 21
165.2597641132524
 31
0.0
  0
LINE
  5
D84
  8
0
 10
31.12158580218297
 20
106.2127262369233
 30
0.0
 11
31.121585802181471
 21
-127.1080522183692
 31
0.0
  0
INSERT
  5
D85
  8
0
  6
CONTINUOUS
  2
*U74
 10
0.0
 20
0.0
 30
0.0
  0
INSERT
  5
D86
  8
0
  6
CONTINUOUS
  2
*U75
 10
0.0
 20
0.0
 30
0.0
1001
ACAD
1000
DSTYLE
1002
{
1070
    77
1070
     1
1070
   177
1070
     6
1070
   178
1070
     2
1002
}
  0
INSERT
  5
D87
  8
0
  6
CONTINUOUS
  2
*U76
 10
0.0
 20
0.0
 30
0.0
  0
INSERT
  5
D88
  8
0
  6
CONTINUOUS
  2
*U77
 10
0.0
 20
0.0
 30
0.0
1001
ACAD
1000
DSTYLE
1002
{
1070
    77
1070
     1
1070
   177
1070
     6
1070
   178
1070
     2
1002
}
  0
INSERT
  5
D89
  8
0
  6
CONTINUOUS
  2
*U78
 10
0.0
 20
0.0
 30
0.0
  0
INSERT
  5
D8A
  8
0
  6
CONTINUOUS
  2
*U79
 10
0.0
 20
0.0
 30
0.0
1001
ACAD
1000
DSTYLE
1002
{
1070
    77
1070
     1
1070
   177
1070
     6
1070
   178
1070
     2
1002
}
  0
INSERT
  5
D8B
  8
0
  6
CONTINUOUS
  2
*U80
 10
0.0
 20
0.0
 30
0.0
  0
INSERT
  5
D8C
  8
0
  6
CONTINUOUS
  2
*U81
 10
0.0
 20
0.0
 30
0.0
1001
ACAD
1000
DSTYLE
1002
{
1070
    77
1070
     1
1070
   177
1070
     6
1070
   178
1070
     2
1002
}
  0
INSERT
  5
D8D
  8
0
  6
CONTINUOUS
  2
*U82
 10
0.0
 20
0.0
 30
0.0
  0
INSERT
  5
D8E
  8
0
  6
CONTINUOUS
  2
*U83
 10
0.0
 20
0.0
 30
0.0
1001
ACAD
1000
DSTYLE
1002
{
1070
    77
1070
     1
1070
   177
1070
     6
1070
   178
1070
     2
1002
}
  0
INSERT
  5
D8F
  8
0
  6
CONTINUOUS
  2
*U84
 10
0.0
 20
0.0
 30
0.0
  0
INSERT
  5
D90
  8
0
  6
CONTINUOUS
  2
*U85
 10
0.0
 20
0.0
 30
0.0
1001
ACAD
1000
DSTYLE
1002
{
1070
    77
1070
     1
1070
   177
1070
     6
1070
   178
1070
     2
1002
}
  0
INSERT
  5
D91
  8
0
  6
CONTINUOUS
  2
*U86
 10
0.0
 20
0.0
 30
0.0
  0
INSERT
  5
D92
  8
0
  6
CONTINUOUS
  2
*U87
 10
0.0
 20
0.0
 30
0.0
1001
ACAD
1000
DSTYLE
1002
{
1070
    77
1070
     1
1070
   177
1070
     6
1070
   178
1070
     2
1002
}
  0
POLYLINE
  5
D93
  8
0
 66
     1
 10
0.0
 20
0.0
 30
0.0
 70
     1
  0
VERTEX
  5
1172
  8
0
 10
12.456785032134571
 20
140.94367688338249
 30
0.0
  0
VERTEX
  5
1173
  8
0
 10
19.396163079747559
 20
140.94367688338249
 30
0.0
  0
VERTEX
  5
1174
  8
0
 10
19.396163079747559
 20
108.3688913052774
 30
0.0
  0
VERTEX
  5
1175
  8
0
 10
12.456785032134571
 20
108.3688913052774
 30
0.0
  0
SEQEND
  5
1176
  8
0
  0
INSERT
  5
D95
  8
0
  6
CONTINUOUS
  2
*U88
 10
0.0
 20
0.0
 30
0.0
  0
INSERT
  5
D96
  8
0
  6
CONTINUOUS
  2
*U89
 10
0.0
 20
0.0
 30
0.0
  0
INSERT
  5
D97
  8
0
  6
CONTINUOUS
  2
*U90
 10
0.0
 20
0.0
 30
0.0
1001
ACAD
1000
DSTYLE
1002
{
1070
    77
1070
     1
1070
   177
1070
     6
1070
   178
1070
     2
1002
}
  0
INSERT
  5
D98
  8
0
  6
CONTINUOUS
  2
*U91
 10
0.0
 20
0.0
 30
0.0
  0
LINE
  5
D99
  8
0
  6
CONTINUOUS
 10
92.784633562980176
 20
-140.02391486957771
 30
0.0
 11
98.862392689032276
 21
-140.02391486957771
 31
0.0
  0
LINE
  5
D9A
  8
0
 10
-141.32569916362439
 20
9.0916490746926861
 30
0.0
 11
-80.17900171369547
 21
9.0916490746926755
 31
0.0
  0
LINE
  5
D9B
  8
0
 10
-80.17900171369547
 20
9.0916490746926755
 30
0.0
 11
-80.179001713695484
 21
-5.7906612841256786
 31
0.0
  0
LINE
  5
D9C
  8
0
 10
-80.179001713695484
 20
-5.7906612841256786
 30
0.0
 11
-141.32569916362439
 21
-5.7906612841256653
 31
0.0
  0
POLYLINE
  5
D9E
  8
0
 66
     1
 10
0.0
 20
0.0
 30
0.0
 70
     1
  0
VERTEX
  5
1190
  8
0
 10
-91.195794694984244
 20
-5.764379368582456
 30
0.0
  0
VERTEX
  5
1191
  8
0
 10
-96.456314795730606
 20
-5.764379368582456
 30
0.0
  0
VERTEX
  5
1192
  8
0
 10
-96.456314795730577
 20
11.534884107637041
 30
0.0
  0
VERTEX
  5
1193
  8
0
 10
-91.195794694984215
 20
11.53488410763703
 30
0.0
  0
SEQEND
  5
1194
  8
0
  0
LINE
  5
D9F
  8
0
 10
11.0
 20
76.212726236923118
 30
0.0
 11
11.0
 21
156.54802847392011
 31
0.0
  0
LINE
  5
DA0
  8
0
 10
68.999999999999986
 20
-78.690674989602513
 30
0.0
 11
69.0
 21
76.212726236923899
 31
0.0
  0
LINE
  5
DA1
  8
0
  6
HCAV-05A_WIND_FLASH$0$HIDD
 10
69.0
 20
76.212726236923913
 30
0.0
 11
69.0
 21
102.2127262369237
 31
0.0
  0
LINE
  5
EC8
  8
0
 10
65.948321447216955
 20
-69.15975621252079
 30
0.0
 11
63.279454087053551
 21
-69.159756212520492
 31
0.0
1001
GENIUS_GENOREF_13
1005
0
  0
LINE
  5
EC9
  8
0
 10
65.948321447216955
 20
-65.959756212523587
 30
0.0
 11
63.279454087053551
 21
-65.959756212523274
 31
0.0
1001
GENIUS_GENOREF_13
1005
0
  0
ARC
  5
ECA
  8
0
 10
66.964321447216108
 20
-65.527089545857379
 30
0.0
 40
1.3973333333320641
 50
0.0
 51
90.0
1001
GENIUS_GENOREF_13
1005
0
  0
LINE
  5
ECB
  8
0
 10
66.614988113883172
 20
-65.856422879190518
 30
0.0
 11
66.614988113883172
 21
-64.129756212525322
 31
0.0
1001
GENIUS_GENOREF_13
1005
0
  0
LINE
  5
ECC
  8
0
 10
66.964321447216108
 20
-70.989756212519055
 30
0.0
 11
66.964321447216108
 21
-64.129756212525322
 31
0.0
1001
GENIUS_GENOREF_13
1005
0
  0
LINE
  5
ECD
  8
0
 10
66.614988113883172
 20
-64.129756212525322
 30
0.0
 11
66.964321447216108
 21
-64.129756212525322
 31
0.0
1001
GENIUS_GENOREF_13
1005
0
  0
LINE
  5
ECE
  8
0
 10
66.614988113883172
 20
-69.263089545853859
 30
0.0
 11
66.614988113883172
 21
-65.856422879190518
 31
0.0
1001
GENIUS_GENOREF_13
1005
0
  0
LINE
  5
ECF
  8
0
 10
66.021654780550307
 20
-69.15975621252079
 30
0.0
 11
66.021654780550307
 21
-65.959756212523587
 31
0.0
1001
GENIUS_GENOREF_13
1005
0
  0
LINE
  5
ED0
  8
0
 10
68.361654780548321
 20
-69.592422879186998
 30
0.0
 11
68.361654780548179
 21
-67.559756212522174
 31
0.0
1001
GENIUS_GENOREF_13
1005
0
  0
LINE
  5
ED1
  8
0
 10
68.361654780548321
 20
-65.527089545857379
 30
0.0
 11
68.361654780548179
 21
-67.559756212522174
 31
0.0
1001
GENIUS_GENOREF_13
1005
0
  0
LINE
  5
ED2
  8
0
 10
66.021654780550307
 20
-65.959756212523587
 30
0.0
 11
66.614988113883172
 21
-65.856422879190518
 31
0.0
1001
GENIUS_GENOREF_13
1005
0
  0
ARC
  5
ED3
  8
0
 10
66.964321447216108
 20
-69.592422879186998
 30
0.0
 40
1.3973333333320641
 50
270.0
 51
0.0
1001
GENIUS_GENOREF_13
1005
0
  0
LINE
  5
ED4
  8
0
 10
66.614988113883172
 20
-69.263089545853859
 30
0.0
 11
66.614988113883172
 21
-70.989756212519055
 31
0.0
1001
GENIUS_GENOREF_13
1005
0
  0
LINE
  5
ED5
  8
0
 10
66.614988113883172
 20
-70.989756212519055
 30
0.0
 11
66.964321447216108
 21
-70.989756212519055
 31
0.0
1001
GENIUS_GENOREF_13
1005
0
  0
LINE
  5
ED6
  8
0
 10
66.021654780550307
 20
-69.15975621252079
 30
0.0
 11
66.614988113883172
 21
-69.263089545853859
 31
0.0
1001
GENIUS_GENOREF_13
1005
0
  0
ARC
  5
ED7
  8
0
 10
61.35988733543762
 20
-71.676115784675446
 30
0.0
 40
6.8599999999937591
 50
73.750524458086446
 51
118.94882037700729
1001
GENIUS_GENOREF_13
1005
0
  0
LINE
  5
ED8
  8
0
 10
63.279454087053253
 20
-65.959756212523587
 30
0.0
 11
63.279454087053253
 21
-65.090156212524363
 31
0.0
1001
GENIUS_GENOREF_13
1005
0
  0
ARC
  5
ED9
  8
0
 10
61.359887335437627
 20
-63.443396640368917
 30
0.0
 40
6.8599999999937591
 50
241.05117962299261
 51
286.24947554191351
1001
GENIUS_GENOREF_13
1005
0
  0
LINE
  5
EDA
  8
0
 10
63.279454087053253
 20
-69.15975621252079
 30
0.0
 11
63.279454087053253
 21
-65.959756212523587
 31
0.0
1001
GENIUS_GENOREF_13
1005
0
  0
LINE
  5
EDB
  8
0
 10
58.039454087058083
 20
-69.446256212520396
 30
0.0
 11
58.039454087058083
 21
-65.673256212523981
 31
0.0
1001
GENIUS_GENOREF_13
1005
0
  0
LINE
  5
EDC
  8
0
 10
63.279454087053253
 20
-69.15975621252079
 30
0.0
 11
63.279454087053253
 21
-70.029356212519986
 31
0.0
1001
GENIUS_GENOREF_13
1005
0
  0
LINE
  5
F60
  8
0
 10
18.184204896854681
 20
140.94367688338301
 30
0.0
 11
19.396163079747559
 21
139.731718700491
 31
0.0
  0
LINE
  5
F61
  8
0
 10
16.388153672640328
 20
140.94367688338389
 30
0.0
 11
19.39616307974666
 21
137.9356674762775
 31
0.0
  0
LINE
  5
F62
  8
0
 10
14.59210244842779
 20
140.94367688338301
 30
0.0
 11
19.39616307974666
 21
136.13961625206409
 31
0.0
  0
LINE
  5
F63
  8
0
 10
12.79605122421435
 20
140.94367688338389
 30
0.0
 11
19.396163079747559
 21
134.34356502785059
 31
0.0
  0
LINE
  5
F64
  8
0
 10
12.456785032134571
 20
139.48689185125019
 30
0.0
 11
19.396163079747559
 21
132.54751380363629
 31
0.0
  0
LINE
  5
F65
  8
0
 10
12.456785032134571
 20
137.69084062703581
 30
0.0
 11
19.39616307974666
 21
130.75146257942379
 31
0.0
  0
LINE
  5
F66
  8
0
 10
12.45678503213548
 20
135.8947894028197
 30
0.0
 11
19.396163079747559
 21
128.95541135520759
 31
0.0
  0
LINE
  5
F67
  8
0
 10
12.45678503213548
 20
134.09873817860711
 30
0.0
 11
19.396163079748469
 21
127.1593601309942
 31
0.0
  0
LINE
  5
F68
  8
0
 10
12.45678503213548
 20
132.30268695439369
 30
0.0
 11
19.396163079747559
 21
125.3633089067807
 31
0.0
  0
LINE
  5
F69
  8
0
 10
12.45678503213548
 20
130.50663573017931
 30
0.0
 11
19.396163079747559
 21
123.5672576825673
 31
0.0
  0
LINE
  5
F6A
  8
0
 10
12.456785032134571
 20
128.7105845059659
 30
0.0
 11
19.39616307974666
 21
121.77120645835291
 31
0.0
  0
LINE
  5
F6B
  8
0
 10
12.456785032134571
 20
126.9145332817515
 30
0.0
 11
19.39616307974666
 21
119.97515523413951
 31
0.0
  0
LINE
  5
F6C
  8
0
 10
12.456785032134571
 20
125.1184820575381
 30
0.0
 11
19.39616307974666
 21
118.1791040099269
 31
0.0
  0
LINE
  5
F6D
  8
0
 10
12.456785032134571
 20
123.3224308333247
 30
0.0
 11
19.39616307974666
 21
116.38305278571259
 31
0.0
  0
LINE
  5
F6E
  8
0
 10
12.456785032134571
 20
121.5263796091112
 30
0.0
 11
19.396163079747559
 21
114.58700156149909
 31
0.0
  0
LINE
  5
F6F
  8
0
 10
12.45678503213548
 20
119.7303283848951
 30
0.0
 11
19.39616307974666
 21
112.7909503372839
 31
0.0
  0
LINE
  5
F70
  8
0
 10
12.45678503213548
 20
117.9342771606816
 30
0.0
 11
19.39616307974666
 21
110.9948991130704
 31
0.0
  0
LINE
  5
F71
  8
0
 10
12.45678503213548
 20
116.1382259364691
 30
0.0
 11
19.396163079747559
 21
109.19884788885609
 31
0.0
  0
LINE
  5
F72
  8
0
 10
12.45678503213548
 20
114.3421747122547
 30
0.0
 11
18.430068439114621
 21
108.36889130527651
 31
0.0
  0
LINE
  5
F73
  8
0
 10
12.456785032134571
 20
112.54612348804039
 30
0.0
 11
16.634017214898449
 21
108.36889130527651
 31
0.0
  0
LINE
  5
F74
  8
0
 10
12.456785032134571
 20
110.7500722638278
 30
0.0
 11
14.837965990684101
 21
108.3688913052774
 31
0.0
  0
LINE
  5
F75
  8
0
 10
12.456785032134571
 20
108.9540210396144
 30
0.0
 11
13.041914766470651
 21
108.3688913052774
 31
0.0
  0
LINE
  5
F76
  8
0
 10
12.456785032134571
 20
140.2322824765742
 30
0.0
 11
13.16817943894239
 21
140.94367688338201
 31
0.0
  0
LINE
  5
F77
  8
0
 10
12.45678503213639
 20
138.4362312523626
 30
0.0
 11
14.964230663154011
 21
140.94367688338019
 31
0.0
  0
LINE
  5
F78
  8
0
 10
12.456785032134571
 20
136.64018002814731
 30
0.0
 11
16.760281887367452
 21
140.94367688338201
 31
0.0
  0
LINE
  5
F79
  8
0
 10
12.456785032134571
 20
134.8441288039339
 30
0.0
 11
18.556333111580901
 21
140.94367688338019
 31
0.0
  0
LINE
  5
F7A
  8
0
 10
12.45678503213639
 20
133.04807757972051
 30
0.0
 11
19.396163079749378
 21
139.9874556273335
 31
0.0
  0
LINE
  5
F7B
  8
0
 10
12.456785032134571
 20
131.25202635550701
 30
0.0
 11
19.396163079749378
 21
138.19140440312
 31
0.0
  0
LINE
  5
F7C
  8
0
 10
12.45678503213639
 20
129.4559751312936
 30
0.0
 11
19.396163079749378
 21
136.39535317890659
 31
0.0
  0
LINE
  5
F7D
  8
0
 10
12.45678503213639
 20
127.6599239070801
 30
0.0
 11
19.396163079749378
 21
134.59930195469309
 31
0.0
  0
LINE
  5
F7E
  8
0
 10
12.456785032134571
 20
125.8638726828667
 30
0.0
 11
19.396163079749378
 21
132.8032507304797
 31
0.0
  0
LINE
  5
F7F
  8
0
 10
12.45678503213639
 20
124.0678214586532
 30
0.0
 11
19.396163079747559
 21
131.0071995062662
 31
0.0
  0
LINE
  5
F80
  8
0
 10
12.456785032134571
 20
122.27177023443799
 30
0.0
 11
19.396163079749378
 21
129.211148282051
 31
0.0
  0
LINE
  5
F81
  8
0
 10
12.456785032134571
 20
120.4757190102227
 30
0.0
 11
19.396163079747559
 21
127.4150970578375
 31
0.0
  0
LINE
  5
F82
  8
0
 10
12.456785032134571
 20
118.6796677860093
 30
0.0
 11
19.396163079747559
 21
125.61904583362229
 31
0.0
  0
LINE
  5
F83
  8
0
 10
12.456785032134571
 20
116.8836165617958
 30
0.0
 11
19.396163079747559
 21
123.82299460940879
 31
0.0
  0
LINE
  5
F84
  8
0
 10
12.456785032134571
 20
115.0875653375824
 30
0.0
 11
19.396163079747559
 21
122.02694338519539
 31
0.0
  0
LINE
  5
F85
  8
0
 10
12.456785032134571
 20
113.2915141133671
 30
0.0
 11
19.396163079747559
 21
120.2308921609801
 31
0.0
  0
LINE
  5
F86
  8
0
 10
12.45678503213276
 20
111.4954628891537
 30
0.0
 11
19.396163079747559
 21
118.4348409367667
 31
0.0
  0
LINE
  5
F87
  8
0
 10
12.456785032134571
 20
109.6994116649403
 30
0.0
 11
19.39616307974574
 21
116.6387897125532
 31
0.0
  0
LINE
  5
F88
  8
0
 10
12.92231589668517
 20
108.3688913052756
 30
0.0
 11
19.396163079747559
 21
114.842738488338
 31
0.0
  0
LINE
  5
F89
  8
0
 10
14.71836712089862
 20
108.3688913052756
 30
0.0
 11
19.396163079749378
 21
113.0466872641264
 31
0.0
  0
LINE
  5
F8A
  8
0
 10
16.514418345113882
 20
108.3688913052774
 30
0.0
 11
19.396163079747559
 21
111.25063603991291
 31
0.0
  0
LINE
  5
F8B
  8
0
 10
18.310469569327321
 20
108.3688913052774
 30
0.0
 11
19.396163079747559
 21
109.4545848156976
 31
0.0
  0
LINE
  5
F8C
  8
0
 10
-96.456314795730606
 20
10.13970728495247
 30
0.0
 11
-95.061137973046016
 21
11.534884107637041
 31
0.0
1001
ACAD
1010
0.0
1020
0.0
1030
0.0
  0
LINE
  5
F8D
  8
0
 10
-96.456314795730577
 20
8.3436560607386383
 30
0.0
 11
-93.265086748832189
 21
11.53488410763703
 31
0.0
1001
ACAD
1010
0.0
1020
0.0
1030
0.0
  0
LINE
  5
F8E
  8
0
 10
-96.456314795730577
 20
6.5476048365248181
 30
0.0
 11
-91.469035524618363
 21
11.534884107637041
 31
0.0
1001
ACAD
1010
0.0
1020
0.0
1030
0.0
  0
LINE
  5
F8F
  8
0
 10
-96.456314795730606
 20
4.7515536123109783
 30
0.0
 11
-91.195794694984215
 21
10.012073713057349
 31
0.0
1001
ACAD
1010
0.0
1020
0.0
1030
0.0
  0
LINE
  5
F90
  8
0
 10
-96.456314795730606
 20
2.9555023880971438
 30
0.0
 11
-91.195794694984215
 21
8.2160224888435067
 31
0.0
1001
ACAD
1010
0.0
1020
0.0
1030
0.0
  0
LINE
  5
F91
  8
0
 10
-96.456314795730606
 20
1.1594511638833109
 30
0.0
 11
-91.195794694984215
 21
6.4199712646296874
 31
0.0
1001
ACAD
1010
0.0
1020
0.0
1030
0.0
  0
LINE
  5
F92
  8
0
 10
-96.456314795730606
 20
-0.6366000603305153
 30
0.0
 11
-91.195794694984215
 21
4.6239200404158529
 31
0.0
1001
ACAD
1010
0.0
1020
0.0
1030
0.0
  0
LINE
  5
F93
  8
0
 10
-96.456314795730606
 20
-2.432651284544348
 30
0.0
 11
-91.195794694984244
 21
2.8278688162020198
 31
0.0
1001
ACAD
1010
0.0
1020
0.0
1030
0.0
  0
LINE
  5
F94
  8
0
 10
-96.456314795730606
 20
-4.2287025087581753
 30
0.0
 11
-91.195794694984244
 21
1.031817591988186
 31
0.0
1001
ACAD
1010
0.0
1020
0.0
1030
0.0
  0
LINE
  5
F95
  8
0
 10
-96.195940431341043
 20
-5.7643793685824534
 30
0.0
 11
-91.195794694984244
 21
-0.7642336322256469
 31
0.0
1001
ACAD
1010
0.0
1020
0.0
1030
0.0
  0
LINE
  5
F96
  8
0
 10
-94.399889207127188
 20
-5.7643793685824463
 30
0.0
 11
-91.195794694984244
 21
-2.5602848564394871
 31
0.0
1001
ACAD
1010
0.0
1020
0.0
1030
0.0
  0
LINE
  5
F97
  8
0
 10
-92.603837982913376
 20
-5.7643793685824463
 30
0.0
 11
-91.195794694984244
 21
-4.356336080653306
 31
0.0
1001
ACAD
1010
0.0
1020
0.0
1030
0.0
  0
LINE
  5
F98
  8
0
 10
-91.728189345192362
 20
11.534884107637041
 30
0.0
 11
-91.195794694984215
 21
11.002489457428879
 31
0.0
1001
ACAD
1010
0.0
1020
0.0
1030
0.0
  0
LINE
  5
F99
  8
0
 10
-93.524240569406203
 20
11.534884107637041
 30
0.0
 11
-91.195794694984215
 21
9.2064382332150565
 31
0.0
1001
ACAD
1010
0.0
1020
0.0
1030
0.0
  0
LINE
  5
F9A
  8
0
 10
-95.320291793620015
 20
11.534884107637041
 30
0.0
 11
-91.195794694984215
 21
7.41038700900123
 31
0.0
1001
ACAD
1010
0.0
1020
0.0
1030
0.0
  0
LINE
  5
F9B
  8
0
 10
-96.456314795730577
 20
10.87485588553376
 30
0.0
 11
-91.195794694984215
 21
5.6143357847873894
 31
0.0
1001
ACAD
1010
0.0
1020
0.0
1030
0.0
  0
LINE
  5
F9C
  8
0
 10
-96.456314795730577
 20
9.078804661319932
 30
0.0
 11
-91.195794694984215
 21
3.818284560573562
 31
0.0
1001
ACAD
1010
0.0
1020
0.0
1030
0.0
  0
LINE
  5
F9D
  8
0
 10
-96.456314795730577
 20
7.2827534371060976
 30
0.0
 11
-91.195794694984215
 21
2.022233336359736
 31
0.0
1001
ACAD
1010
0.0
1020
0.0
1030
0.0
  0
LINE
  5
F9E
  8
0
 10
-96.456314795730577
 20
5.486702212892264
 30
0.0
 11
-91.195794694984215
 21
0.2261821121459029
 31
0.0
1001
ACAD
1010
0.0
1020
0.0
1030
0.0
  0
LINE
  5
F9F
  8
0
 10
-96.456314795730577
 20
3.6906509886784411
 30
0.0
 11
-91.195794694984215
 21
-1.5698691120679269
 31
0.0
1001
ACAD
1010
0.0
1020
0.0
1030
0.0
  0
LINE
  5
FA0
  8
0
 10
-96.456314795730577
 20
1.894599764464608
 30
0.0
 11
-91.195794694984215
 21
-3.3659203362817638
 31
0.0
1001
ACAD
1010
0.0
1020
0.0
1030
0.0
  0
LINE
  5
FA1
  8
0
 10
-96.456314795730577
 20
0.098548540250782
 30
0.0
 11
-91.195794694984215
 21
-5.1619715604955827
 31
0.0
1001
ACAD
1010
0.0
1020
0.0
1030
0.0
  0
LINE
  5
FA2
  8
0
 10
-96.456314795730577
 20
-1.6975026839630509
 30
0.0
 11
-92.389438111111176
 21
-5.7643793685824489
 31
0.0
1001
ACAD
1010
0.0
1020
0.0
1030
0.0
  0
LINE
  5
FA3
  8
0
 10
-96.456314795730577
 20
-3.4935539081768852
 30
0.0
 11
-94.185489335325002
 21
-5.7643793685824596
 31
0.0
1001
ACAD
1010
0.0
1020
0.0
1030
0.0
  0
LINE
  5
FA4
  8
0
 10
-96.456314795730577
 20
-5.2896051323907249
 30
0.0
 11
-95.981540559538843
 21
-5.7643793685824667
 31
0.0
1001
ACAD
1010
0.0
1020
0.0
1030
0.0
  0
ENDSEC
  0
EOF
